Ошибка

Полосатый рейс (Владимир Фетин) [1961, комедия, приключения, семейный, BDRip]

Ответить на тему
 
Автор Сообщение

Aleksey Nik

Пол: Пол:Муж

Стаж: 6 лет 1 месяц

Сообщений: 60

Россия
Рейтинг

post 18-Ноя-2017 20:41 3[+]

[Цитировать] 

Название: Полосатый рейс
Год выхода: 1961
Жанр: комедия, приключения, семейный
Режиссер: Владимир Фетин
В ролях: Алексей Грибов, Иван Дмитриев, Маргарита Назарова, Евгений Леонов, Владимир Белокуров, Николай Волков, Александр Бениаминов, Аркадий Трусов, Алексей Смирнов, Алексей Кожевников, Галина Короткевич, Владимир Трошин, Ефим Копелян
Описание:
На советский теплоход погрузили опасный груз - тигров и львов, а сопровождать приставили буфетчика... Во время плавания маленькая обезьянка, подаренная капитану, открывает клетки. Хищники выходят на свободу, вся команда в ужасе разбегается. И только племяннице капитана удается спасти положение, укротив диких зверей...
Выпущено: СССР / Ленфильм
Продолжительность: 01:27:07
Перевод: Оригинал
Формат: AVI
Качество: BDRip
Видео: 704x512 (1.38:1), 23,976 fps, XviD build 65 ~1927 kbps avg, 0.22 bit/pixel
Аудио: 48 kHz, AC3 Dolby Digital, 3/2 (L,C,R,l,r) + LFE ch, ~448.00 kbps avg
General
Complete name : J:\AVI\Полосатый рейс (1961) BDRip.avi
Format : AVI
Format/Info : Audio Video Interleave
File size : 1.45 GiB
Duration : 1h 27mn
Overall bit rate : 2 384 Kbps
Movie name : Полосатый рейс (1961) BDRip
Director : kingsize87
Writing application : VirtualDubMod 1.5.10.2 (build 2540/release)
Copyright : HQCLUB
Comment : 17.01.2014

Video
ID : 0
Format : MPEG-4 Visual
Format profile : Advanced Simple@L5
Format settings, BVOP : 1
Format settings, QPel : No
Format settings, GMC : No warppoints
Format settings, Matrix : Custom
Codec ID : XVID
Codec ID/Hint : XviD
Duration : 1h 27mn
Bit rate : 1 927 Kbps
Width : 704 pixels
Height : 512 pixels
Display aspect ratio : 1.375
Frame rate : 23.976 fps
Color space : YUV
Chroma subsampling : 4:2:0
Bit depth : 8 bits
Scan type : Progressive
Compression mode : Lossy
Bits/(Pixel*Frame) : 0.223
Stream size : 1.17 GiB (81%)
Writing library : XviD 65

Audio
ID : 1
Format : AC-3
Format/Info : Audio Coding 3
Mode extension : CM (complete main)
Format settings, Endianness : Big
Codec ID : 2000
Duration : 1h 27mn
Bit rate mode : Constant
Bit rate : 448 Kbps
Channel(s) : 6 channels
Channel positions : Front: L C R, Side: L R, LFE
Sampling rate : 48.0 KHz
Bit depth : 16 bits
Compression mode : Lossy
Stream size : 279 MiB (19%)
Alignment : Split accross interleaves
Interleave, duration : 42 ms (1.00 video frame)
Interleave, preload duration : 500 ms
info [Профиль]  [ЛС] 

Source75

Пол: Пол:Муж

Стаж: 5 лет 11 месяцев

Сообщений: 57

Рейтинг

post 19-Ноя-2017 01:59 (спустя 5 часов) [-]2[+]

[Цитировать] 

Классика советского кино. Спасибо!)
info [Профиль]  [ЛС] 

SteadFasT

Пол: Пол:Муж

Стаж: 8 лет 8 месяцев

Сообщений: 42

Россия
Рейтинг

post 19-Ноя-2017 13:23 (спустя 11 часов) [-]2[+]

[Цитировать] 

Что они сделали с лицом Леонова на постере? Ужас.
info [Профиль]  [ЛС] 

Zewss

Пол: Пол:Муж

Стаж: 7 лет

Сообщений: 74

СССР
Рейтинг

post 20-Ноя-2017 04:01 (спустя 14 часов) [-]0[+]

[Цитировать] 

SteadFasT писал(а):

Что они сделали с лицом Леонова на постере? Ужас.
Смирнова тоже запоганили

_________________
cout<<"i5-2500K 4.5 Ghz";
cout<<"MSI GTX 980";
cout<<"16 Gb RAM 1.6 Ghz";
cout<<"SSD 120 Gb";
info [Профиль]  [ЛС] 
Показать сообщения:    
Ответить на тему

Текущее время: 12-Дек 18:13

Часовой пояс: GMT + 4



Вы не можете начинать темы
Вы не можете отвечать на сообщения
Вы не можете редактировать свои сообщения
Вы не можете удалять свои сообщения
Вы не можете голосовать в опросах
Вы не можете прикреплять файлы к сообщениям
Вы не можете скачивать файлы