Ошибка

Сказания о самоцветах / Land of the Lustrous / Houseki no Kuni [TV] [1-2 из 12] [2017] [приключения, фэнтези] [WEBRip] [720p] [Профессиональный] MVO Kansai

Ответить на тему
 
Автор Сообщение

NovA_JKE

Пол: Пол:Жен

Стаж: 7 лет 8 месяцев

Сообщений: 653

Антарктида
Рейтинг

post 04-Ноя-2017 10:36 0[+]

[Цитировать] 

pic="https://image.ibb.co/bNnjGG/houseki_n_k_260.png"


Сказания о самоцветах | Land of the Lustrous | Houseki no Kuni

Год выпуска: 2017
Страна: Япония
Жанр: приключения, фэнтези
Тип: TV
Продолжительность: 12 эп. x 25 мин.
Студия:
Режиссер: Кёгоку Такахико
Автор оригинала: Итикава Харуко
Релиз: студия Kansai
Перевод: студия Kansai
Озвучивание: многоголосое закадровое


Описание: Далёкое будущее. После серии катаклизмов Земля окружена шестью лунами и почти полностью покрыта океаном. На крохотном островке суши обитают 28 представителей новой расы - самоцветов. Но и они вынуждены непрерывно бороться за существование с обитателями лун. Это история сильных, хрупких и красивых созданий.
Дополнительная информация:


Качество: WEBRip
Формат: mkv
Видео: h.264; 8 bit; 1280x720; 23,976 fps; ~2575 kbps
Аудио:
  1. RU: AAC-LC 2.0, 48 kHz, ~256 kbps
Субтитры: нет
  1. Phosphophyllite.
  2. Diamond.

Код:

Общее
Уникальный идентификатор                 : 182362280823696985283866100098866041675 (0x8931B29EDC28ECAE83080BF8AE03534B)
Полное имя                               : P:\NovA_JKE\Аниме\!DL Houseki no Kuni (Сказания о самоцветах) [WEBRip 720p, Студия KANSAI]\[KANSAI] Houseki no Kuni - 01 [720p].mkv
Формат                                   : Matroska
Версия формата                           : Version 4 / Version 2
Размер файла                             : 488 Мбайт
Продолжительность                        : 24 м. 9 с.
Режим общего битрейта                    : Переменный
Общий поток                              : 2827 Кбит/сек
Дата кодирования                         : UTC 2017-10-13 22:54:08
Программа кодирования                    : mkvmerge v12.0.0 ('Trust / Lust') 64bit
Библиотека кодирования                   : libebml v1.3.4 + libmatroska v1.4.5

Видео
Идентификатор                            : 1
Формат                                   : AVC
Формат/Информация                        : Advanced Video Codec
Профиль формата                          : High@L3.1
Настройки формата                        : CABAC / 5 Ref Frames
Параметр CABAC формата                   : Да
Параметр RefFrames формата               : 5 кадров
Идентификатор кодека                     : V_MPEG4/ISO/AVC
Продолжительность                        : 24 м. 9 с.
Вид битрейта                             : Переменный
Битрейт                                  : 2575 Кбит/сек
Максимальный битрейт                     : 4500 Кбит/сек
Ширина                                   : 1280 пикселей
Высота                                   : 720 пикселей
Соотношение сторон                       : 16:9
Режим частоты кадров                     : Постоянный
Частота кадров                           : 23,976 (24000/1001) кадра/сек
Цветовое пространство                    : YUV
Субдискретизация насыщенности            : 4:2:0
Битовая глубина                          : 8 бит
Тип развёртки                            : Прогрессивная
Бит/(Пиксели*Кадры)                      : 0.117
Размер потока                            : 445 Мбайт (91%)
Заголовок                                : https://kansai.studio
Язык                                     : Japanese
Default                                  : Да
Forced                                   : Нет
Цветовой диапазон                        : Limited
Основные цвета                           : BT.709
Характеристики трансфера                 : BT.709
Коэффициенты матрицы                     : BT.709

Аудио
Идентификатор                            : 2
Формат                                   : AAC
Формат/Информация                        : Advanced Audio Codec
Профиль формата                          : LC
Идентификатор кодека                     : A_AAC-2
Продолжительность                        : 24 м. 9 с.
Битрейт                                  : 249 Кбит/сек
Каналы                                   : 2 канала
Расположение каналов                     : Front: L R
Частота                                  : 48,0 КГц
Частота кадров                           : 46,875 кадров/сек (1024 SPF)
Метод сжатия                             : С потерями
Размер потока                            : 43,1 Мбайт (9%)
Заголовок                                : KANSAI Studio
Язык                                     : Russian
Default                                  : Да
Forced                                   : Нет
info [Профиль]  [ЛС] 
Показать сообщения:    
Ответить на тему

Текущее время: 17-Ноя 23:33

Часовой пояс: GMT + 4



Вы не можете начинать темы
Вы не можете отвечать на сообщения
Вы не можете редактировать свои сообщения
Вы не можете удалять свои сообщения
Вы не можете голосовать в опросах
Вы не можете прикреплять файлы к сообщениям
Вы не можете скачивать файлы