Ошибка

Последнее путешествие Тито и Юри / Girls' Last Tour / Shoujo Shuumatsu Ryokou [TV] [1-6 из 12] [2017] [приключения, повседневность] [WEBRip] [720p] [Профессиональный] MVO Kansai

Ответить на тему
 
Автор Сообщение

NovA_JKE

Пол: Пол:Жен

Стаж: 7 лет 8 месяцев

Сообщений: 654

Антарктида
Рейтинг

post 15-Окт-2017 02:19 0[+]

[Цитировать] 

pic="https://image.ibb.co/kxb5Ow/tito_260_3.png"


Последнее путешествие Тито и Юри | Girls' Last Tour | Shoujo Shuumatsu Ryokou

Год выпуска: 2017
Страна: Япония
Жанр: приключения, повседневность
Тип: TV
Продолжительность: 12 эп. x 25 мин.
Студия:
Режиссер: Одзаки Такахару
Автор оригинала: Цукумидзу
Релиз: студия Kansai
Перевод: студия Kansai
Озвучивание: многоголосое закадровое


Описание: Цивилизация уничтожена, но Тито и Юри всё ещё живы. Они бесцельно ездят по разрушенной земле на своём гусеничном мотоцикле. Каждый новый день им приходится искать пищу и топливо. Но, несмотря на тоску и серость мёртвого мира, девочки не теряют надежду и вместе продолжают свой путь.
Дополнительная информация:


Качество: WEBRip
Формат: mkv
Видео: h.264; 8 bit; 1280x720; 23,976 fps; ~1592 kbps
Аудио:
  1. RU: AAC-LC 2.0, 48 kHz, ~256 kbps
Субтитры: нет
  1. Starry Sky / War.
  2. Bath / Journal / Laundry.
  3. Encounter / City / Streetlights.
  4. Photograph / Temple.
  5. House / Nap / The Sound of Rain.
  6. Accident / Technology / Takeoff.

Код:

Общее
Уникальный идентификатор                 : 248033249178672478967758953673674317620 (0xBA9977578D4C0CB18CAA472D81D1DF34)
Полное имя                               : P:\NovA_JKE\Аниме\!DL Shoujo Shuumatsu Ryokou (Последнее Путешествие Тито и Юри) [WEBRip 720p, Студия KANSAI]\[KANSAI] Shoujo Shuumatsu Ryokou! - 01 [720p].mkv
Формат                                   : Matroska
Версия формата                           : Version 4 / Version 2
Размер файла                             : 318 Мбайт
Продолжительность                        : 24 м. 25 с.
Режим общего битрейта                    : Переменный
Общий поток                              : 1821 Кбит/сек
Дата кодирования                         : UTC 2017-10-10 23:31:21
Программа кодирования                    : mkvmerge v12.0.0 ('Trust / Lust') 64bit
Библиотека кодирования                   : libebml v1.3.4 + libmatroska v1.4.5

Видео
Идентификатор                            : 1
Формат                                   : AVC
Формат/Информация                        : Advanced Video Codec
Профиль формата                          : High@L3.1
Параметр CABAC формата                   : Да
Параметр RefFrames формата               : 5 кадров
Идентификатор кодека                     : V_MPEG4/ISO/AVC
Продолжительность                        : 24 м. 25 с.
Вид битрейта                             : Переменный
Битрейт                                  : 1592 Кбит/сек
Максимальный битрейт                     : 4500 Кбит/сек
Ширина                                   : 1280 пикселей
Высота                                   : 720 пикселей
Соотношение сторон                       : 16:9
Режим частоты кадров                     : Постоянный
Частота кадров                           : 23,976 (24000/1001) кадра/сек
Цветовое пространство                    : YUV
Субдискретизация насыщенности            : 4:2:0
Битовая глубина                          : 8 бит
Тип развёртки                            : Прогрессивная
Бит/(Пиксели*Кадры)                      : 0.072
Размер потока                            : 278 Мбайт (87%)
Заголовок                                : https://kansai.studio
Язык                                     : Japanese
Default                                  : Да
Forced                                   : Нет
Цветовой диапазон                        : Limited
Основные цвета                           : BT.709
Характеристики трансфера                 : BT.709
Коэффициенты матрицы                     : BT.709

Аудио
Идентификатор                            : 2
Формат                                   : AAC
Формат/Информация                        : Advanced Audio Codec
Профиль формата                          : LC
Идентификатор кодека                     : A_AAC
Продолжительность                        : 24 м. 25 с.
Битрейт                                  : 226 Кбит/сек
Каналы                                   : 2 канала
Расположение каналов                     : Front: L R
Частота                                  : 48,0 КГц
Частота кадров                           : 46,875 кадров/сек (1024 SPF)
Метод сжатия                             : С потерями
Размер потока                            : 39,5 Мбайт (12%)
Заголовок                                : KANSAI Studio
Язык                                     : Russian
Default                                  : Да
Forced                                   : Нет
info [Профиль]  [ЛС] 

Greyf24

Стаж: 3 года

Сообщений: 698

Предупреждений: 2

Зимбабве
Рейтинг

post 16-Окт-2017 01:05 (спустя 22 часа) [-]0[+]

[Цитировать] 

Няшки и апокалипсис! Дайте два!!!
info [Профиль]  [ЛС] 

NovA_JKE

Пол: Пол:Жен

Стаж: 7 лет 8 месяцев

Сообщений: 654

Антарктида
Рейтинг

post 15-Ноя-2017 20:31 (спустя 30 дней) [-]0[+]

[Цитировать] 

upd. 2-6 серии.
info [Профиль]  [ЛС] 

Greyf24

Стаж: 3 года

Сообщений: 698

Предупреждений: 2

Зимбабве
Рейтинг

post 16-Ноя-2017 17:15 (спустя 20 часов) [-]0[+]

[Цитировать] 

Раздающему плюс в карму.
info [Профиль]  [ЛС] 
Показать сообщения:    
Ответить на тему

Текущее время: 23-Ноя 13:05

Часовой пояс: GMT + 4



Вы не можете начинать темы
Вы не можете отвечать на сообщения
Вы не можете редактировать свои сообщения
Вы не можете удалять свои сообщения
Вы не можете голосовать в опросах
Вы не можете прикреплять файлы к сообщениям
Вы не можете скачивать файлы