Ошибка

Гаро: Линия Схода / Garo: Vanishing Line [TV] [1-3 из 12] [2017] [приключения] [WEBRip] [720p] [Профессиональный] MVO Kansai

Ответить на тему
 
Автор Сообщение

NovA_JKE

Пол: Пол:Жен

Стаж: 7 лет 8 месяцев

Сообщений: 654

Антарктида
Рейтинг

post 15-Окт-2017 02:16 0[+]

[Цитировать] 

pic="https://image.ibb.co/fhcUiw/garo_v_l_260.png"


Гаро: Линия Схода | Garo: Vanishing Line

Год выпуска: 2017
Страна: Япония
Жанр: приключения
Тип: TV
Продолжительность: 12 эп. x 25 мин.
Студия:
Режиссер: Пак Сон Ху
Автор оригинала: ...
Релиз: студия Kansai
Перевод: студия Kansai
Озвучивание: многоголосое закадровое


Описание: Добро пожаловать в процветающий город Рассел. Кажется, жизнь здесь протекает размеренно и благополучно, пока внезапно не начинают происходить загадочные и необъяснимые происшествия. Парень по имени Сворд становится одним из тех, кто узнаёт о скрытой угрозе, и решает бросить все свои силы на её устранение. Но его сестра загадочно исчезает и единственная подсказка — это слово «Эльдорадо». Гуляя по ночному городу в раздумьях, Сворд встречает девушку Софи, чей брат тоже бесследно пропал, оставив ей лишь одно послание с теми же словами. Сворд решает объединить свои усилия вместе с Софией, чтобы разузнать тайну этих загадочных слов.
Дополнительная информация:


Качество: WEBRip
Формат: mkv
Видео: h.264; 8 bit; 1280x720; 23,976 fps; ~1776 kbps
Аудио:
  1. RU: AAC-LC 2.0, 48 kHz, ~256 kbps
Субтитры: нет
  1. Sword.
  2. Luke.
  3. Gina.

Код:

Общее
Уникальный идентификатор                 : 170697543087778949097198341823732985230 (0x806B26A5BF65D381848A910111B92D8E)
Полное имя                               : P:\NovA_JKE\Аниме\!DL Garo - Vanishing Line (Гаро - Линия Cхода) [WEBRip 720p, Студия KANSAI]\[KANSAI] Garo - Vanishing Line - 01 [720p].mkv
Формат                                   : Matroska
Версия формата                           : Version 4 / Version 2
Размер файла                             : 352 Мбайт
Продолжительность                        : 24 м. 0 с.
Общий поток                              : 2051 Кбит/сек
Дата кодирования                         : UTC 2017-10-10 23:16:09
Программа кодирования                    : mkvmerge v12.0.0 ('Trust / Lust') 64bit
Библиотека кодирования                   : libebml v1.3.4 + libmatroska v1.4.5

Видео
Идентификатор                            : 1
Формат                                   : AVC
Формат/Информация                        : Advanced Video Codec
Профиль формата                          : High@L4
Параметр CABAC формата                   : Да
Параметр RefFrames формата               : 6 кадров
Идентификатор кодека                     : V_MPEG4/ISO/AVC
Продолжительность                        : 23 м. 59 с.
Битрейт                                  : 1776 Кбит/сек
Ширина                                   : 1280 пикселей
Высота                                   : 720 пикселей
Соотношение сторон                       : 16:9
Режим частоты кадров                     : Переменный
Частота кадров                           : 23,976 (23976/1000) кадра/сек
Цветовое пространство                    : YUV
Субдискретизация насыщенности            : 4:2:0
Битовая глубина                          : 8 бит
Тип развёртки                            : Прогрессивная
Бит/(Пиксели*Кадры)                      : 0.080
Размер потока                            : 304 Мбайт (86%)
Заголовок                                : https://kansai.studio
Библиотека кодирования                   : x264 core 120 r2120 0c7dab9
Настройки программы                      : cabac=1 / ref=6 / deblock=1:1:1 / analyse=0x3:0x113 / me=umh / subme=8 / psy=1 / psy_rd=0.40:0.00 / mixed_ref=1 / me_range=16 / chroma_me=1 / trellis=1 / 8x8dct=1 / cqm=0 / deadzone=21,11 / fast_pskip=1 / chroma_qp_offset=-2 / threads=4 / sliced_threads=0 / nr=0 / decimate=1 / interlaced=0 / bluray_compat=0 / constrained_intra=0 / bframes=3 / b_pyramid=2 / b_adapt=2 / b_bias=0 / direct=3 / weightb=1 / open_gop=0 / weightp=2 / keyint=250 / keyint_min=23 / scenecut=40 / intra_refresh=0 / rc_lookahead=50 / rc=2pass / mbtree=1 / bitrate=1776 / ratetol=1.0 / qcomp=0.60 / qpmin=0 / qpmax=69 / qpstep=4 / cplxblur=20.0 / qblur=0.5 / vbv_maxrate=3552 / vbv_bufsize=8880 / nal_hrd=none / ip_ratio=1.40 / aq=1:0.60
Язык                                     : Japanese
Default                                  : Да
Forced                                   : Нет

Аудио
Идентификатор                            : 2
Формат                                   : AAC
Формат/Информация                        : Advanced Audio Codec
Профиль формата                          : LC
Идентификатор кодека                     : A_AAC
Продолжительность                        : 24 м. 0 с.
Битрейт                                  : 275 Кбит/сек
Каналы                                   : 2 канала
Расположение каналов                     : Front: L R
Частота                                  : 48,0 КГц
Частота кадров                           : 46,875 кадров/сек (1024 SPF)
Метод сжатия                             : С потерями
Размер потока                            : 47,2 Мбайт (13%)
Заголовок                                : KANSAI Studio
Язык                                     : Russian
Default                                  : Да
Forced                                   : Нет
info [Профиль]  [ЛС] 

NovA_JKE

Пол: Пол:Жен

Стаж: 7 лет 8 месяцев

Сообщений: 654

Антарктида
Рейтинг

post 04-Ноя-2017 11:11 (спустя 20 дней) [-]0[+]

[Цитировать] 

upd. 2я и 3я серии
info [Профиль]  [ЛС] 

FutaKUN

Пол: Пол:Муж

Стаж: 4 года 9 месяцев

Сообщений: 83

Предупреждений: 1

Россия
Рейтинг

post 05-Ноя-2017 14:57 (спустя 1 день 3 часа) [-]0[+]

[Цитировать] 

Перед просмотром другие сериалы смотреть смысл есть?
info [Профиль]  [ЛС] 

NovA_JKE

Пол: Пол:Жен

Стаж: 7 лет 8 месяцев

Сообщений: 654

Антарктида
Рейтинг

post 05-Ноя-2017 18:19 (спустя 3 часа) [-]0[+]

[Цитировать] 

FutaKUN писал(а):

Перед просмотром другие сериалы смотреть смысл есть?
нет.
info [Профиль]  [ЛС] 
Показать сообщения:    
Ответить на тему

Текущее время: 19-Ноя 07:05

Часовой пояс: GMT + 4



Вы не можете начинать темы
Вы не можете отвечать на сообщения
Вы не можете редактировать свои сообщения
Вы не можете удалять свои сообщения
Вы не можете голосовать в опросах
Вы не можете прикреплять файлы к сообщениям
Вы не можете скачивать файлы