Ошибка

Чёрный клевер / Black Clover [TV] [1-3 из 13] [2017] [приключения, фэнтези, сёнен] [WEBRip] [720p] [Профессиональный] MVO Kansai

Ответить на тему
 
Автор Сообщение

NovA_JKE

Пол: Пол:Жен

Стаж: 7 лет 8 месяцев

Сообщений: 654

Антарктида
Рейтинг

post 15-Окт-2017 02:11 0[+]

[Цитировать] 

pic="https://image.ibb.co/dwvtAb/blc_cl_260.png"


Чёрный клевер | Black Clover

Год выпуска: 2017
Страна: Япония
Жанр: приключения, фэнтези, сёнен
Тип: TV
Продолжительность: 13 эп. x 25 мин.
Студия:
Режиссер: Ёсихара Тацуя
Автор оригинала: Табата Юки
Релиз: студия Kansai
Перевод: студия Kansai
Озвучивание: многоголосое закадровое


Описание: Астер и Юно - сироты, друзья и соперники. Они оба хотят стать Королём Магов - сильнейшим рыцарем-магом Королевства Клевера. Но на пути Астера одно препятствие - он не может колдовать. Что он противопоставит Юно, превосходящему магической силой большинство ровестников? И есть ли шанс у мальчика исполнить свою клятву?
Дополнительная информация:


Качество: WEBRip
Формат: mkv
Видео: h.264; 8 bit; 1280x720; 23,976 fps; ~1776 kbps
Аудио:
  1. RU: AAC-LC 2.0, 48 kHz, ~256 kbps
Субтитры: нет
  1. Asta and Yuno.
  2. The Boys` Promise.
  3. To the Royal Capital of the Clover Kingdom!

Код:

Общее
Уникальный идентификатор                 : 230218048128715140941705495461292764271 (0xAD32621D8540FF36AA708BEB0E156C6F)
Полное имя                               : P:\NovA_JKE\Аниме\!DL Black Clover (Черный Клевер) [WEBRip 720p, Студия KANSAI]\[KANSAI] Black Clover - 01 [720p].mkv
Формат                                   : Matroska
Версия формата                           : Version 4 / Version 2
Размер файла                             : 346 Мбайт
Продолжительность                        : 23 м. 54 с.
Общий поток                              : 2023 Кбит/сек
Дата кодирования                         : UTC 2017-10-08 18:32:47
Программа кодирования                    : mkvmerge v12.0.0 ('Trust / Lust') 64bit
Библиотека кодирования                   : libebml v1.3.4 + libmatroska v1.4.5

Видео
Идентификатор                            : 1
Формат                                   : AVC
Формат/Информация                        : Advanced Video Codec
Профиль формата                          : High@L4
Параметр CABAC формата                   : Да
Параметр RefFrames формата               : 6 кадров
Идентификатор кодека                     : V_MPEG4/ISO/AVC
Продолжительность                        : 23 м. 53 с.
Битрейт                                  : 1776 Кбит/сек
Ширина                                   : 1280 пикселей
Высота                                   : 720 пикселей
Соотношение сторон                       : 16:9
Режим частоты кадров                     : Переменный
Частота кадров                           : 23,976 (23976/1000) кадра/сек
Цветовое пространство                    : YUV
Субдискретизация насыщенности            : 4:2:0
Битовая глубина                          : 8 бит
Тип развёртки                            : Прогрессивная
Бит/(Пиксели*Кадры)                      : 0.080
Размер потока                            : 303 Мбайт (88%)
Заголовок                                : https://kansai.studio
Библиотека кодирования                   : x264 core 120 r2120 0c7dab9
Настройки программы                      : cabac=1 / ref=6 / deblock=1:1:1 / analyse=0x3:0x113 / me=umh / subme=8 / psy=1 / psy_rd=0.40:0.00 / mixed_ref=1 / me_range=16 / chroma_me=1 / trellis=1 / 8x8dct=1 / cqm=0 / deadzone=21,11 / fast_pskip=1 / chroma_qp_offset=-2 / threads=4 / sliced_threads=0 / nr=0 / decimate=1 / interlaced=0 / bluray_compat=0 / constrained_intra=0 / bframes=3 / b_pyramid=2 / b_adapt=2 / b_bias=0 / direct=3 / weightb=1 / open_gop=0 / weightp=2 / keyint=250 / keyint_min=23 / scenecut=40 / intra_refresh=0 / rc_lookahead=50 / rc=2pass / mbtree=1 / bitrate=1776 / ratetol=1.0 / qcomp=0.60 / qpmin=0 / qpmax=69 / qpstep=4 / cplxblur=20.0 / qblur=0.5 / vbv_maxrate=3552 / vbv_bufsize=8880 / nal_hrd=none / ip_ratio=1.40 / aq=1:0.60
Язык                                     : Japanese
Default                                  : Да
Forced                                   : Нет

Аудио
Идентификатор                            : 2
Формат                                   : AAC
Формат/Информация                        : Advanced Audio Codec
Профиль формата                          : LC
Идентификатор кодека                     : A_AAC
Продолжительность                        : 23 м. 54 с.
Битрейт                                  : 249 Кбит/сек
Каналы                                   : 2 канала
Расположение каналов                     : Front: L R
Частота                                  : 48,0 КГц
Частота кадров                           : 46,875 кадров/сек (1024 SPF)
Метод сжатия                             : С потерями
Размер потока                            : 42,5 Мбайт (12%)
Заголовок                                : KANSAI Studio
Язык                                     : Russian
Default                                  : Да
Forced                                   : Нет
info [Профиль]  [ЛС] 

NovA_JKE

Пол: Пол:Жен

Стаж: 7 лет 8 месяцев

Сообщений: 654

Антарктида
Рейтинг

post 04-Ноя-2017 10:40 (спустя 20 дней) [-]0[+]

[Цитировать] 

upd. 2я и 3я серии
info [Профиль]  [ЛС] 

Хеор

Пол: Пол:Муж

Стаж: 8 лет 1 месяц

Сообщений: 254

СССР
Рейтинг

post 04-Ноя-2017 13:31 (спустя 2 часа 51 минута) [-]0[+]

[Цитировать] 

Эм... Неспособный колдовать король магов? Звучит донельзя бредово, да.
info [Профиль]  [ЛС] 

Shakaaho

Пол: Пол:Муж

Стаж: 3 года 5 месяцев

Сообщений: 1110

Россия
Рейтинг

post 04-Ноя-2017 17:36 (спустя 4 часа) [-]1[+]

[Цитировать] 

скринов нету. источник мертв
info [Профиль]  [ЛС] 
Показать сообщения:    
Ответить на тему

Текущее время: 19-Ноя 06:49

Часовой пояс: GMT + 4



Вы не можете начинать темы
Вы не можете отвечать на сообщения
Вы не можете редактировать свои сообщения
Вы не можете удалять свои сообщения
Вы не можете голосовать в опросах
Вы не можете прикреплять файлы к сообщениям
Вы не можете скачивать файлы