Ошибка
Загрузка...

Мастера меча онлайн: Порядковый ранг / Gekijouban Sword Art Online: Ordinal Scale [MOVIE] [1-1 из 1] [2017] [приключения, фэнтези] [BDRip] [1080p] [Профессиональный] MVO Kansai

Ответить на тему
 
Автор Сообщение

NovA_JKE

Пол: Пол:Жен

Стаж: 7 лет 7 месяцев

Сообщений: 636

Антарктида
Рейтинг

post 27-Сен-2017 23:28 0[+]

[Цитировать] 

pic="https://image.ibb.co/ctUbUQ/sao_260.png"


Мастера меча онлайн: Порядковый ранг | Gekijouban Sword Art Online: Ordinal Scale

Год выпуска: 2017
Страна: Япония
Жанр: приключения, фэнтези
Тип: MOVIE
Продолжительность: 1 эп. x 120 мин.
Студия:
Режиссер: Ито Томохико
Автор оригинала: Кавахара Рэки
Релиз: студия Kansai
Перевод: Руслан Тарасов
Озвучивание: многоголосое закадровое


Описание: 2026 год, на смену «Амусферы» приходит «Augma» — устройство расширенной реальности, которая вместо функции «полного погружения», использует дополненную реальность, что делает процесс использования устройства безопаснее и удобнее. Благодаря этому оно и получило большую популярность, а вместе с ней пришла и «Ordinal Scale» — ARMMORPG, разработанная специально для «Augma». Все игроки в ней получают ранг, основанный на их порядковом номере. Как и ожидалось, Кирито с друзьями начинают играть в «Ordinal Scale», но вскоре они узнают, что «Порядковый ранг» — это гораздо больше, чем просто игра…
Дополнительная информация:


Качество: BDRip
Формат: mkv
Видео: h.264; 8 bit; 1920x1080; 23,976 fps; ~8036 kbps
Аудио:
  1. RU: AAC-LC 2.0, 48 kHz, ~280 kbps
Субтитры: нет

Код:

Общее
Уникальный идентификатор                 : 206775275009288348180081849959724415220 (0x9B8F7829F03BE41E9016B3A92A10F8F4)
Полное имя                               : P:\NovA_JKE\Аниме\Sword Art Online Ordinal Scale (Мастера Меча Онлайн - Порядковый ранг) [BDRip 1080p, Студия KANSAI]\Sword.Art.Online.Ordinal.Scale.BDRip.1080p.KANSAI.mkv
Формат                                   : Matroska
Версия формата                           : Version 4 / Version 2
Размер файла                             : 6,99 Гбайт
Продолжительность                        : 2 ч. 0 м.
Общий поток                              : 8322 Кбит/сек
Дата кодирования                         : UTC 2017-09-27 19:23:42
Программа кодирования                    : mkvmerge v13.0.0 ('The Juggler') 64bit
Библиотека кодирования                   : libebml v1.3.4 + libmatroska v1.4.5

Видео
Идентификатор                            : 1
Формат                                   : AVC
Формат/Информация                        : Advanced Video Codec
Профиль формата                          : Main@L4.1
Параметр CABAC формата                   : Да
Параметр RefFrames формата               : 4 кадра
Идентификатор кодека                     : V_MPEG4/ISO/AVC
Продолжительность                        : 2 ч. 0 м.
Битрейт                                  : 8036 Кбит/сек
Ширина                                   : 1920 пикселей
Высота                                   : 1080 пикселей
Соотношение сторон                       : 16:9
Режим частоты кадров                     : Постоянный
Частота кадров                           : 23,976 (24000/1001) кадра/сек
Цветовое пространство                    : YUV
Субдискретизация насыщенности            : 4:2:0
Битовая глубина                          : 8 бит
Тип развёртки                            : Прогрессивная
Бит/(Пиксели*Кадры)                      : 0.162
Размер потока                            : 6,75 Гбайт (97%)
Библиотека кодирования                   : x264 core 152 r2851+58 429492e t_mod_Custom [8-bit@all X86]
Настройки программы                      : cabac=1 / ref=3 / deblock=1:0:0 / analyse=0x1:0x131 / me=umh / subme=9 / psy=1 / fade_compensate=0.00 / psy_rd=1.00:0.00 / mixed_ref=1 / me_range=32 / chroma_me=1 / trellis=1 / 8x8dct=0 / cqm=0 / deadzone=21,11 / fast_pskip=1 / chroma_qp_offset=-2 / threads=18 / lookahead_threads=1 / sliced_threads=0 / nr=0 / decimate=1 / interlaced=0 / bluray_compat=0 / constrained_intra=0 / fgo=0 / bframes=3 / b_pyramid=2 / b_adapt=1 / b_bias=0 / direct=1 / weightb=1 / open_gop=0 / weightp=2 / keyint=240 / keyint_min=1 / scenecut=40 / intra_refresh=0 / rc_lookahead=40 / rc=crf / mbtree=1 / crf=17.0000 / qcomp=0.60 / qpmin=0:0:0 / qpmax=69:69:69 / qpstep=4 / ip_ratio=1.40 / aq=1:1.00 / aq-sensitivity=10.00 / aq-factor=1.00:1.00:1.00 / aq2=0 / aq3=0
Default                                  : Да
Forced                                   : Нет

Аудио
Идентификатор                            : 2
Формат                                   : AAC
Формат/Информация                        : Advanced Audio Codec
Профиль формата                          : LC
Идентификатор кодека                     : A_AAC
Продолжительность                        : 2 ч. 0 м.
Битрейт                                  : 288 Кбит/сек
Каналы                                   : 2 канала
Расположение каналов                     : Front: L R
Частота                                  : 48,0 КГц
Частота кадров                           : 46,875 кадров/сек (1024 SPF)
Метод сжатия                             : С потерями
Задержка видео                           : 9 мс.
Размер потока                            : 245 Мбайт (3%)
Заголовок                                : KANSAI
Язык                                     : Russian
Default                                  : Да
Forced                                   : Нет
info [Профиль]  [ЛС] 
Показать сообщения:    
Ответить на тему

Текущее время: 21-Окт 12:42

Часовой пояс: GMT + 4



Вы не можете начинать темы
Вы не можете отвечать на сообщения
Вы не можете редактировать свои сообщения
Вы не можете удалять свои сообщения
Вы не можете голосовать в опросах
Вы не можете прикреплять файлы к сообщениям
Вы не можете скачивать файлы