Ошибка
Загрузка...

Возрождающие / Re:Creators (TV) [01-22 из 22] [2017] [Приключения, фантастика] [HDTV720p] [Любительский]

Ответить на тему
 
Автор Сообщение

Chel90RUS

Пол: Пол:Муж

Стаж: 6 лет 3 месяца

Сообщений: 498

Россия
Рейтинг

post 26-Сен-2017 00:22 0[+]

[Цитировать] 

pic="http://static2.anidub.com/tracker/poster/e60f5ef41f.jpg"
Возрождающие
Re:Creators / レクリエイターズ

Год выпуска: 2017
Жанр: Приключения, фантастика
Страна: Япония
Тип: HDTV
Продолжительность: 22 серий ~ 25 мин
Дата выпуска: c 08.04.2017 по 16.09.2017
Режиссер: Аоки Эй
Автор оригинала / Сценарист: Хироэ Рэй
Озвучено: Ancord, Jade
Перевод: Jeka
Тайминг и работа со звуком: Fraksinus, Lonty
Студия: TROYCA
Аудио: AAC 48000Hz stereo 192kbps [A: English [eng] (aac lc, 48000 Hz, stereo, 192 kb/s)]
Видео: MPEG4 Video (H264) 1280x720 23.976fps 1797kbps [V: Alias Data Handler [eng] (h264 main L3.2, yuv420p, 1280x720, 1797 kb/s)]
General
Complete name : \[AniDub]_Re-Creators_[01]_[720p_x264_Aac]_[Ancord_Jade].mp4
Format : MPEG-4
Format profile : Base Media
Codec ID : isom (isom)
File size : 347 MiB
Duration : 24 min 21 s
Overall bit rate mode : Variable
Overall bit rate : 1 993 kb/s
Encoded date : UTC 2017-04-10 16:58:38
Tagged date : UTC 2017-04-10 16:58:38
Writing application : Yamb 2.1.0.0
Video
ID : 1
Format : AVC
Format/Info : Advanced Video Codec
Format profile : Main@L3.2
Format settings, CABAC : Yes
Format settings, RefFrames : 3 frames
Format settings, GOP : M=4, N=23
Codec ID : avc1
Codec ID/Info : Advanced Video Coding
Duration : 24 min 21 s
Bit rate mode : Variable
Bit rate : 1 797 kb/s
Maximum bit rate : 10.5 Mb/s
Width : 1 280 pixels
Height : 720 pixels
Display aspect ratio : 16:9
Frame rate mode : Variable
Frame rate : 23.976 (24000/1001) FPS
Minimum frame rate : 23.976 FPS
Maximum frame rate : 23.988 FPS
Standard : NTSC
Color space : YUV
Chroma subsampling : 4:2:0
Bit depth : 8 bits
Scan type : Progressive
Bits/(Pixel*Frame) : 0.081
Stream size : 313 MiB (90%)
Language : English
Encoded date : UTC 2017-04-11 16:46:39
Tagged date : UTC 2017-04-10 16:58:43
Color range : Limited

Audio
ID : 2
Format : AAC
Format/Info : Advanced Audio Codec
Format profile : LC
Codec ID : 40
Duration : 24 min 21 s
Bit rate mode : Variable
Bit rate : 192 kb/s
Maximum bit rate : 196 kb/s
Channel(s) : 2 channels
Channel positions : Front: L R
Sampling rate : 48.0 kHz
Frame rate : 46.875 FPS (1024 SPF)
Compression mode : Lossy
Stream size : 33.5 MiB (10%)
Language : English
Encoded date : UTC 2017-04-10 16:58:39
Tagged date : UTC 2017-04-10 16:58:43


Описание:Люди написали много историй, увлекающих своих читателей в неизведанные миры и побуждающих переживать за героев. Таков взгляд человека на придуманные сюжеты. Но что, если бы персонажи историй также имели свой взгляд на мир? Почитают ли они людей как богов, дарующих им жизнь? Наш мир изменился. Падёт наказание на мир богов. В Re:CREATORS каждый становится Создателем.
info [Профиль]  [ЛС] 
Показать сообщения:    
Ответить на тему

Текущее время: 22-Окт 05:12

Часовой пояс: GMT + 4



Вы не можете начинать темы
Вы не можете отвечать на сообщения
Вы не можете редактировать свои сообщения
Вы не можете удалять свои сообщения
Вы не можете голосовать в опросах
Вы не можете прикреплять файлы к сообщениям
Вы не можете скачивать файлы