Ошибка

Благородный звёздный отряд /Gekijouban Majestic Prince: Kakusei no Idenshi [Movie] [2016] [Экшен, Меха, Школа, Сейнен, Фантастика] [BDRip] [1080p] [Субтитры (JAP)]

Ответить на тему
 
Автор Сообщение

anoningen

Стаж: 4 года 7 месяцев

Сообщений: 558

Самоа
Рейтинг

post 20-Сен-2017 00:17 0[+]

[Цитировать] 

Благородный звёздный отряд
Gekijouban Majestic Prince: Kakusei no Idenshi
劇場版マジェスティックプリンス 覚醒の遺伝子

Год выпуска:
2016 г.
Тип: Полнометражный фильм
Жанр: Экшен, Меха, Школа, Сейнен, Фантастика
Режиссер: Мотонага Кэйтаро
Сценарист: Сисидо Ёситака
Студия:
Продолжительность: 77 мин
Русские субтитры: ASS, внешним файлом
Переводчик: Alex_Solo

Описание: Во второй половине двадцать первого века люди покинули Землю и стали жить в космосе. Чтобы приспособиться к новой жизни и бороться с враждебными существами с Юпитера, были созданы и обучены управлять вооруженными роботами искусственные люди с улучшенными генами – «Принцы». История повествует об одном таком подростке по имени Хитачи Изуру, который проходит обучение в научном городе Грандзехле.

Автор рипа: [GSK]
Качество: BDRip
Формат видео: MPEG-4
Видео: AVC, 10 бит, 1920x1080; 23.976 кадра/сек; 5268 Кбит/сек, (16:9)
Аудио: FLAC, 48,0 КГц, переменный ~1080 Кбит/сек, 2 канала
Общее
Уникальный идентификатор : 250616627276904128223107296503627478671 (0xBC8B01B750436183B5A03E3D8877768F)
Полное имя : G:\Anime\Gekijouban Majestic Prince\[GSK]Gekijouban_Majestic_Prince_Kakusei_no_Idenshi_VOSTFR_1080p_10bits[9078D903].mkv
Формат : Matroska
Версия формата : Version 4 / Version 2
Размер файла : 3,46 Гбайт
Продолжительность : 1 ч. 17 м.
Режим общего битрейта : Переменный
Общий поток : 6351 Кбит/сек
Дата кодирования : UTC 2017-09-14 04:07:34
Программа кодирования : mkvmerge v14.0.0 ('Flow') 64bit
Библиотека кодирования : libebml v1.3.4 + libmatroska v1.4.5
Attachments : BITING.TTF / chinrg.ttf / DUBAI-MEDIUM.TTF / DURALITH.ttf / Fontin_Sans.otf / Fontin_Sans_BI.otf / GEMELLI.TTF / Gyosho.ttf / JohnSansHeavy.otf

Видео
Идентификатор : 1
Формат : AVC
Формат/Информация : Advanced Video Codec
Профиль формата : High 10@L4.2
Параметр CABAC формата : Да
Параметр ReFrames формата : 4 кадра
Идентификатор кодека : V_MPEG4/ISO/AVC
Продолжительность : 1 ч. 17 м.
Битрейт : 5268 Кбит/сек
Ширина : 1920 пикселей
Высота : 1080 пикселей
Соотношение сторон : 16:9
Режим частоты кадров : Постоянный
Частота кадров : 23,976 (24000/1001) кадра/сек
Цветовое пространство : YUV
Субдискретизация насыщенности : 4:2:0
Битовая глубина : 10 бит
Тип развёртки : Прогрессивная
Бит/(Пиксели*Кадры) : 0.106
Размер потока : 2,87 Гбайт (83%)
Библиотека кодирования : x264 core 142 r2431+42 c69a006 tMod [10-bit@all X86]
Настройки программы : cabac=1 / ref=3 / deblock=1:-1:-1 / analyse=0x3:0x113 / me=umh / subme=9 / psy=1 / fade_compensate=0.00 / psy_rd=0.71:0.40 / mixed_ref=1 / me_range=16 / chroma_me=1 / trellis=2 / 8x8dct=1 / cqm=0 / deadzone=6,6 / fast_pskip=1 / chroma_qp_offset=-4 / threads=12 / lookahead_threads=1 / sliced_threads=0 / nr=0 / decimate=0 / interlaced=0 / bluray_compat=0 / constrained_intra=0 / fgo=0 / bframes=3 / b_pyramid=2 / b_adapt=2 / b_bias=0 / direct=2 / weightb=1 / open_gop=0 / weightp=2 / keyint=250 / keyint_min=23 / scenecut=40 / intra_refresh=0 / rc_lookahead=40 / rc=crf / mbtree=1 / crf=18.0000 / qcomp=0.80 / qpmin=0:0:0 / qpmax=81:81:81 / qpstep=4 / ip_ratio=1.10 / aq=1:0.70 / aq-sensitivity=10.00 / aq-factor=1.00:1.00:1.00 / aq2=0 / aq3=0
Язык : English
Default : Да
Forced : Нет
Цветовой диапазон : Limited
Основные цвета : BT.709
Характеристики трансфера : BT.709
Коэффициенты матрицы : BT.709

Аудио
Идентификатор : 2
Формат : FLAC
Формат/Информация : Free Lossless Audio Codec
Идентификатор кодека : A_FLAC
Продолжительность : 1 ч. 17 м.
Вид битрейта : Переменный
Битрейт : 1080 Кбит/сек
Каналы : 2 канала
Расположение каналов : Front: L R
Частота : 48,0 КГц
Частота кадров : 11,719 кадров/сек (4096 spf)
Битовая глубина : 20 бит
Размер потока : 602 Мбайт (17%)
Библиотека кодирования : libFLAC 1.3.1 (UTC 2014-11-25)
Default : Да
Forced : Нет

Текст
Идентификатор : 3
Формат : ASS
Идентификатор кодека : S_TEXT/ASS
Идентификатор кодека/Информация : Advanced Sub Station Alpha
Продолжительность : 1 ч. 17 м.
Битрейт : 328 бит/сек
Count of elements : 1898
Метод сжатия : Без потерь
Размер потока : 187 Кбайт (0%)
Default : Да
Forced : Нет
info [Профиль]  [ЛС] 

Kirill

Пол: Пол:Муж

Стаж: 7 лет 2 месяца

Сообщений: 238

Россия
Рейтинг

post 20-Сен-2017 22:14 (спустя 21 час) [-]1[+]

[Цитировать] 

очередная проходная мехаподобная фансервис-хрень?
info [Профиль]  [ЛС] 
Показать сообщения:    
Ответить на тему

Текущее время: 12-Дек 08:39

Часовой пояс: GMT + 4



Вы не можете начинать темы
Вы не можете отвечать на сообщения
Вы не можете редактировать свои сообщения
Вы не можете удалять свои сообщения
Вы не можете голосовать в опросах
Вы не можете прикреплять файлы к сообщениям
Вы не можете скачивать файлы