Ошибка

(House) VA - CityZen ‎– Над Облаками - 2007, FLAC (image+.cue), lossless

Ответить на тему
 
Автор Сообщение

GaRI61

Пол: Пол:Муж

Стаж: 3 года

Сообщений: 244

Россия
Рейтинг

post 02-Сен-2017 11:38 0[+]

[Цитировать] 

CityZen* / CityZen* ‎– Над Облаками

Жанр: House
Носитель: CD
Страна-производитель диска (релиза): Russia
Год издания: 2007
Издатель (лейбл): [url=https://www.discogs.com/label/559337-Воздух]Воздух[/url]
Номер по каталогу: none
Страна исполнителя (группы): Russia
Аудиокодек: FLAC (*.flac)
Тип рипа: image+.cue
Битрейт аудио: lossless
Продолжительность: 1:13:17
Источник (релизер): Собственный CD
Наличие сканов в содержимом раздачи: да
Треклист:
1. Unknown Artist - Untitled
2. Chymera - Umbrella (Funk D'Void Remix)
3. Ron Flatter - Achill
4. Gianluca Motta - Berlin
5. BSOD (2) - Monochrome
6. Deadmau5 Jaded 7:37
7. Oxia Not Sure 6:01
8. Terje & Anders - Timian (Nicolas Stefan Remix)
9. DJ Remy & Roland Klinkenberg - Mexico Can Wait (Infinitize Remix)
10. Phil Green Vs. S.H.O.K.K. - Fascination (A+B Remix)
11. Unknown Artist - Untitled
12. Phonique Featuring Erlend Øye - Casualities
Bonus Trek:
13. CityZen* feat. Катя Баглаева - Солнца Слезы (Воздух 2.0) Radio Version 2007
Vocals [Additional Vocals], Featuring – Катя Баглаева
Written-By, Producer – Анатолий Шемуратов*, CityZen*
 
Exact Audio Copy V1.3 from 2. September 2016

Отчёт EAC об извлечении, выполненном 20. января 2017, 16:26

City Zen / CityZen* ‎– Над Облаками

Дисковод: TSSTcorpCDDVDW SH-S223C Adapter: 1 ID: 0

Режим чтения : Достоверность
Использование точного потока : Да
Отключение кэша аудио : Да
Использование указателей C2 : Нет

Коррекция смещения при чтении : 697
Способность читать области Lead-in и Lead-out : Нет
Заполнение пропущенных сэмплов тишиной : Да
Удаление блоков с тишиной в начале и конце : Нет
При вычислениях CRC использовались нулевые сэмплы : Да
Интерфейс : Встроенный Win32-интерфейс для Win NT/2000

Выходной формат : Пользовательский кодировщик
Выбранный битрейт : 1024 kBit/s
Качество : Высокий
Добавление ID3-тега : Нет
Утилита сжатия : C:\Program Files (x86)\Exact Audio Copy\FLAC\FLAC.EXE
Дополнительные параметры : -V -8 -T "Date=%year%" -T "Genre=%genre%" %source%

TOC извлечённого CD

Трек | Старт | Длительность | Начальный сектор | Конечный сектор
---------------------------------------------------------------------
1 | 0:00.00 | 6:29.74 | 0 | 29248
2 | 6:29.74 | 4:59.51 | 29249 | 51724
3 | 11:29.50 | 5:36.69 | 51725 | 76993
4 | 17:06.44 | 4:31.31 | 76994 | 97349
5 | 21:38.00 | 5:24.57 | 97350 | 121706
6 | 27:02.57 | 4:45.33 | 121707 | 143114
7 | 31:48.15 | 5:07.69 | 143115 | 166208
8 | 36:56.09 | 5:40.54 | 166209 | 191762
9 | 42:36.63 | 6:01.29 | 191763 | 218866
10 | 48:38.17 | 6:51.73 | 218867 | 249764
11 | 55:30.15 | 4:22.35 | 249765 | 269449

Характеристики диапазона извлечения и сообщения об ошибках

Выбранный диапазон

Имя файла C:\Users\Andrey\Desktop\CityZen ‎– Над Облаками\City Zen - CityZenx ‎– Над Облаками.wav

Пиковый уровень 97.7 %
Скорость извлечения 3.4 X
Качество диапазона 100.0 %
CRC теста 306E2B20
CRC копии 306E2B20
Копирование... OK

Ошибок не произошло

AccurateRip: сводка

Трек 1 : извлечено точно (доверие 1) [19EBC8F4] (AR v2)
Трек 2 : извлечено точно (доверие 1) [85CAF123] (AR v2)
Трек 3 : извлечено точно (доверие 1) [C691673F] (AR v2)
Трек 4 : извлечено точно (доверие 1) [D54DC0B4] (AR v2)
Трек 5 : извлечено точно (доверие 1) [6CFA21C9] (AR v2)
Трек 6 : извлечено точно (доверие 1) [F092B3CF] (AR v2)
Трек 7 : извлечено точно (доверие 1) [5BA9481B] (AR v2)
Трек 8 : извлечено точно (доверие 1) [4B3A9D53] (AR v2)
Трек 9 : извлечено точно (доверие 1) [3FE63B65] (AR v2)
Трек 10 : извлечено точно (доверие 1) [2C3DF66D] (AR v2)
Трек 11 : извлечено точно (доверие 1) [CD1A72DB] (AR v2)

Все треки извлечены точно

Конец отчёта

---- CUETools DB Plugin V2.1.6

[CTDB TOCID: Nz6B5MEhf6s9K6yBRvIC5fR1LLI-] found
Submit result: Nz6B5MEhf6s9K6yBRvIC5fR1LLI- has been confirmed
Track | CTDB Status
1 | (2/2) Accurately ripped
2 | (2/2) Accurately ripped
3 | (2/2) Accurately ripped
4 | (2/2) Accurately ripped
5 | (2/2) Accurately ripped
6 | (2/2) Accurately ripped
7 | (2/2) Accurately ripped
8 | (2/2) Accurately ripped
9 | (2/2) Accurately ripped
10 | (2/2) Accurately ripped
11 | (2/2) Accurately ripped

==== Контрольная сумма отчёта 85AD48F8B0726E3735794D6BAF6BAA708EA48AD90AF36822E9F255561F851338 ====

 
REM GENRE House
REM DATE 2007
REM DISCID 7F0E080B
REM COMMENT "ExactAudioCopy v1.3"
PERFORMER "City Zen"
TITLE "CityZen* .– Над Облаками"
REM COMPOSER ""
FILE "City Zen - CityZenx .– Над Облаками.flac" WAVE
TRACK 01 AUDIO
TITLE "Track1"
PERFORMER "City Zen"
REM COMPOSER ""
FLAGS DCP
INDEX 01 00:00:00
TRACK 02 AUDIO
TITLE "Track2"
PERFORMER "City Zen"
REM COMPOSER ""
FLAGS DCP
INDEX 01 06:29:74
TRACK 03 AUDIO
TITLE "Track3"
PERFORMER "City Zen"
REM COMPOSER ""
FLAGS DCP
INDEX 01 11:29:50
TRACK 04 AUDIO
TITLE "Track4"
PERFORMER "City Zen"
REM COMPOSER ""
FLAGS DCP
INDEX 01 17:06:44
TRACK 05 AUDIO
TITLE "Track5"
PERFORMER "City Zen"
REM COMPOSER ""
FLAGS DCP
INDEX 01 21:38:00
TRACK 06 AUDIO
TITLE "Track6"
PERFORMER "City Zen"
REM COMPOSER ""
FLAGS DCP
INDEX 01 27:02:57
TRACK 07 AUDIO
TITLE "Track7"
PERFORMER "City Zen"
REM COMPOSER ""
FLAGS DCP
INDEX 01 31:48:15
TRACK 08 AUDIO
TITLE "Track8"
PERFORMER "City Zen"
REM COMPOSER ""
FLAGS DCP
INDEX 01 36:56:09
TRACK 09 AUDIO
TITLE "Track9"
PERFORMER "City Zen"
REM COMPOSER ""
FLAGS DCP
INDEX 01 42:36:63
TRACK 10 AUDIO
TITLE "Track10"
PERFORMER "City Zen"
REM COMPOSER ""
FLAGS DCP
INDEX 01 48:38:17
TRACK 11 AUDIO
TITLE "Track11"
PERFORMER "City Zen"
REM COMPOSER ""
FLAGS DCP
INDEX 00 55:28:15
INDEX 01 55:30:15
INDEX 02 59:45:14

 
AUDIOCHECKER v2.0 beta (build 457) - by Dester - opdester@freemail.hu
~~~~~~~~~~~~~~~~~~~~~~~~~~~~~~~~~~

Начато: пятница, 20. 01. 2017. - 18:45.09
Найдено файлов: 1

1 -===- C:\Users\Andrey\Desktop\CD\City Zen .flac
Извлечение успешно выполнено
Заключение: этот трек - MPEG с вероятностью 95%
Временный файл удалён.

Завершено: пятница, 20. 01. 2017. - 18:47.53 (Время операции: 0:02.43)

Доп. информация: Этот диск отличается от того, о котором написано здесь https://www.discogs.com/CityZen-Над-Облаками/release/8355431, отсутствием двух композиций (так как я не слышал тот диск, затрудняюсь сказать каких песен нет). Треклист взят для полного издания.
Поэтому прописывать треки в EAC не стал.
Проект CITY ZEN образован в 2005 году двумя российскими продюсерами Анатолием Шемуратовым и Павлом Лесневским. Стиль их музыки можно охарактеризовать как ELECTRO HOUSE. Первым релизом стал трек "SUBSPACE", вышедший в начале 2006 года, и в течение первой недели продаж обосновавшийся на первых позициях крупнейших МР3 порталов мира. Принимается решение о съемках клипа. После этого команду замечают видные деятели западной музыкальной индустрии и, как результат, появляются релизы ремиксов: KnockOUT - Kill this club (city zen remix) Sirup Records (Swiss) KnockOUT - Kill this club (city zen redub) Sirup Records (Swiss) Scaloni – Girls Gone Wild (city zen remix) Sirup Records/universal GREG KOBE-Flow(city zen remix) Chikaria Ibiza Mod X - Political Sun (city zen remix) ICE and SPICE Records (France) METROPOLIZ – COSMIC GIRL (city zen remix) Emotive Sounds (Italy) CITY ZEN - LOVE IS A COMPUTER GAME Groove Fanatics (Holland) CITY ZEN - I LIKE BANANA Groove Fanatics (Holland) CITY ZEN - VOZDUH (original and dub mix ) RELAX (UA\kiev) Еще одна работа - трек "BIG DICK" открывает новое направление в треках CITY ZEN - харизматичные вокальные выпады на околоскандальную тематику. Трек дебютировал в передаче Electrica Ивана Рудыка в рубрике MADE IN RUSSIA. Со всего мира приходят восторженные письма от диск-жокеев, не побоявшихся включить порно трек в свои сеты!Трек будет издан лейблом Sirup Records (Swiss), чьими официальными артистами стали City Zen наряду с такими звёздами, как Armin Van Buuren, Bush 2 Bush, Erick Morillo, Steve Angello, Dj Tiesto, Dj Tatana, Above & Beyond, Gadjo и многих другими. CITY ZEN, ощущая дефицит качественной российской клубной музыки, принимают решение создать несколько вокальных треков на русском языке. Треки с Катрин Весной, где известнейшая девушка-dj дебютирует в роли вокалистки и сопродюсера, приносит CITY ZEN популярность на всем постсоветском пространстве. Трек "Луна" - признанный суперхит, звучащий на каждой школьной дискотеке и во всех самых дорогих ночных клубах СНГ. Проект приглашают выступить на закрытии фестиваля КАЗАНТИП 2006. Трек "CITY ZEN FEAT. KATRIN VESNA – BEAUTIFUL" - серьезная заявка на интернациональный уровень. Ремикс на этот трек от известного голландского продюсера JAIMIE FANANATIC уже можно послушать на официальном сайте проекта. Мировой релиз трека также будет осуществлен компанией Sirup Records. Сольный альбом CITY ZEN - "STORMER", работа над которым велась более года, в ноябре 2006 г. выпущен в России компанией Balisong Records.
Подробнее: CITYZEN
info [Профиль]  [ЛС] 
Показать сообщения:    
Ответить на тему

Текущее время: 21-Ноя 03:01

Часовой пояс: GMT + 4



Вы не можете начинать темы
Вы не можете отвечать на сообщения
Вы не можете редактировать свои сообщения
Вы не можете удалять свои сообщения
Вы не можете голосовать в опросах
Вы не можете прикреплять файлы к сообщениям
Вы не можете скачивать файлы