Ошибка
Загрузка...

Полулюди. Фильм 3: Противостояние /Ajin Part 3: Shougeki [Movie] [2016] [Приключения, Ужасы, Сейнен, Сверхъестественное, Детектив] [BDRip] [720p] [Субтитры (JAP)]

Ответить на тему
 
Автор Сообщение

anoningen

Стаж: 4 года 4 месяца

Сообщений: 500

Самоа
Рейтинг

post 30-Авг-2017 23:52 0[+]

[Цитировать] 

Полулюди
Фильм 3: Противостояние
Ajin Part 3: Shougeki | 亜人

Год выпуска:
2016 г.
Тип: Полнометражный фильм
Жанр: Приключения, Ужасы, Сейнен, Сверхъестественное, Детектив
Режиссер: Сэсита Хироюки
Автор оригинала: Сакурай Гамон
Студия:
Продолжительность: 120 мин
Русские субтитры: ASS, внешним файлом [YakuSub Studio]
Переводчик: Nika_Elrik
Редактор: Harushechka
Оформление: licuma

Описание: Для старшеклассника Кэя и еще сорока шести других людей, неожиданное бессмертие становится ужасным сюрпризом. К несчастью для Кэя, это не делает его супергероем. В глазах общественности и правительства он — редкий экземпляр, который необходимо выследить и поймать, дабы в дальнейшем передать его учёным для проведения экспериментов... Экспериментов, во время которых ему придется умереть тысячи раз на благо человечества.
Автор рипа: Ohys-Raws
Качество: BDRip
Формат видео: MPEG-4
Видео: AVC, 8 бит, 1280x720; 23.976 кадра/сек; 2077 Кбит/сек, (16:9)
Аудио: AAC, 48,0 КГц, переменный ~205 Кбит/сек, 2 канала
Общее
Полное имя : G:\Anime\Ajin Movie Part 3\[Ohys-Raws] Ajin Movie - 03 (BD 1280x720 x264 AAC).mp4
Формат : MPEG-4
Профиль формата : Base Media
Идентификатор кодека : isom (isom/avc1)
Размер файла : 1,93 Гбайт
Продолжительность : 2 ч. 0 м.
Режим общего битрейта : Переменный
Общий поток : 2286 Кбит/сек
Дата кодирования : UTC 2017-05-21 06:27:44
Дата пометки : UTC 2017-05-21 06:27:44

Видео
Идентификатор : 1
Формат : AVC
Формат/Информация : Advanced Video Codec
Профиль формата : Main@L4.1
Параметр CABAC формата : Да
Параметр ReFrames формата : 4 кадра
Идентификатор кодека : avc1
Идентификатор кодека/Информация : Advanced Video Coding
Продолжительность : 2 ч. 0 м.
Битрейт : 2077 Кбит/сек
Максимальный битрейт : 32,7 Мбит/сек
Ширина : 1280 пикселей
Высота : 720 пикселей
Соотношение сторон : 16:9
Режим частоты кадров : Постоянный
Частота кадров : 23,976 (24000/1001) кадра/сек
Цветовое пространство : YUV
Субдискретизация насыщенности : 4:2:0
Битовая глубина : 8 бит
Тип развёртки : Прогрессивная
Бит/(Пиксели*Кадры) : 0.094
Размер потока : 1,75 Гбайт (91%)
Библиотека кодирования : x264 core 148 r2762+56 6284cf3 t_mod_Custom [8-bit@all X86_64]
Настройки программы : cabac=1 / ref=3 / deblock=1:0:0 / analyse=0x1:0x131 / me=umh / subme=9 / psy=1 / fade_compensate=0.00 / psy_rd=1.00:0.00 / mixed_ref=1 / me_range=32 / chroma_me=1 / trellis=1 / 8x8dct=0 / cqm=0 / deadzone=21,11 / fast_pskip=1 / chroma_qp_offset=-2 / threads=12 / lookahead_threads=1 / sliced_threads=0 / nr=0 / decimate=1 / interlaced=0 / bluray_compat=0 / constrained_intra=0 / fgo=0 / bframes=3 / b_pyramid=2 / b_adapt=1 / b_bias=0 / direct=1 / weightb=1 / open_gop=0 / weightp=2 / keyint=240 / keyint_min=1 / scenecut=40 / intra_refresh=0 / rc_lookahead=40 / rc=crf / mbtree=1 / crf=18.0000 / qcomp=0.60 / qpmin=0:0:0 / qpmax=69:69:69 / qpstep=4 / ip_ratio=1.40 / aq=1:1.00 / aq-sensitivity=10.00 / aq-factor=1.00:1.00:1.00 / aq2=0 / aq3=0
Дата кодирования : UTC 2017-05-21 06:27:44
Дата пометки : UTC 2017-05-21 06:28:16

Аудио
Идентификатор : 2
Формат : AAC
Формат/Информация : Advanced Audio Codec
Профиль формата : LC
Идентификатор кодека : 40
Продолжительность : 2 ч. 0 м.
Вид битрейта : Переменный
Битрейт : 205 Кбит/сек
Максимальный битрейт : 282 Кбит/сек
Каналы : 2 канала
Расположение каналов : Front: L R
Частота : 48,0 КГц
Частота кадров : 46,875 кадров/сек (1024 spf)
Метод сжатия : С потерями
Размер потока : 177 Мбайт (9%)
Язык : Japanese
Дата кодирования : UTC 2017-05-21 03:26:41
Дата пометки : UTC 2017-05-21 06:28:16
info [Профиль]  [ЛС] 

drowkins

Пол: Пол:Муж

Стаж: 2 года 3 месяца

Сообщений: 5

Рейтинг

post 31-Авг-2017 22:48 (спустя 22 часа) [-]0[+]

[Цитировать] 

я что то пропустил? где фильм 1 и 2? и судя по скринам это ТВ сериал.
info [Профиль]  [ЛС] 

anoningen

Стаж: 4 года 4 месяца

Сообщений: 500

Самоа
Рейтинг

post 31-Авг-2017 23:14 (спустя 25 минут) [-]1[+]

[Цитировать] 

drowkins
Первый и второй фильмы есть на трекере, и все они по сути являются компиляцией сериала.
info [Профиль]  [ЛС] 

pavel8289

Пол: Пол:Муж

Стаж: 6 лет 11 месяцев

Сообщений: 123

Украина
Рейтинг

post 31-Авг-2017 23:16 (спустя 1 минута) [-]0[+]

[Цитировать] 

Я как бы тоже, я уже перепроверил на всех ресурсах, нигде нету. в чем прикол ?

_________________
info [Профиль]  [ЛС] 

franck

Пол: Пол:Муж

Стаж: 7 лет 10 месяцев

Сообщений: 174

Украина
Рейтинг

post 01-Сен-2017 10:30 (спустя 11 часов) [-]0[+]

[Цитировать] 

А эта часть походу компиляция второго сезона

_________________
info [Профиль]  [ЛС] 

a1n3d

Стаж: 5 лет 8 месяцев

Сообщений: 42

Рейтинг

post 01-Сен-2017 22:08 (спустя 11 часов) [-]0[+]

[Цитировать] 

Что-то из разряда "Токийский дохляк"?

_________________
Плюсую тех, кто в минусе
info [Профиль]  [ЛС] 

franck

Пол: Пол:Муж

Стаж: 7 лет 10 месяцев

Сообщений: 174

Украина
Рейтинг

post 02-Сен-2017 00:23 (спустя 2 часа 14 минут) [-]0[+]

[Цитировать] 

a1n3d
Да нет, тут посерьезнее будет и более осмысленно. С сравнении с этим "Токийский гуль" - тупое клепалово из надоедливого жанра, как по мне. Любителям сенёна крайне советую.

_________________
info [Профиль]  [ЛС] 
Показать сообщения:    
Ответить на тему

Текущее время: 26-Сен 16:59

Часовой пояс: GMT + 4



Вы не можете начинать темы
Вы не можете отвечать на сообщения
Вы не можете редактировать свои сообщения
Вы не можете удалять свои сообщения
Вы не можете голосовать в опросах
Вы не можете прикреплять файлы к сообщениям
Вы не можете скачивать файлы