Ошибка
Загрузка...

Полулюди. Фильм 2: Столкновение /Ajin Part 2: Shoutotsu [Movie] [2016] [Приключения, Ужасы, Сейнен, Сверхъестественное, Детектив] [BDRip] [720p] [Субтитры (JAP)]

Ответить на тему
 
Автор Сообщение

anoningen

Стаж: 4 года 4 месяца

Сообщений: 500

Самоа
Рейтинг

post 30-Авг-2017 23:44 0[+]

[Цитировать] 

Полулюди
Фильм 2: Столкновение
Ajin Part 2: Shoutotsu | 亜人

Год выпуска:
2016 г.
Тип: Полнометражный фильм
Жанр: Приключения, Ужасы, Сейнен, Сверхъестественное, Детектив
Режиссер: Сэсита Хироюки
Автор оригинала: Сакурай Гамон
Студия:
Продолжительность: 105 мин
Русские субтитры: ASS, внешним файлом [YakuSub Studio]
Переводчик: Nika_Elrik
Редактор: Harushechka
Оформление: licuma

Описание: Второй фильм, пересказывающий события последних шести эпизодов первого сезона оригинального сериала и первого эпизода второго.

Кэй наконец сбегает из лаборатории Комитета по контролю за полулюдьми и находит безопасное место, где может отдохнуть и спокойно обдумать свою дальнейшую судьбу. Тем временем Сато публично выступает перед телевидением с требованием к правительству признать права полулюдей, и в случае отказа он намеревается совершить ряд террористических актов против человечества.
Грядет серьезное столкновение, и Кэю теперь придется решить: поможет ли он остановить Сато или же продолжит бегство в поисках нового безопасного места?
Автор рипа: Ohys-Raws
Качество: BDRip
Формат видео: MPEG-4
Видео: AVC, 8 бит, 1280x720; 23.976 кадра/сек; 1939 Кбит/сек, (16:9)
Аудио: AAC, 48,0 КГц, переменный ~211 Кбит/сек, 2 канала
Общее
Полное имя : G:\Anime\Ajin Movie Part 2\[Ohys-Raws] Ajin Movie - 02 (BD 1280x720 x264 AAC).mp4
Формат : MPEG-4
Профиль формата : Base Media
Идентификатор кодека : isom (isom/avc1)
Размер файла : 1,59 Гбайт
Продолжительность : 1 ч. 45 м.
Режим общего битрейта : Переменный
Общий поток : 2155 Кбит/сек
Дата кодирования : UTC 2017-05-21 06:27:09
Дата пометки : UTC 2017-05-21 06:27:09

Видео
Идентификатор : 1
Формат : AVC
Формат/Информация : Advanced Video Codec
Профиль формата : Main@L4.1
Параметр CABAC формата : Да
Параметр ReFrames формата : 4 кадра
Идентификатор кодека : avc1
Идентификатор кодека/Информация : Advanced Video Coding
Продолжительность : 1 ч. 45 м.
Битрейт : 1939 Кбит/сек
Максимальный битрейт : 32,9 Мбит/сек
Ширина : 1280 пикселей
Высота : 720 пикселей
Соотношение сторон : 16:9
Режим частоты кадров : Постоянный
Частота кадров : 23,976 (24000/1001) кадра/сек
Цветовое пространство : YUV
Субдискретизация насыщенности : 4:2:0
Битовая глубина : 8 бит
Тип развёртки : Прогрессивная
Бит/(Пиксели*Кадры) : 0.088
Размер потока : 1,43 Гбайт (90%)
Библиотека кодирования : x264 core 148 r2762+56 6284cf3 t_mod_Custom [8-bit@all X86_64]
Настройки программы : cabac=1 / ref=3 / deblock=1:0:0 / analyse=0x1:0x131 / me=umh / subme=9 / psy=1 / fade_compensate=0.00 / psy_rd=1.00:0.00 / mixed_ref=1 / me_range=32 / chroma_me=1 / trellis=1 / 8x8dct=0 / cqm=0 / deadzone=21,11 / fast_pskip=1 / chroma_qp_offset=-2 / threads=12 / lookahead_threads=1 / sliced_threads=0 / nr=0 / decimate=1 / interlaced=0 / bluray_compat=0 / constrained_intra=0 / fgo=0 / bframes=3 / b_pyramid=2 / b_adapt=1 / b_bias=0 / direct=1 / weightb=1 / open_gop=0 / weightp=2 / keyint=240 / keyint_min=1 / scenecut=40 / intra_refresh=0 / rc_lookahead=40 / rc=crf / mbtree=1 / crf=18.0000 / qcomp=0.60 / qpmin=0:0:0 / qpmax=69:69:69 / qpstep=4 / ip_ratio=1.40 / aq=1:1.00 / aq-sensitivity=10.00 / aq-factor=1.00:1.00:1.00 / aq2=0 / aq3=0
Дата кодирования : UTC 2017-05-21 06:27:09
Дата пометки : UTC 2017-05-21 06:27:41

Аудио
Идентификатор : 2
Формат : AAC
Формат/Информация : Advanced Audio Codec
Профиль формата : LC
Идентификатор кодека : 40
Продолжительность : 1 ч. 45 м.
Вид битрейта : Переменный
Битрейт : 211 Кбит/сек
Максимальный битрейт : 281 Кбит/сек
Каналы : 2 канала
Расположение каналов : Front: L R
Частота : 48,0 КГц
Частота кадров : 46,875 кадров/сек (1024 spf)
Метод сжатия : С потерями
Размер потока : 160 Мбайт (10%)
Язык : Japanese
Дата кодирования : UTC 2017-05-21 03:21:07
Дата пометки : UTC 2017-05-21 06:27:41
info [Профиль]  [ЛС] 
Показать сообщения:    
Ответить на тему

Текущее время: 24-Сен 16:10

Часовой пояс: GMT + 4



Вы не можете начинать темы
Вы не можете отвечать на сообщения
Вы не можете редактировать свои сообщения
Вы не можете удалять свои сообщения
Вы не можете голосовать в опросах
Вы не можете прикреплять файлы к сообщениям
Вы не можете скачивать файлы