Ошибка
Загрузка...

(Score) Вздымающийся ад / The Towering Inferno (by John Williams) - 2001 г. FLAC (tracks), lossless

Ответить на тему
 
Автор Сообщение

Hobbit38

Пол: Пол:Муж

Стаж: 3 года 3 месяца

Сообщений: 94

Россия
Рейтинг

post 30-Июл-2017 22:15 0[+]

[Цитировать] 


Вздымающийся ад / The Towering Inferno
Жанр: Score | Композитор: John Williams

Год выпуска диска: 2001 | Год выпуска фильма: 1974

Страна-производитель диска: USA | Издатель (лейбл): Film Score Monthly

Номер по каталогу: FSMCD Vol. 4 No. 3

Аудио кодек: FLAC (.flac) | Тип рипа: tracks | Битрейт аудио: lossless

Продолжительность: 01:16:29 | Полиграфия: присутствует

01. Main Title
02. Something for Susan
03. Lisolette and Harlee
04. The Flame Ignites
05. More for Susan
06. Harlee Dressing
07. Let There Be Light
08. Alone at Last
09. We May Never Love Like This Again (Film Version)
10. The First Victims
11. Not a Cigarette
12. Trapped Lovers
13. Doug's Fall / Piggy Back Ride
14. Lisolette's Descent
15. Down the Pipes / The Door Opens
16. Couples
17. Short Goodbyes
18. Helicopter Rescue
19. Passing the Word
20. Planting the Charges
21. Finale
22. An Architect's Dream

Bonus Material
23. We May Never Love Like This Again (Album Version)
24. The Morning After (Instrumental)
25. Susan and Doug (Album Track)
26. Departmental Pride and the Cat (Damaged)
27. Helicopter Explosion (Damaged)
28. Waking Up (Damaged)
 
Exact Audio Copy V1.0 beta 3 from 29. August 2011
EAC extraction logfile from 28. May 2014, 11:12
John Williams / The Towering Inferno
Used drive : HL-DT-STBDDVDRW CH30N Adapter: 0 ID: 0
Read mode : Secure
Utilize accurate stream : Yes
Defeat audio cache : Yes
Make use of C2 pointers : No
Read offset correction : 6
Overread into Lead-In and Lead-Out : No
Fill up missing offset samples with silence : Yes
Delete leading and trailing silent blocks : No
Null samples used in CRC calculations : Yes
Used interface : Native Win32 interface for Win NT & 2000
Gap handling : Appended to previous track
Used output format : User Defined Encoder
Selected bitrate : 1024 kBit/s
Quality : High
Add ID3 tag : No
Command line compressor : C:\Program Files (x86)\Exact Audio Copy\Flac\flac.exe
Additional command line options : -8 -V -T "artist=%artist%" -T "title=%title%" -T "album=%albumtitle%" -T "date=%year%" -T "tracknumber=%tracknr%" -T "genre=%genre%" %source%
TOC of the extracted CD
Track | Start | Length | Start sector | End sector
---------------------------------------------------------
1 | 0:00.32 | 5:00.58 | 32 | 22589
2 | 5:01.15 | 2:41.70 | 22590 | 34734
3 | 7:43.10 | 2:34.65 | 34735 | 46349
4 | 10:18.00 | 1:01.35 | 46350 | 50959
5 | 11:19.35 | 1:55.62 | 50960 | 59646
6 | 13:15.22 | 1:37.08 | 59647 | 66929
7 | 14:52.30 | 0:37.70 | 66930 | 69774
8 | 15:30.25 | 0:51.10 | 69775 | 73609
9 | 16:21.35 | 2:05.15 | 73610 | 82999
10 | 18:26.50 | 3:23.72 | 83000 | 98296
11 | 21:50.47 | 1:18.63 | 98297 | 104209
12 | 23:09.35 | 4:45.00 | 104210 | 125584
13 | 27:54.35 | 2:18.12 | 125585 | 135946
14 | 30:12.47 | 3:07.28 | 135947 | 149999
15 | 33:20.00 | 2:59.52 | 150000 | 163476
16 | 36:19.52 | 3:38.18 | 163477 | 179844
17 | 39:57.70 | 2:25.67 | 179845 | 190786
18 | 42:23.62 | 3:07.30 | 190787 | 204841
19 | 45:31.17 | 1:12.00 | 204842 | 210241
20 | 46:43.17 | 9:06.73 | 210242 | 251264
21 | 55:50.15 | 3:55.05 | 251265 | 268894
22 | 59:45.20 | 3:28.20 | 268895 | 284514
23 | 63:13.40 | 2:18.15 | 284515 | 294879
24 | 65:31.55 | 2:07.37 | 294880 | 304441
25 | 67:39.17 | 2:32.45 | 304442 | 315886
26 | 70:11.62 | 1:05.20 | 315887 | 320781
27 | 71:17.07 | 2:35.18 | 320782 | 332424
28 | 73:52.25 | 2:37.07 | 332425 | 344206
Track 1
Filename C:\John Williams - The Towering Inferno (FSM Vol. 4 No. 3) [FLAC]\01 - John Williams - Main Title.wav
Pre-gap length 0:00:02.32
Peak level 98.1 %
Extraction speed 2.8 X
Track quality 99.9 %
Test CRC 5F2F16F1
Copy CRC 5F2F16F1
Accurately ripped (confidence 3) [4233C290] (AR v2)
Copy OK
Track 2
Filename C:\John Williams - The Towering Inferno (FSM Vol. 4 No. 3) [FLAC]\02 - John Williams - Something for Susan.wav
Peak level 72.1 %
Extraction speed 1.5 X
Track quality 100.0 %
Test CRC C7461520
Copy CRC C7461520
Accurately ripped (confidence 3) [11212221] (AR v2)
Copy OK
Track 3
Filename C:\John Williams - The Towering Inferno (FSM Vol. 4 No. 3) [FLAC]\03 - John Williams - Lisolette and Harlee.wav
Peak level 56.5 %
Extraction speed 1.3 X
Track quality 100.0 %
Test CRC 7F468430
Copy CRC 7F468430
Accurately ripped (confidence 3) [C48398AE] (AR v2)
Copy OK
Track 4
Filename C:\John Williams - The Towering Inferno (FSM Vol. 4 No. 3) [FLAC]\04 - John Williams - The Flame Ignites.wav
Peak level 48.4 %
Extraction speed 1.0 X
Track quality 100.0 %
Test CRC B0A9B7F3
Copy CRC B0A9B7F3
Accurately ripped (confidence 3) [BEF841E8] (AR v2)
Copy OK
Track 5
Filename C:\John Williams - The Towering Inferno (FSM Vol. 4 No. 3) [FLAC]\05 - John Williams - More for Susan.wav
Peak level 54.9 %
Extraction speed 1.0 X
Track quality 99.9 %
Test CRC 9FBF1F0B
Copy CRC 9FBF1F0B
Accurately ripped (confidence 3) [147B4FD2] (AR v2)
Copy OK
Track 6
Filename C:\John Williams - The Towering Inferno (FSM Vol. 4 No. 3) [FLAC]\06 - John Williams - Harlee Dressing.wav
Peak level 48.1 %
Extraction speed 1.2 X
Track quality 100.0 %
Test CRC 0D4B51B8
Copy CRC 0D4B51B8
Accurately ripped (confidence 3) [FEECAEA9] (AR v2)
Copy OK
Track 7
Filename C:\John Williams - The Towering Inferno (FSM Vol. 4 No. 3) [FLAC]\07 - John Williams - Let There Be Light.wav
Peak level 76.4 %
Extraction speed 0.9 X
Track quality 100.0 %
Test CRC 686C79B2
Copy CRC 686C79B2
Accurately ripped (confidence 3) [7DBE805B] (AR v2)
Copy OK
Track 8
Filename C:\John Williams - The Towering Inferno (FSM Vol. 4 No. 3) [FLAC]\08 - John Williams - Alone at Last.wav
Peak level 42.8 %
Extraction speed 0.7 X
Track quality 99.7 %
Test CRC B11511CF
Copy CRC B11511CF
Accurately ripped (confidence 3) [378CBF52] (AR v2)
Copy OK
Track 9
Filename C:\John Williams - The Towering Inferno (FSM Vol. 4 No. 3) [FLAC]\09 - Al Kasha and Joel Hirschhorn - We May Never Love Like This Again (film version).wav
Peak level 78.8 %
Extraction speed 1.4 X
Track quality 100.0 %
Test CRC 6B0CDB15
Copy CRC 6B0CDB15
Accurately ripped (confidence 3) [B9A36BBF] (AR v2)
Copy OK
Track 10
Filename C:\John Williams - The Towering Inferno (FSM Vol. 4 No. 3) [FLAC]\10 - John Williams - The First Victims.wav
Pre-gap length 0:00:01.23
Peak level 97.7 %
Extraction speed 1.6 X
Track quality 100.0 %
Test CRC 0AA4C284
Copy CRC 0AA4C284
Accurately ripped (confidence 3) [5CB8F322] (AR v2)
Copy OK
Track 11
Filename C:\John Williams - The Towering Inferno (FSM Vol. 4 No. 3) [FLAC]\11 - John Williams - Not a Cigarette.wav
Peak level 97.9 %
Extraction speed 1.3 X
Track quality 100.0 %
Test CRC 250A69A3
Copy CRC 250A69A3
Accurately ripped (confidence 3) [390A5551] (AR v2)
Copy OK
Track 12
Filename C:\John Williams - The Towering Inferno (FSM Vol. 4 No. 3) [FLAC]\12 - John Williams - Trapped Lovers.wav
Peak level 97.0 %
Extraction speed 1.8 X
Track quality 100.0 %
Test CRC 734DCE93
Copy CRC 734DCE93
Accurately ripped (confidence 3) [A256241A] (AR v2)
Copy OK
Track 13
Filename C:\John Williams - The Towering Inferno (FSM Vol. 4 No. 3) [FLAC]\13 - John Williams - Doug's Fall,Piggy Back Ride.wav
Peak level 65.9 %
Extraction speed 1.6 X
Track quality 100.0 %
Test CRC 75D6AA5F
Copy CRC 75D6AA5F
Accurately ripped (confidence 3) [ECD0D2A8] (AR v2)
Copy OK
Track 14
Filename C:\John Williams - The Towering Inferno (FSM Vol. 4 No. 3) [FLAC]\14 - John Williams - Lisolette's Descent.wav
Peak level 90.9 %
Extraction speed 1.8 X
Track quality 100.0 %
Test CRC F633FCD3
Copy CRC F633FCD3
Accurately ripped (confidence 3) [E67BEF47] (AR v2)
Copy OK
Track 15
Filename C:\John Williams - The Towering Inferno (FSM Vol. 4 No. 3) [FLAC]\15 - John Williams - Down the Pipes,The Door Opens.wav
Peak level 52.8 %
Extraction speed 1.8 X
Track quality 100.0 %
Test CRC BCC35C8C
Copy CRC BCC35C8C
Accurately ripped (confidence 3) [493F2B0E] (AR v2)
Copy OK
Track 16
Filename C:\John Williams - The Towering Inferno (FSM Vol. 4 No. 3) [FLAC]\16 - John Williams - Couples.wav
Peak level 24.3 %
Extraction speed 2.0 X
Track quality 100.0 %
Test CRC 69448CBD
Copy CRC 69448CBD
Accurately ripped (confidence 3) [D34E1577] (AR v2)
Copy OK
Track 17
Filename C:\John Williams - The Towering Inferno (FSM Vol. 4 No. 3) [FLAC]\17 - John Williams - Short Goodbyes.wav
Peak level 62.4 %
Extraction speed 1.9 X
Track quality 100.0 %
Test CRC 9DF0A114
Copy CRC 9DF0A114
Accurately ripped (confidence 3) [6E69778A] (AR v2)
Copy OK
Track 18
Filename C:\John Williams - The Towering Inferno (FSM Vol. 4 No. 3) [FLAC]\18 - John Williams - Helicopter Rescue.wav
Peak level 96.5 %
Extraction speed 2.0 X
Track quality 100.0 %
Test CRC 21AC03F7
Copy CRC 21AC03F7
Accurately ripped (confidence 3) [CA14AE54] (AR v2)
Copy OK
Track 19
Filename C:\John Williams - The Towering Inferno (FSM Vol. 4 No. 3) [FLAC]\19 - John Williams - Passing the Word.wav
Peak level 33.8 %
Extraction speed 1.6 X
Track quality 100.0 %
Test CRC 2B68E73D
Copy CRC 2B68E73D
Accurately ripped (confidence 3) [30B89068] (AR v2)
Copy OK
Track 20
Filename C:\John Williams - The Towering Inferno (FSM Vol. 4 No. 3) [FLAC]\20 - John Williams - Planting the Charges.wav
Peak level 97.9 %
Extraction speed 2.4 X
Track quality 100.0 %
Test CRC 19E984EB
Copy CRC 19E984EB
Accurately ripped (confidence 3) [0DC508FB] (AR v2)
Copy OK
Track 21
Filename C:\John Williams - The Towering Inferno (FSM Vol. 4 No. 3) [FLAC]\21 - John Williams - Finale.wav
Pre-gap length 0:00:02.00
Peak level 91.3 %
Extraction speed 2.0 X
Track quality 99.9 %
Test CRC B2665190
Copy CRC B2665190
Accurately ripped (confidence 3) [3BDF3D5B] (AR v2)
Copy OK
Track 22
Filename C:\John Williams - The Towering Inferno (FSM Vol. 4 No. 3) [FLAC]\22 - John Williams - An Architect's Dream.wav
Peak level 97.2 %
Extraction speed 2.3 X
Track quality 100.0 %
Test CRC 8491697F
Copy CRC 8491697F
Accurately ripped (confidence 3) [9EC1A9D8] (AR v2)
Copy OK
Track 23
Filename C:\John Williams - The Towering Inferno (FSM Vol. 4 No. 3) [FLAC]\23 - Al Kasha and Joel Hirschhorn - We May Never Love Like This Again (album version).wav
Peak level 52.7 %
Extraction speed 2.2 X
Track quality 100.0 %
Test CRC 89BEA542
Copy CRC 89BEA542
Accurately ripped (confidence 3) [A9613C7D] (AR v2)
Copy OK
Track 24
Filename C:\John Williams - The Towering Inferno (FSM Vol. 4 No. 3) [FLAC]\24 - Al Kasha and Joel Hirschhorn - The Morning After (instrumental).wav
Peak level 62.5 %
Extraction speed 1.7 X
Track quality 99.9 %
Test CRC 1B2BBC14
Copy CRC 1B2BBC14
Accurately ripped (confidence 3) [34428E37] (AR v2)
Copy OK
Track 25
Filename C:\John Williams - The Towering Inferno (FSM Vol. 4 No. 3) [FLAC]\25 - John Williams - Susan and Doug (album track).wav
Pre-gap length 0:00:00.70
Peak level 46.3 %
Extraction speed 2.3 X
Track quality 100.0 %
Test CRC D1CB57A9
Copy CRC D1CB57A9
Accurately ripped (confidence 3) [828A8913] (AR v2)
Copy OK
Track 26
Filename C:\John Williams - The Towering Inferno (FSM Vol. 4 No. 3) [FLAC]\26 - John Williams - Departmental Pride and the Cat (damaged).wav
Peak level 51.0 %
Extraction speed 1.8 X
Track quality 100.0 %
Test CRC 35CC34A6
Copy CRC 35CC34A6
Accurately ripped (confidence 3) [5DFA0A2B] (AR v2)
Copy OK
Track 27
Filename C:\John Williams - The Towering Inferno (FSM Vol. 4 No. 3) [FLAC]\27 - John Williams - Helicopter Explosion (damaged).wav
Pre-gap length 0:00:02.17
Peak level 89.6 %
Extraction speed 2.3 X
Track quality 100.0 %
Test CRC E934C0CD
Copy CRC E934C0CD
Accurately ripped (confidence 3) [CFBDF971] (AR v2)
Copy OK
Track 28
Filename C:\John Williams - The Towering Inferno (FSM Vol. 4 No. 3) [FLAC]\28 - John Williams - Waking Up (damaged).wav
Pre-gap length 0:00:02.08
Peak level 86.0 %
Extraction speed 2.4 X
Track quality 100.0 %
Test CRC 43BDE2A3
Copy CRC 43BDE2A3
Accurately ripped (confidence 3) [C8DE172A] (AR v2)
Copy OK
All tracks accurately ripped
No errors occurred
End of status report
==== Log checksum A1F601C7BFF537FAA6EEE10A1FBE82D59D3012C06E8B86F371DD5D1EA6CC1437 ====

info [Профиль]  [ЛС] 
Показать сообщения:    
Ответить на тему

Текущее время: 21-Авг 14:18

Часовой пояс: GMT + 4



Вы не можете начинать темы
Вы не можете отвечать на сообщения
Вы не можете редактировать свои сообщения
Вы не можете удалять свои сообщения
Вы не можете голосовать в опросах
Вы не можете прикреплять файлы к сообщениям
Вы не можете скачивать файлы