Ошибка

СПАРК. Герой Вселенной / Spark: A Space Tail (Аарон Вудли) [2016, семейный, мультфильм, комедия, BDRip 1080p] [iTunes]

Ответить на тему
 
Автор Сообщение

DENZEL519

Пол: Пол:Муж

Стаж: 6 лет 5 месяцев

Сообщений: 1152

СССР
Рейтинг

post 14-Июл-2017 17:04 1[+]

[Цитировать] 

СПАРК. Герой Вселенной / Spark: A Space Tail
«Судьба галактики в надежных руках!»

Год выпуска: 2016
Страна: Канада, Корея Южная
Жанр: семейный, мультфильм, комедия
Продолжительность: 01:31:29
Перевод: Дублированный [iTunes]
Субтитры: Английские
Режиссер: Аарон Вудли
Сценарий: Даг Хаддерс, Роберт Рис, Адам Ротстейн, Аарон Вудли
Продюсер: Трэйси Грант, Чон У-гён, Ли Ён-ги, Гарри Линден, Jun Zheng, Ан Хон-джу, Уильям Байндли, Лян Чэнь, Zheng Feng Chen, Hyung Chul Choi, Ходжин Ха, Sen Jia
Композитор: Роберт Дункан
Художник: Goran Delic, Хи Кюнг Кан
Монтаж: Пол Хантер
В главных ролях: Джессика Бил, Патрик Стюарт, Сьюзен Сарандон, Хилари Суэнк, Джейс Норман, Афина Карканис, Иван Шерри, Алан С. Петерсон, Джейсон Делайн, Аарон Вудли


Описание: Могущественные силы зла захватили прекрасную планету и поработили всю Вселенную. Но ничто не заставит Спарка и его верных друзей сдаться.Если у тебя храброе и доброе сердце, несгибаемая воля к победе и преданная команда, любая задача тебе по плечу! Звездная миссия по спасению Вселенной начинается.


Качество: BDRip 1080p
Формат: MKV
Видео кодек: AVC
Аудио кодек: AC3
Видео: 1920x804 (2.40:1), 23.976 fps, AVC, 10.2 Mbps
Аудио: Аудио #1: AC3, 384 Kbps, 48.0 KHz, 6 ch [Rus]
Аудио #2: AC3, 640 Kbps, 48.0 KHz, 6 ch [Eng]


Код:

General
Unique ID                                : 175080178625796278963203171039938947101 (0x83B7374326EBAB4B8D9DAD2DF321281D)
Complete name                            : Spark.A.Space.Tail.2016.BDRip.1080p.ExKinoRay.mkv
Format                                   : Matroska
Format version                           : Version 4 / Version 2
File size                                : 7.17 GiB
Duration                                 : 1h 31mn
Overall bit rate                         : 11.2 Mbps
Encoded date                             : UTC 2017-07-10 22:40:39
Writing application                      : mkvmerge v13.0.0 ('The Juggler') 64bit
Writing library                          : libebml v1.3.4 + libmatroska v1.4.5
DURATION                                 : 01:31:29.536000000
NUMBER_OF_FRAMES                         : 171548
NUMBER_OF_BYTES                          : 263497728
_STATISTICS_WRITING_APP                  : mkvmerge v13.0.0 ('The Juggler') 64bit
_STATISTICS_WRITING_DATE_UTC             : 2017-07-10 22:40:39
_STATISTICS_TAGS                         : BPS DURATION NUMBER_OF_FRAMES NUMBER_OF_BYTES

Video
ID                                       : 1
Format                                   : AVC
Format/Info                              : Advanced Video Codec
Format profile                           : High@L4.1
Format settings, CABAC                   : Yes
Format settings, ReFrames                : 5 frames
Codec ID                                 : V_MPEG4/ISO/AVC
Duration                                 : 1h 31mn
Bit rate                                 : 10.2 Mbps
Width                                    : 1 920 pixels
Height                                   : 804 pixels
Display aspect ratio                     : 2.40:1
Frame rate mode                          : Constant
Frame rate                               : 23.976 fps
Color space                              : YUV
Chroma subsampling                       : 4:2:0
Bit depth                                : 8 bits
Scan type                                : Progressive
Bits/(Pixel*Frame)                       : 0.276
Stream size                              : 6.37 GiB (89%)
Writing library                          : x264 core 148 r2705 3f5ed56
Encoding settings                        : cabac=1 / ref=5 / deblock=1:-3:-3 / analyse=0x3:0x133 / me=umh / subme=11 / psy=1 / psy_rd=1.05:0.05 / mixed_ref=1 / me_range=48 / chroma_me=1 / trellis=2 / 8x8dct=1 / cqm=0 / deadzone=21,11 / fast_pskip=0 / chroma_qp_offset=-3 / threads=12 / lookahead_threads=2 / sliced_threads=0 / nr=0 / decimate=0 / interlaced=0 / bluray_compat=0 / constrained_intra=0 / bframes=10 / b_pyramid=2 / b_adapt=2 / b_bias=0 / direct=3 / weightb=1 / open_gop=0 / weightp=2 / keyint=240 / keyint_min=23 / scenecut=40 / intra_refresh=0 / rc_lookahead=50 / rc=2pass / mbtree=0 / bitrate=10200 / ratetol=1.0 / qcomp=0.60 / qpmin=0 / qpmax=69 / qpstep=4 / cplxblur=20.0 / qblur=0.5 / vbv_maxrate=50000 / vbv_bufsize=62500 / nal_hrd=none / filler=0 / ip_ratio=1.40 / pb_ratio=1.30 / aq=3:0.80
Language                                 : English
Default                                  : Yes
Forced                                   : No
DURATION                                 : 01:31:28.942000000
NUMBER_OF_FRAMES                         : 131603
NUMBER_OF_BYTES                          : 6996287196
_STATISTICS_WRITING_APP                  : mkvmerge v13.0.0 ('The Juggler') 64bit
_STATISTICS_WRITING_DATE_UTC             : 2017-07-10 22:40:39
_STATISTICS_TAGS                         : BPS DURATION NUMBER_OF_FRAMES NUMBER_OF_BYTES

Audio #1
ID                                       : 2
Format                                   : AC-3
Format/Info                              : Audio Coding 3
Mode extension                           : CM (complete main)
Format settings, Endianness              : Big
Codec ID                                 : A_AC3
Duration                                 : 1h 31mn
Bit rate mode                            : Constant
Bit rate                                 : 384 Kbps
Channel(s)                               : 6 channels
Channel positions                        : Front: L C R, Side: L R, LFE
Sampling rate                            : 48.0 KHz
Bit depth                                : 16 bits
Compression mode                         : Lossy
Stream size                              : 251 MiB (3%)
Title                                    : iTunes
Language                                 : Russian
Default                                  : Yes
Forced                                   : No

Audio #2
ID                                       : 3
Format                                   : AC-3
Format/Info                              : Audio Coding 3
Mode extension                           : CM (complete main)
Format settings, Endianness              : Big
Codec ID                                 : A_AC3
Duration                                 : 1h 31mn
Bit rate mode                            : Constant
Bit rate                                 : 640 Kbps
Channel(s)                               : 6 channels
Channel positions                        : Front: L C R, Side: L R, LFE
Sampling rate                            : 48.0 KHz
Bit depth                                : 16 bits
Compression mode                         : Lossy
Stream size                              : 419 MiB (6%)
Title                                    : Original
Language                                 : English
Default                                  : No
Forced                                   : No

Text
ID                                       : 4
Format                                   : UTF-8
Codec ID                                 : S_TEXT/UTF8
Codec ID/Info                            : UTF-8 Plain Text
Title                                    : Full
Language                                 : English
Default                                  : No
Forced                                   : No

Menu
00:00:00.000                             : en:00:00:00.000
00:10:20.870                             : en:00:10:20.870
00:20:26.976                             : en:00:20:26.976
00:30:43.050                             : en:00:30:43.050
00:41:17.850                             : en:00:41:17.850
00:51:33.549                             : en:00:51:33.549
01:01:36.526                             : en:01:01:36.526
01:12:35.518                             : en:01:12:35.518
01:23:05.314                             : en:01:23:05.314

Сборы в США: $196 458
Сборы в России: $386 470
Зрители: Россия 148.1 тыс.
Премьера (мир): 22 апреля 2016
Премьера (РФ): 1 июня 2017



Время раздачи: 24/7 (до появления первых 3-5 скачавших)
© Оформление by DENZEL519 for http://tapochek.net


info [Профиль]  [ЛС] 
Показать сообщения:    
Ответить на тему

Текущее время: 15-Дек 04:37

Часовой пояс: GMT + 4



Вы не можете начинать темы
Вы не можете отвечать на сообщения
Вы не можете редактировать свои сообщения
Вы не можете удалять свои сообщения
Вы не можете голосовать в опросах
Вы не можете прикреплять файлы к сообщениям
Вы не можете скачивать файлы