Ошибка
Загрузка...

(Punk-Rock, Pop-Punk) Alkaline Trio - Discography - 1998-2013, FLAC (tracks+.cue), lossless

Ответить на тему
 
Автор Сообщение

The Royal

Пол: Пол:Муж

Стаж: 7 лет 8 месяцев

Сообщений: 667

Россия
Рейтинг

post 11-Июл-2017 23:30 1[+]

[Цитировать] 

Alkaline Trio - Discography

Жанр: Punk-Rock, Pop-Punk
Год издания данного носителя: 1998-2013
Аудио кодек: FLAC
Тип рипа: tracks+.cue
Битрейт аудио: lossless
Продолжительность: 10:36:36
Полиграфия: Отсутствует
01. Cringe (2:24)
02. Cop (2:19)
03. San Francisco (3:53)
04. Nose Over Tail (2:38)
05. As You Were (2:11)
06. Enjoy Your Day (2:18)
07. Clavicle (2:29)
08. My Little Needle (3:01)
09. Southern Rock (3:05)
10. Message From Kathlene (3:22)
11. Trouble Breathing (3:55)
12. Sorry About That (3:24)
13. Weak Week (2:42)
14. Nose Over Tail (2:43)
15. Ninety-Seven (4:49)
16. Sundials (4:24)
X Lossless Decoder version 20090320 (105.1) 

XLD extraction logfile from 2009-05-24 10:26:58 +0100

Alkaline Trio / Goddamnit

Used drive : MATSHITA DVD-R UJ-857D (revision KBVB)

Use cdparanoia mode : YES (CDParanoia III 10.2 engine)
Disable audio cache : OK for the drive with cache less than 2750KB
Make use of C2 pointers : NO
Read offset correction : 102
Max retry count : 100

TOC of the extracted CD
Track | Start | Length | Start sector | End sector
---------------------------------------------------------
1 | 00:00:00 | 02:24:14 | 0 | 10813
2 | 02:24:14 | 02:18:50 | 10814 | 21213
3 | 04:42:64 | 03:52:49 | 21214 | 38662
4 | 08:35:38 | 02:37:43 | 38663 | 50480
5 | 11:13:06 | 02:11:33 | 50481 | 60338
6 | 13:24:39 | 02:17:67 | 60339 | 70680
7 | 15:42:31 | 02:28:50 | 70681 | 81830
8 | 18:11:06 | 03:00:69 | 81831 | 95399
9 | 21:12:00 | 03:05:21 | 95400 | 109295
10 | 24:17:21 | 03:22:11 | 109296 | 124456
11 | 27:39:32 | 03:55:32 | 124457 | 142113
12 | 31:34:64 | 03:23:67 | 142114 | 157405
13 | 34:58:56 | 02:41:47 | 157406 | 169527
14 | 37:40:28 | 02:43:25 | 169528 | 181777
15 | 40:23:53 | 04:49:32 | 181778 | 203484
16 | 45:13:10 | 04:24:24 | 203485 | 223308

List of alternate offset correction values
# | Absolute | Relative | Confidence
------------------------------------------
1 | 748 | 646 | 3

Track 01
Filename : /Users/benburdett/Desktop/Music/what.cd torrents/FLAC/01 - Cringe.flac

CRC32 hash (test run) : D74499C2
CRC32 hash : D74499C2
CRC32 hash (skip zero) : CF057738
AccurateRip signature : EC6A1FC6
->Accurately ripped! (confidence 2)
Statistics
Read error : 0
Skipped (treated as error) : 0
Edge jitter error (maybe fixed) : 0
Atom jitter error (maybe fixed) : 0
Drift error (maybe fixed) : 0
Dropped bytes error (maybe fixed) : 0
Duplicated bytes error (maybe fixed) : 0
Inconsistency in error sectors : 0

Track 02
Filename : /Users/benburdett/Desktop/Music/what.cd torrents/FLAC/02 - Cop.flac

CRC32 hash (test run) : 4329570D
CRC32 hash : 4329570D
CRC32 hash (skip zero) : 72AD4F18
AccurateRip signature : EDC7136C
->Accurately ripped! (confidence 2)
Statistics
Read error : 0
Skipped (treated as error) : 0
Edge jitter error (maybe fixed) : 0
Atom jitter error (maybe fixed) : 0
Drift error (maybe fixed) : 0
Dropped bytes error (maybe fixed) : 0
Duplicated bytes error (maybe fixed) : 0
Inconsistency in error sectors : 0

Track 03
Filename : /Users/benburdett/Desktop/Music/what.cd torrents/FLAC/03 - San Francisco.flac

CRC32 hash (test run) : 1EDEFCB6
CRC32 hash : 1EDEFCB6
CRC32 hash (skip zero) : 4D97422F
AccurateRip signature : 52A2B3D8
->Accurately ripped! (confidence 2)
Statistics
Read error : 0
Skipped (treated as error) : 0
Edge jitter error (maybe fixed) : 0
Atom jitter error (maybe fixed) : 0
Drift error (maybe fixed) : 0
Dropped bytes error (maybe fixed) : 0
Duplicated bytes error (maybe fixed) : 0
Inconsistency in error sectors : 0

Track 04
Filename : /Users/benburdett/Desktop/Music/what.cd torrents/FLAC/04 - Nose Over Tail.flac

CRC32 hash (test run) : BF7B9A0B
CRC32 hash : BF7B9A0B
CRC32 hash (skip zero) : 8DDB7164
AccurateRip signature : BC212BDF
->Accurately ripped! (confidence 2)
Statistics
Read error : 0
Skipped (treated as error) : 0
Edge jitter error (maybe fixed) : 0
Atom jitter error (maybe fixed) : 0
Drift error (maybe fixed) : 0
Dropped bytes error (maybe fixed) : 0
Duplicated bytes error (maybe fixed) : 0
Inconsistency in error sectors : 0

Track 05
Filename : /Users/benburdett/Desktop/Music/what.cd torrents/FLAC/05 - As You Were.flac

CRC32 hash (test run) : 29837100
CRC32 hash : 29837100
CRC32 hash (skip zero) : 854C78F1
AccurateRip signature : 374B1F2F
->Accurately ripped! (confidence 2)
Statistics
Read error : 0
Skipped (treated as error) : 0
Edge jitter error (maybe fixed) : 0
Atom jitter error (maybe fixed) : 0
Drift error (maybe fixed) : 0
Dropped bytes error (maybe fixed) : 0
Duplicated bytes error (maybe fixed) : 0
Inconsistency in error sectors : 0

Track 06
Filename : /Users/benburdett/Desktop/Music/what.cd torrents/FLAC/06 - Enjoy Your Day.flac

CRC32 hash (test run) : BE1A237F
CRC32 hash : BE1A237F
CRC32 hash (skip zero) : 33FB1AAD
AccurateRip signature : F398B164
->Accurately ripped! (confidence 2)
Statistics
Read error : 0
Skipped (treated as error) : 0
Edge jitter error (maybe fixed) : 0
Atom jitter error (maybe fixed) : 0
Drift error (maybe fixed) : 0
Dropped bytes error (maybe fixed) : 0
Duplicated bytes error (maybe fixed) : 0
Inconsistency in error sectors : 0

Track 07
Filename : /Users/benburdett/Desktop/Music/what.cd torrents/FLAC/07 - Clavicle.flac

CRC32 hash (test run) : 49ACECFD
CRC32 hash : 49ACECFD
CRC32 hash (skip zero) : 5BC11C70
AccurateRip signature : F6DE4851
->Accurately ripped! (confidence 2)
Statistics
Read error : 0
Skipped (treated as error) : 0
Edge jitter error (maybe fixed) : 0
Atom jitter error (maybe fixed) : 0
Drift error (maybe fixed) : 0
Dropped bytes error (maybe fixed) : 0
Duplicated bytes error (maybe fixed) : 0
Inconsistency in error sectors : 0

Track 08
Filename : /Users/benburdett/Desktop/Music/what.cd torrents/FLAC/08 - My Little Needle.flac

CRC32 hash (test run) : 823D0EAA
CRC32 hash : 823D0EAA
CRC32 hash (skip zero) : 996D9321
AccurateRip signature : EC305EBC
->Accurately ripped! (confidence 2)
Statistics
Read error : 0
Skipped (treated as error) : 0
Edge jitter error (maybe fixed) : 0
Atom jitter error (maybe fixed) : 0
Drift error (maybe fixed) : 0
Dropped bytes error (maybe fixed) : 0
Duplicated bytes error (maybe fixed) : 0
Inconsistency in error sectors : 0

Track 09
Filename : /Users/benburdett/Desktop/Music/what.cd torrents/FLAC/09 - Southern Rock.flac

CRC32 hash (test run) : C9AD2BC1
CRC32 hash : C9AD2BC1
CRC32 hash (skip zero) : B215A6AA
AccurateRip signature : B9570CA4
->Accurately ripped! (confidence 2)
Statistics
Read error : 0
Skipped (treated as error) : 0
Edge jitter error (maybe fixed) : 0
Atom jitter error (maybe fixed) : 0
Drift error (maybe fixed) : 0
Dropped bytes error (maybe fixed) : 0
Duplicated bytes error (maybe fixed) : 0
Inconsistency in error sectors : 0

Track 10
Filename : /Users/benburdett/Desktop/Music/what.cd torrents/FLAC/10 - Message From Kathlene.flac

CRC32 hash (test run) : 17F7A9F1
CRC32 hash : 17F7A9F1
CRC32 hash (skip zero) : 7BD6321C
AccurateRip signature : 66B013C3
->Accurately ripped! (confidence 2)
Statistics
Read error : 0
Skipped (treated as error) : 0
Edge jitter error (maybe fixed) : 0
Atom jitter error (maybe fixed) : 0
Drift error (maybe fixed) : 0
Dropped bytes error (maybe fixed) : 0
Duplicated bytes error (maybe fixed) : 0
Inconsistency in error sectors : 0

Track 11
Filename : /Users/benburdett/Desktop/Music/what.cd torrents/FLAC/11 - Trouble Breathing.flac

CRC32 hash (test run) : 5083B769
CRC32 hash : 5083B769
CRC32 hash (skip zero) : 1ADE003F
AccurateRip signature : A28C8F8B
->Accurately ripped! (confidence 2)
Statistics
Read error : 0
Skipped (treated as error) : 0
Edge jitter error (maybe fixed) : 0
Atom jitter error (maybe fixed) : 0
Drift error (maybe fixed) : 0
Dropped bytes error (maybe fixed) : 0
Duplicated bytes error (maybe fixed) : 0
Inconsistency in error sectors : 0

Track 12
Filename : /Users/benburdett/Desktop/Music/what.cd torrents/FLAC/12 - Sorry About That.flac

CRC32 hash (test run) : C17AEDEE
CRC32 hash : C17AEDEE
CRC32 hash (skip zero) : AB03E01C
AccurateRip signature : 4C6513AA
->Accurately ripped! (confidence 2)
Statistics
Read error : 0
Skipped (treated as error) : 0
Edge jitter error (maybe fixed) : 0
Atom jitter error (maybe fixed) : 0
Drift error (maybe fixed) : 0
Dropped bytes error (maybe fixed) : 0
Duplicated bytes error (maybe fixed) : 0
Inconsistency in error sectors : 0

Track 13
Filename : /Users/benburdett/Desktop/Music/what.cd torrents/FLAC/13 - Weak Week.flac

CRC32 hash (test run) : 5E48D8C2
CRC32 hash : 5E48D8C2
CRC32 hash (skip zero) : BD69D904
AccurateRip signature : A65A8F2D
->Accurately ripped! (confidence 2)
Statistics
Read error : 0
Skipped (treated as error) : 0
Edge jitter error (maybe fixed) : 0
Atom jitter error (maybe fixed) : 0
Drift error (maybe fixed) : 0
Dropped bytes error (maybe fixed) : 0
Duplicated bytes error (maybe fixed) : 0
Inconsistency in error sectors : 0

Track 14
Filename : /Users/benburdett/Desktop/Music/what.cd torrents/FLAC/14 - Nose Over Tail.flac

CRC32 hash (test run) : AB5F3E88
CRC32 hash : AB5F3E88
CRC32 hash (skip zero) : 9FA86E65
AccurateRip signature : 99DE885A
->Accurately ripped! (confidence 2)
Statistics
Read error : 0
Skipped (treated as error) : 0
Edge jitter error (maybe fixed) : 0
Atom jitter error (maybe fixed) : 0
Drift error (maybe fixed) : 0
Dropped bytes error (maybe fixed) : 0
Duplicated bytes error (maybe fixed) : 0
Inconsistency in error sectors : 0

Track 15
Filename : /Users/benburdett/Desktop/Music/what.cd torrents/FLAC/15 - Ninety-Seven.flac

CRC32 hash (test run) : DD6B9376
CRC32 hash : DD6B9376
CRC32 hash (skip zero) : 18D6EB5C
AccurateRip signature : C54AC51D
->Accurately ripped! (confidence 2)
Statistics
Read error : 0
Skipped (treated as error) : 0
Edge jitter error (maybe fixed) : 0
Atom jitter error (maybe fixed) : 0
Drift error (maybe fixed) : 0
Dropped bytes error (maybe fixed) : 0
Duplicated bytes error (maybe fixed) : 0
Inconsistency in error sectors : 0

Track 16
Filename : /Users/benburdett/Desktop/Music/what.cd torrents/FLAC/16 - Sundials.flac

CRC32 hash (test run) : 60A6955B
CRC32 hash : 60A6955B
CRC32 hash (skip zero) : 944F8893
AccurateRip signature : DBB7642D
->Accurately ripped! (confidence 2)
Statistics
Read error : 0
Skipped (treated as error) : 0
Edge jitter error (maybe fixed) : 0
Atom jitter error (maybe fixed) : 0
Drift error (maybe fixed) : 0
Dropped bytes error (maybe fixed) : 0
Duplicated bytes error (maybe fixed) : 0
Inconsistency in error sectors : 0

No errors occurred

End of status report
FILE "joined.wav" WAVE 
TRACK 01 AUDIO
INDEX 01 0:00:00
TRACK 02 AUDIO
INDEX 01 2:24:14
TRACK 03 AUDIO
INDEX 01 4:42:64
TRACK 04 AUDIO
INDEX 01 8:35:38
TRACK 05 AUDIO
INDEX 01 11:13:06
TRACK 06 AUDIO
INDEX 01 13:24:39
TRACK 07 AUDIO
INDEX 01 15:42:31
TRACK 08 AUDIO
INDEX 01 18:11:06
TRACK 09 AUDIO
INDEX 01 21:12:00
TRACK 10 AUDIO
INDEX 01 24:17:21
TRACK 11 AUDIO
INDEX 01 27:39:32
TRACK 12 AUDIO
INDEX 01 31:34:64
TRACK 13 AUDIO
INDEX 01 34:58:56
TRACK 14 AUDIO
INDEX 01 37:40:28
TRACK 15 AUDIO
INDEX 01 40:23:53
TRACK 16 AUDIO
INDEX 01 45:13:10
01/13. Goodbye Forever (From the 'I Lied My Face Off' EP) (2:50)
02/13. This Is Getting Over You (From the 'I Lied My Face Off' EP) (4:47)
03/13. Bleeder (From the 'I Lied My Face Off' EP) (4:31)
04/13. I Lied My Face Off (From the 'I Lied My Face Off' EP) (4:10)
05/13. My Friend Peter (From the 'Magnetic Curses' Compilation) (2:15)
06/13. Snake Oil Tanker (From the 'For Your Lungs Only' EP) (1:22)
07/13. Southern Rock (From the 'For Your Lungs Only' EP) (3:04)
08/13. Cooking Wine (From the 'For Your Lungs Only' EP) (2:19)
09/13. For Your Lungs Only (From the 'For Your Lungs Only' EP) (2:27)
10/13. Exploding Boy (From 'Pocket Bomb') (2:58)
11/13. Sun Dials (From the 'Sundials' EP) (3:44)
12/13. Nose Over Tail (From the 'Sundials' EP) (2:35)
13/13. '97 (From the 'Marc's A Dick and Gar's A Drunk - The Johann's Face Story Compilation) (4:32)
 	
 	
01. Keep 'Em Coming (4:10)
02. Madam Me (3:00)
03. You've Got So Far To Go (3:15)
04. Fuck You Aurora (4:50)
05. Sleepyhead (3:56)
06. Maybe I'll Catch Fire (3:07)
07. Tuck Me In (2:39)
08. She Took Him To The Lake (2:41)
09. 5-3-10-4 (2:56)
10. Radio (4:41)
Exact Audio Copy V0.99 prebeta 4 from 23. January 2008 

EAC extraction logfile from 29. July 2008, 23:02

Alkaline Trio / Maybe I'll Catch Fire

Used drive : MATSHITADVD/CDRW UJDA775 Adapter: 1 ID: 0

Read mode : Secure
Utilize accurate stream : Yes
Defeat audio cache : Yes
Make use of C2 pointers : No

Read offset correction : 102
Overread into Lead-In and Lead-Out : No
Fill up missing offset samples with silence : Yes
Delete leading and trailing silent blocks : No
Null samples used in CRC calculations : Yes
Used interface : Native Win32 interface for Win NT & 2000
Gap handling : Appended to previous track

Used output format : User Defined Encoder
Selected bitrate : 768 kBit/s
Quality : High
Add ID3 tag : No
Command line compressor : C:\Program Files\Exact Audio Copy\FLAC\FLAC.EXE
Additional command line options : -V -8 -T "artist=%a" -T "title=%t" -T "album=%g" -T "date=%y" -T "tracknumber=%n" -T "genre=%m" %s

TOC of the extracted CD

Track | Start | Length | Start sector | End sector
---------------------------------------------------------
1 | 0:00.00 | 4:10.20 | 0 | 18769
2 | 4:10.20 | 2:59.64 | 18770 | 32258
3 | 7:10.09 | 3:14.59 | 32259 | 46867
4 | 10:24.68 | 4:49.53 | 46868 | 68595
5 | 15:14.46 | 3:56.13 | 68596 | 86308
6 | 19:10.59 | 3:07.36 | 86309 | 100369
7 | 22:18.20 | 2:39.35 | 100370 | 112329
8 | 24:57.55 | 2:40.53 | 112330 | 124382
9 | 27:38.33 | 2:56.05 | 124383 | 137587
10 | 30:34.38 | 4:41.03 | 137588 | 158665

Track 1

Filename D:\music\rips\Alkaline Trio - Maybe I'll Catch Fire (1999)\01 Keep 'Em Coming.wav

Pre-gap length 0:00:02.00

Peak level 99.7 %
Track quality 100.0 %
Test CRC 43F959AA
Copy CRC 43F959AA
Accurately ripped (confidence 7) [945DBB1E]
Copy OK

Track 2

Filename D:\music\rips\Alkaline Trio - Maybe I'll Catch Fire (1999)\02 Madam Me.wav

Pre-gap length 0:00:02.12

Peak level 99.7 %
Track quality 100.0 %
Test CRC 99CED284
Copy CRC 99CED284
Accurately ripped (confidence 7) [6C1A2ACD]
Copy OK

Track 3

Filename D:\music\rips\Alkaline Trio - Maybe I'll Catch Fire (1999)\03 You've Got So Far To Go.wav

Pre-gap length 0:00:01.13

Peak level 99.7 %
Track quality 100.0 %
Test CRC DFCEBBD4
Copy CRC DFCEBBD4
Accurately ripped (confidence 7) [C2952102]
Copy OK

Track 4

Filename D:\music\rips\Alkaline Trio - Maybe I'll Catch Fire (1999)\04 Fuck You Aurora.wav

Pre-gap length 0:00:00.96

Peak level 99.7 %
Track quality 100.0 %
Test CRC DD11807F
Copy CRC DD11807F
Accurately ripped (confidence 6) [57C7028C]
Copy OK

Track 5

Filename D:\music\rips\Alkaline Trio - Maybe I'll Catch Fire (1999)\05 Sleepyhead.wav

Pre-gap length 0:00:01.01

Peak level 99.7 %
Track quality 100.0 %
Test CRC 1EBAFADD
Copy CRC 1EBAFADD
Accurately ripped (confidence 7) [BC88C416]
Copy OK

Track 6

Filename D:\music\rips\Alkaline Trio - Maybe I'll Catch Fire (1999)\06 Maybe I'll Catch Fire.wav

Pre-gap length 0:00:03.54

Peak level 99.7 %
Track quality 100.0 %
Test CRC 33145EC6
Copy CRC 33145EC6
Accurately ripped (confidence 7) [64DEE4D9]
Copy OK

Track 7

Filename D:\music\rips\Alkaline Trio - Maybe I'll Catch Fire (1999)\07 Tuck Me In.wav

Pre-gap length 0:00:00.49

Peak level 99.7 %
Track quality 100.0 %
Test CRC 4C824C5F
Copy CRC 4C824C5F
Accurately ripped (confidence 7) [118E1198]
Copy OK

Track 8

Filename D:\music\rips\Alkaline Trio - Maybe I'll Catch Fire (1999)\08 She Took Him To The Lake.wav

Pre-gap length 0:00:01.26

Peak level 99.7 %
Track quality 99.9 %
Test CRC 8577995B
Copy CRC 8577995B
Accurately ripped (confidence 7) [B69506A4]
Copy OK

Track 9

Filename D:\music\rips\Alkaline Trio - Maybe I'll Catch Fire (1999)\09 5-3-10-4.wav

Pre-gap length 0:00:02.45

Peak level 99.7 %
Track quality 100.0 %
Test CRC 8EEFF6A8
Copy CRC 8EEFF6A8
Accurately ripped (confidence 7) [D5FFE30D]
Copy OK

Track 10

Filename D:\music\rips\Alkaline Trio - Maybe I'll Catch Fire (1999)\10 Radio.wav

Pre-gap length 0:00:02.88

Peak level 99.7 %
Track quality 100.0 %
Test CRC 05463C67
Copy CRC 05463C67
Accurately ripped (confidence 7) [EAEC01FC]
Copy OK

All tracks accurately ripped

No errors occurred

End of status report
REM GENRE "Punk Rock" 
REM DATE 1999
REM DISCID 7908430A
REM COMMENT "ExactAudioCopy v0.99pb4"
PERFORMER "Alkaline Trio"
TITLE "Maybe I'll Catch Fire"
FILE "Alkaline Trio - Maybe I'll Catch Fire (1999)\01 Keep 'Em Coming.wav" WAVE
TRACK 01 AUDIO
TITLE "Keep 'Em Coming"
PERFORMER "Alkaline Trio"
INDEX 01 00:00:00
TRACK 02 AUDIO
TITLE "Madam Me"
PERFORMER "Alkaline Trio"
INDEX 00 04:08:11
FILE "Alkaline Trio - Maybe I'll Catch Fire (1999)\02 Madam Me.wav" WAVE
INDEX 01 00:00:00
TRACK 03 AUDIO
TITLE "You've Got So Far To Go"
PERFORMER "Alkaline Trio"
INDEX 00 02:58:54
FILE "Alkaline Trio - Maybe I'll Catch Fire (1999)\03 You've Got So Far To Go.wav" WAVE
INDEX 01 00:00:00
TRACK 04 AUDIO
TITLE "Fuck You Aurora"
PERFORMER "Alkaline Trio"
INDEX 00 03:13:62
FILE "Alkaline Trio - Maybe I'll Catch Fire (1999)\04 Fuck You Aurora.wav" WAVE
INDEX 01 00:00:00
TRACK 05 AUDIO
TITLE "Sleepyhead"
PERFORMER "Alkaline Trio"
INDEX 00 04:48:52
FILE "Alkaline Trio - Maybe I'll Catch Fire (1999)\05 Sleepyhead.wav" WAVE
INDEX 01 00:00:00
TRACK 06 AUDIO
TITLE "Maybe I'll Catch Fire"
PERFORMER "Alkaline Trio"
INDEX 00 03:52:47
FILE "Alkaline Trio - Maybe I'll Catch Fire (1999)\06 Maybe I'll Catch Fire.wav" WAVE
INDEX 01 00:00:00
TRACK 07 AUDIO
TITLE "Tuck Me In"
PERFORMER "Alkaline Trio"
INDEX 00 03:06:74
FILE "Alkaline Trio - Maybe I'll Catch Fire (1999)\07 Tuck Me In.wav" WAVE
INDEX 01 00:00:00
TRACK 08 AUDIO
TITLE "She Took Him To The Lake"
PERFORMER "Alkaline Trio"
INDEX 00 02:38:15
FILE "Alkaline Trio - Maybe I'll Catch Fire (1999)\08 She Took Him To The Lake.wav" WAVE
INDEX 01 00:00:00
TRACK 09 AUDIO
TITLE "5-3-10-4"
PERFORMER "Alkaline Trio"
INDEX 00 02:38:19
FILE "Alkaline Trio - Maybe I'll Catch Fire (1999)\09 5-3-10-4.wav" WAVE
INDEX 01 00:00:00
TRACK 10 AUDIO
TITLE "Radio"
PERFORMER "Alkaline Trio"
INDEX 00 02:53:14
FILE "Alkaline Trio - Maybe I'll Catch Fire (1999)\10 Radio.wav" WAVE
INDEX 01 00:00:00
01. Private Eye (3:30)
02. Mr. Chainsaw (3:05)
03. Take Lots With Alcohol (3:14)
04. Stupid Kid (2:24)
05. Another Innocent Girl (3:38)
06. Steamer Trunk (2:50)
07. You're Dead (3:51)
08. Armageddon (2:49)
09. I'm Dying Tomorrow (2:19)
10. Bloodied Up (2:52)
11. Trucks And Trains (3:17)
12. Crawl (4:25)
Exact Audio Copy V0.99 prebeta 3 from 28. July 2007 

EAC extraction logfile from 17. February 2008, 12:30

The Alkaline Trio / From Here to Infirmary

Used drive : HL-DT-STDVDRAM GSA-4167B Adapter: 1 ID: 0

Read mode : Secure
Utilize accurate stream : Yes
Defeat audio cache : Yes
Make use of C2 pointers : No

Read offset correction : 667
Overread into Lead-In and Lead-Out : No
Fill up missing offset samples with silence : Yes
Delete leading and trailing silent blocks : No
Null samples used in CRC calculations : Yes
Used interface : Installed external ASPI interface
Gap handling : Appended to previous track

Used output format : User Defined Encoder
Selected bitrate : 192 kBit/s
Quality : High
Add ID3 tag : No
Command line compressor : C:\Program Files\Exact Audio Copy\bin\flac.exe
Additional command line options : -8 -A tukey(0.25) -A gauss(0.1875) -b 4096 -V -T "artist=%a" -T "title=%t" -T "album=%g" -T "date=%y" -T "tracknumber=%n" -T "genre=%m" %s --sector-align

TOC of the extracted CD

Track | Start | Length | Start sector | End sector
---------------------------------------------------------
1 | 0:00.00 | 3:30.13 | 0 | 15762
2 | 3:30.13 | 3:05.30 | 15763 | 29667
3 | 6:35.43 | 3:13.62 | 29668 | 44204
4 | 9:49.30 | 2:23.40 | 44205 | 54969
5 | 12:12.70 | 3:37.58 | 54970 | 71302
6 | 15:50.53 | 2:50.10 | 71303 | 84062
7 | 18:40.63 | 3:50.52 | 84063 | 101364
8 | 22:31.40 | 2:49.13 | 101365 | 114052
9 | 25:20.53 | 2:18.52 | 114053 | 124454
10 | 27:39.30 | 2:51.60 | 124455 | 137339
11 | 30:31.15 | 3:16.40 | 137340 | 152079
12 | 33:47.55 | 4:25.20 | 152080 | 171974

Track 1

Filename C:\Music\Ripped\Alkaline Trio - From Here to Infirmary (Flac)\01 The Alkaline Trio - Private Eye.wav

Pre-gap length 0:00:02.00

Peak level 98.8 %
Track quality 99.9 %
Test CRC 2AA6276B
Copy CRC 2AA6276B
Copy OK

Track 2

Filename C:\Music\Ripped\Alkaline Trio - From Here to Infirmary (Flac)\02 The Alkaline Trio - Mr. Chainsaw.wav

Peak level 98.8 %
Track quality 100.0 %
Test CRC EB805FDB
Copy CRC EB805FDB
Copy OK

Track 3

Filename C:\Music\Ripped\Alkaline Trio - From Here to Infirmary (Flac)\03 The Alkaline Trio - Take Lots With Alcohol.wav

Peak level 98.8 %
Track quality 100.0 %
Test CRC 06C0118D
Copy CRC 06C0118D
Copy OK

Track 4

Filename C:\Music\Ripped\Alkaline Trio - From Here to Infirmary (Flac)\04 The Alkaline Trio - Stupid Kid.wav

Peak level 98.8 %
Track quality 100.0 %
Test CRC 747B7509
Copy CRC 747B7509
Copy OK

Track 5

Filename C:\Music\Ripped\Alkaline Trio - From Here to Infirmary (Flac)\05 The Alkaline Trio - Another Innocent Girl.wav

Peak level 98.8 %
Track quality 100.0 %
Test CRC 6AD6EB3E
Copy CRC 6AD6EB3E
Copy OK

Track 6

Filename C:\Music\Ripped\Alkaline Trio - From Here to Infirmary (Flac)\06 The Alkaline Trio - Steamer Trunk.wav

Peak level 98.8 %
Track quality 100.0 %
Test CRC F8818A54
Copy CRC F8818A54
Copy OK

Track 7

Filename C:\Music\Ripped\Alkaline Trio - From Here to Infirmary (Flac)\07 The Alkaline Trio - You're Dead.wav

Peak level 98.8 %
Track quality 100.0 %
Test CRC A72A45A2
Copy CRC A72A45A2
Copy OK

Track 8

Filename C:\Music\Ripped\Alkaline Trio - From Here to Infirmary (Flac)\08 The Alkaline Trio - Armageddon.wav

Peak level 98.8 %
Track quality 100.0 %
Test CRC 70ED49BE
Copy CRC 70ED49BE
Copy OK

Track 9

Filename C:\Music\Ripped\Alkaline Trio - From Here to Infirmary (Flac)\09 The Alkaline Trio - I'm Dying Tomorrow.wav

Peak level 98.8 %
Track quality 100.0 %
Test CRC 6F3190C4
Copy CRC 6F3190C4
Copy OK

Track 10

Filename C:\Music\Ripped\Alkaline Trio - From Here to Infirmary (Flac)\10 The Alkaline Trio - Bloodied Up.wav

Peak level 98.8 %
Track quality 100.0 %
Test CRC 763FA46E
Copy CRC 763FA46E
Copy OK

Track 11

Filename C:\Music\Ripped\Alkaline Trio - From Here to Infirmary (Flac)\11 The Alkaline Trio - Trucks And Trains.wav

Peak level 98.8 %
Track quality 100.0 %
Test CRC C7A696C9
Copy CRC C7A696C9
Copy OK

Track 12

Filename C:\Music\Ripped\Alkaline Trio - From Here to Infirmary (Flac)\12 The Alkaline Trio - Crawl.wav

Peak level 98.8 %
Track quality 100.0 %
Test CRC 9B1DCFCE
Copy CRC 9B1DCFCE
Copy OK

No errors occurred

End of status report
REM GENRE Rock 
REM DATE 2001
REM DISCID 8D08F50C
REM COMMENT "ExactAudioCopy v0.99pb3"
PERFORMER "The Alkaline Trio"
TITLE "From Here to Infirmary"
FILE "01 The Alkaline Trio - Private Eye.wav" WAVE
TRACK 01 AUDIO
TITLE "Private Eye"
PERFORMER "The Alkaline Trio"
INDEX 01 00:00:00
FILE "02 The Alkaline Trio - Mr. Chainsaw.wav" WAVE
TRACK 02 AUDIO
TITLE "Mr. Chainsaw"
PERFORMER "The Alkaline Trio"
INDEX 01 00:00:00
FILE "03 The Alkaline Trio - Take Lots With Alcohol.wav" WAVE
TRACK 03 AUDIO
TITLE "Take Lots With Alcohol"
PERFORMER "The Alkaline Trio"
INDEX 01 00:00:00
FILE "04 The Alkaline Trio - Stupid Kid.wav" WAVE
TRACK 04 AUDIO
TITLE "Stupid Kid"
PERFORMER "The Alkaline Trio"
INDEX 01 00:00:00
FILE "05 The Alkaline Trio - Another Innocent Girl.wav" WAVE
TRACK 05 AUDIO
TITLE "Another Innocent Girl"
PERFORMER "The Alkaline Trio"
INDEX 01 00:00:00
FILE "06 The Alkaline Trio - Steamer Trunk.wav" WAVE
TRACK 06 AUDIO
TITLE "Steamer Trunk"
PERFORMER "The Alkaline Trio"
INDEX 01 00:00:00
FILE "07 The Alkaline Trio - You're Dead.wav" WAVE
TRACK 07 AUDIO
TITLE "You're Dead"
PERFORMER "The Alkaline Trio"
INDEX 01 00:00:00
FILE "08 The Alkaline Trio - Armageddon.wav" WAVE
TRACK 08 AUDIO
TITLE "Armageddon"
PERFORMER "The Alkaline Trio"
INDEX 01 00:00:00
FILE "09 The Alkaline Trio - I'm Dying Tomorrow.wav" WAVE
TRACK 09 AUDIO
TITLE "I'm Dying Tomorrow"
PERFORMER "The Alkaline Trio"
INDEX 01 00:00:00
FILE "10 The Alkaline Trio - Bloodied Up.wav" WAVE
TRACK 10 AUDIO
TITLE "Bloodied Up"
PERFORMER "The Alkaline Trio"
INDEX 01 00:00:00
FILE "11 The Alkaline Trio - Trucks And Trains.wav" WAVE
TRACK 11 AUDIO
TITLE "Trucks And Trains"
PERFORMER "The Alkaline Trio"
INDEX 01 00:00:00
FILE "12 The Alkaline Trio - Crawl.wav" WAVE
TRACK 12 AUDIO
TITLE "Crawl"
PERFORMER "The Alkaline Trio"
INDEX 01 00:00:00
01. Queen Of Pain (3:58)
02. While You're Waiting (4:08)
03. Rooftops (2:16)
04. 'God Deciding' (2:37)
05. Russian Roulette (3:26)
06. Radio (4:13)
07. Bleeder (3:13)
Exact Audio Copy V0.99 prebeta 3 from 28. July 2007 

EAC extraction logfile from 25. December 2008, 2:05

Alkaline Trio & Hot Water Music / Split

Used drive : TSSTcorpCDDVDW SH-S203B Adapter: 1 ID: 0

Read mode : Secure
Utilize accurate stream : Yes
Defeat audio cache : No
Make use of C2 pointers : No

Read offset correction : 6
Overread into Lead-In and Lead-Out : No
Fill up missing offset samples with silence : Yes
Delete leading and trailing silent blocks : No
Null samples used in CRC calculations : Yes
Used interface : Installed external ASPI interface
Gap handling : Appended to previous track

Used output format : User Defined Encoder
Selected bitrate : 320 kBit/s
Quality : High
Add ID3 tag : No
Command line compressor : C:\Program Files\Exact Audio Copy\flac.exe
Additional command line options : -V -8 -T "artist=%a" -T "title=%t" -T "album=%g" -T "date=%y" -T "tracknumber=%n" -T "genre=%m" %s

TOC of the extracted CD

Track | Start | Length | Start sector | End sector
---------------------------------------------------------
1 | 0:00.00 | 3:57.61 | 0 | 17835
2 | 3:57.61 | 4:07.44 | 17836 | 36404
3 | 8:05.30 | 2:15.68 | 36405 | 46597
4 | 10:21.23 | 2:37.09 | 46598 | 58381
5 | 12:58.32 | 3:25.39 | 58382 | 73795
6 | 16:23.71 | 4:12.58 | 73796 | 92753
7 | 20:36.54 | 3:13.28 | 92754 | 107256

Track 1

Filename C:\Documents and Settings\JSM\My Documents\EACrips\Hot Water Music & Alkaline Trio [2002] Split (FLAC)\01 - Alkaline Trio , Queen Of Pain.wav

Pre-gap length 0:00:02.00

Peak level 99.0 %
Track quality 100.0 %
Test CRC 62664C69
Copy CRC 62664C69
Accurately ripped (confidence 7) [E436409A]
Copy OK

Track 2

Filename C:\Documents and Settings\JSM\My Documents\EACrips\Hot Water Music & Alkaline Trio [2002] Split (FLAC)\02 - Alkaline Trio , While You're Waiting.wav

Peak level 98.9 %
Track quality 100.0 %
Test CRC 2D63E330
Copy CRC 2D63E330
Accurately ripped (confidence 7) [EE6519ED]
Copy OK

Track 3

Filename C:\Documents and Settings\JSM\My Documents\EACrips\Hot Water Music & Alkaline Trio [2002] Split (FLAC)\03 - Alkaline Trio , Rooftops.wav

Peak level 98.4 %
Track quality 100.0 %
Test CRC 6B5C5B9E
Copy CRC 6B5C5B9E
Accurately ripped (confidence 7) [3D175D42]
Copy OK

Track 4

Filename C:\Documents and Settings\JSM\My Documents\EACrips\Hot Water Music & Alkaline Trio [2002] Split (FLAC)\04 - Hot Water Music , 'God Deciding'.wav

Peak level 99.1 %
Track quality 100.0 %
Test CRC 5B36FD97
Copy CRC 5B36FD97
Accurately ripped (confidence 7) [FDBA27DD]
Copy OK

Track 5

Filename C:\Documents and Settings\JSM\My Documents\EACrips\Hot Water Music & Alkaline Trio [2002] Split (FLAC)\05 - Hot Water Music , Russian Roulette.wav

Peak level 99.1 %
Track quality 99.9 %
Test CRC 92DDD1DF
Copy CRC 92DDD1DF
Accurately ripped (confidence 7) [72300EDF]
Copy OK

Track 6

Filename C:\Documents and Settings\JSM\My Documents\EACrips\Hot Water Music & Alkaline Trio [2002] Split (FLAC)\06 - Hot Water Music , Radio.wav

Peak level 99.1 %
Track quality 100.0 %
Test CRC BAA55490
Copy CRC BAA55490
Accurately ripped (confidence 7) [131B5F9D]
Copy OK

Track 7

Filename C:\Documents and Settings\JSM\My Documents\EACrips\Hot Water Music & Alkaline Trio [2002] Split (FLAC)\07 - Hot Water Music , Bleeder.wav

Peak level 96.2 %
Track quality 100.0 %
Test CRC 09F9FE41
Copy CRC 09F9FE41
Accurately ripped (confidence 6) [BC78C223]
Copy OK

All tracks accurately ripped

No errors occurred

End of status report
REM DATE 2002 
REM DISCID 61059607
REM COMMENT "ExactAudioCopy v0.99pb3"
PERFORMER "Alkaline Trio & Hot Water Music"
TITLE "Split"
FILE "01 - Alkaline Trio , Queen Of Pain.wav" WAVE
TRACK 01 AUDIO
TITLE "Alkaline Trio / Queen Of Pain"
PERFORMER "Alkaline Trio & Hot Water Music"
INDEX 01 00:00:00
FILE "02 - Alkaline Trio , While You're Waiting.wav" WAVE
TRACK 02 AUDIO
TITLE "Alkaline Trio / While You're Waiting"
PERFORMER "Alkaline Trio & Hot Water Music"
INDEX 01 00:00:00
FILE "03 - Alkaline Trio , Rooftops.wav" WAVE
TRACK 03 AUDIO
TITLE "Alkaline Trio / Rooftops"
PERFORMER "Alkaline Trio & Hot Water Music"
INDEX 01 00:00:00
FILE "04 - Hot Water Music , 'God Deciding'.wav" WAVE
TRACK 04 AUDIO
TITLE "Hot Water Music / 'God Deciding'"
PERFORMER "Alkaline Trio & Hot Water Music"
INDEX 01 00:00:00
FILE "05 - Hot Water Music , Russian Roulette.wav" WAVE
TRACK 05 AUDIO
TITLE "Hot Water Music / Russian Roulette"
PERFORMER "Alkaline Trio & Hot Water Music"
INDEX 01 00:00:00
FILE "06 - Hot Water Music , Radio.wav" WAVE
TRACK 06 AUDIO
TITLE "Hot Water Music / Radio"
PERFORMER "Alkaline Trio & Hot Water Music"
INDEX 01 00:00:00
FILE "07 - Hot Water Music , Bleeder.wav" WAVE
TRACK 07 AUDIO
TITLE "Hot Water Music / Bleeder"
PERFORMER "Alkaline Trio & Hot Water Music"
INDEX 01 00:00:00
01. This Could Be Love (3:47)
02. We've Had Enough (2:51)
03. One Hundred Stories (3:41)
04. Continental (3:28)
05. All On Black (4:00)
06. Emma (2:42)
07. Fatally Yours (2:16)
08. Every Thug Needs A Lady (3:19)
09. Blue Carolina (3:28)
10. Donner Party (All Night) (2:45)
11. If We Never Go Inside (3:47)
12. Blue In The Face (3:02)
EAC extraction logfile from 29. November 2006, 23:11 for CD 
Alkaline Trio / Good Mourning

Used drive : _NEC CD-RW NR-9200A Adapter: 1 ID: 0
Read mode : Secure with NO C2, accurate stream, disable cache
Read offset correction : 685
Overread into Lead-In and Lead-Out : No

Used output format : C:\Program Files\FLAC\flac.exe (User Defined Encoder)
128 kBit/s
Additional command line options : -V -8 -T "artist=%a" -T "title=%t" -T "album=%g" -T "date=%y" -T "tracknumber=%n" -T "genre=%m" %s

Other options :
Fill up missing offset samples with silence : Yes
Delete leading and trailing silent blocks : No
Native Win32 interface for Win NT & 2000

Track 1
Filename C:\Documents and Settings\jeremy.OWNER-S7RC1YEZ1\My Documents\Downloads\01 - This Could Be Love.wav

Pre-gap length 0:00:02.00

Peak level 98.8 %
Track quality 99.9 %
Test CRC 53D2A745
Copy CRC 53D2A745
Copy OK

Track 2
Filename C:\Documents and Settings\jeremy.OWNER-S7RC1YEZ1\My Documents\Downloads\02 - We've Had Enough.wav

Peak level 98.8 %
Track quality 100.0 %
Test CRC DC82BA3B
Copy CRC DC82BA3B
Copy OK

Track 3
Filename C:\Documents and Settings\jeremy.OWNER-S7RC1YEZ1\My Documents\Downloads\03 - One Hundred Stories.wav

Peak level 98.9 %
Track quality 100.0 %
Test CRC 6E65800A
Copy CRC 6E65800A
Copy OK

Track 4
Filename C:\Documents and Settings\jeremy.OWNER-S7RC1YEZ1\My Documents\Downloads\04 - Continental.wav

Peak level 98.9 %
Track quality 100.0 %
Test CRC 9CCCC149
Copy CRC 9CCCC149
Copy OK

Track 5
Filename C:\Documents and Settings\jeremy.OWNER-S7RC1YEZ1\My Documents\Downloads\05 - All On Black.wav

Pre-gap length 0:00:00.04

Peak level 98.8 %
Track quality 100.0 %
Test CRC B4685675
Copy CRC B4685675
Copy OK

Track 6
Filename C:\Documents and Settings\jeremy.OWNER-S7RC1YEZ1\My Documents\Downloads\06 - Emma.wav

Peak level 98.9 %
Track quality 99.9 %
Test CRC E80932C1
Copy CRC E80932C1
Copy OK

Track 7
Filename C:\Documents and Settings\jeremy.OWNER-S7RC1YEZ1\My Documents\Downloads\07 - Fatally Yours.wav

Peak level 98.8 %
Track quality 100.0 %
Test CRC BFC4C739
Copy CRC BFC4C739
Copy OK

Track 8
Filename C:\Documents and Settings\jeremy.OWNER-S7RC1YEZ1\My Documents\Downloads\08 - Every Thug Needs A Lady.wav

Peak level 100.0 %
Track quality 99.9 %
Test CRC 4B065148
Copy CRC 4B065148
Copy OK

Track 9
Filename C:\Documents and Settings\jeremy.OWNER-S7RC1YEZ1\My Documents\Downloads\09 - Blue Carolina.wav

Peak level 98.8 %
Track quality 100.0 %
Test CRC 7934C91D
Copy CRC 7934C91D
Copy OK

Track 10
Filename C:\Documents and Settings\jeremy.OWNER-S7RC1YEZ1\My Documents\Downloads\10 - Donner Party (All Night).wav

Peak level 98.8 %
Track quality 100.0 %
Test CRC 95B7C2F9
Copy CRC 95B7C2F9
Copy OK

Track 11
Filename C:\Documents and Settings\jeremy.OWNER-S7RC1YEZ1\My Documents\Downloads\11 - If We Never Go Inside.wav

Peak level 98.9 %
Track quality 99.9 %
Test CRC BC497ED7
Copy CRC BC497ED7
Copy OK

Track 12
Filename C:\Documents and Settings\jeremy.OWNER-S7RC1YEZ1\My Documents\Downloads\12 - Blue In The Face.wav

Pre-gap length 0:00:01.54

Peak level 98.8 %
Track quality 99.8 %
Test CRC 3EE3291E
Copy CRC 3EE3291E
Copy OK

No errors occured

End of status report
REM GENRE Rock 
REM DATE 2003
REM DISCID 9F092A0C
REM COMMENT "ExactAudioCopy v0.95b4"
PERFORMER "Alkaline Trio"
TITLE "Good Mourning"
FILE "01 - This Could Be Love.wav" WAVE
TRACK 01 AUDIO
TITLE "This Could Be Love"
PERFORMER "Alkaline Trio"
INDEX 01 00:00:00
FILE "02 - We've Had Enough.wav" WAVE
TRACK 02 AUDIO
TITLE "We've Had Enough"
PERFORMER "Alkaline Trio"
INDEX 01 00:00:00
FILE "03 - One Hundred Stories.wav" WAVE
TRACK 03 AUDIO
TITLE "One Hundred Stories"
PERFORMER "Alkaline Trio"
INDEX 01 00:00:00
FILE "04 - Continental.wav" WAVE
TRACK 04 AUDIO
TITLE "Continental"
PERFORMER "Alkaline Trio"
INDEX 01 00:00:00
TRACK 05 AUDIO
TITLE "All On Black"
PERFORMER "Alkaline Trio"
INDEX 00 03:27:73
FILE "05 - All On Black.wav" WAVE
INDEX 01 00:00:00
FILE "06 - Emma.wav" WAVE
TRACK 06 AUDIO
TITLE "Emma"
PERFORMER "Alkaline Trio"
INDEX 01 00:00:00
FILE "07 - Fatally Yours.wav" WAVE
TRACK 07 AUDIO
TITLE "Fatally Yours"
PERFORMER "Alkaline Trio"
INDEX 01 00:00:00
FILE "08 - Every Thug Needs A Lady.wav" WAVE
TRACK 08 AUDIO
TITLE "Every Thug Needs A Lady"
PERFORMER "Alkaline Trio"
INDEX 01 00:00:00
FILE "09 - Blue Carolina.wav" WAVE
TRACK 09 AUDIO
TITLE "Blue Carolina"
PERFORMER "Alkaline Trio"
INDEX 01 00:00:00
FILE "10 - Donner Party (All Night).wav" WAVE
TRACK 10 AUDIO
TITLE "Donner Party (All Night)"
PERFORMER "Alkaline Trio"
INDEX 01 00:00:00
FILE "11 - If We Never Go Inside.wav" WAVE
TRACK 11 AUDIO
TITLE "If We Never Go Inside"
PERFORMER "Alkaline Trio"
INDEX 01 00:00:00
TRACK 12 AUDIO
TITLE "Blue In The Face"
PERFORMER "Alkaline Trio"
INDEX 00 03:45:19
FILE "12 - Blue In The Face.wav" WAVE
INDEX 01 00:00:00
01. Fine Without You (3:16)
02. Hating Every Minute (3:03)
03. Dead And Broken (2:09)
04. Sadie (4:39)
05. If You Had A Bad Time... (3:38)
06. Wait For The Blackout (3:29)
07. The T.V. Song (2:32)
08. The Hemophiliac (1:29)
09. All The Way (2:27)
10. The Radio Airwaves Gave Me a Lobotomy (2:05)
11. I.F.H.A. (one love) (2:07)
12. Let's Call it an Evening (2:58)
Exact Audio Copy V0.99 prebeta 4 from 23. January 2008 

EAC extraction logfile from 31. January 2009, 14:06

Various / BYO Split Series, Vol. 5

Used drive : SONY DVD RW DRU-720A Adapter: 0 ID: 0

Read mode : Secure
Utilize accurate stream : Yes
Defeat audio cache : Yes
Make use of C2 pointers : No

Read offset correction : 12
Overread into Lead-In and Lead-Out : No
Fill up missing offset samples with silence : Yes
Delete leading and trailing silent blocks : No
Null samples used in CRC calculations : Yes
Used interface : Native Win32 interface for Win NT & 2000
Gap handling : Appended to previous track

Used output format : User Defined Encoder
Selected bitrate : 192 kBit/s
Quality : High
Add ID3 tag : No
Command line compressor : C:\Program Files\Exact Audio Copy\Flac\flac.exe
Additional command line options : -V -8 -T "artist=%a" -T "title=%t" -T "album=%g" -T "date=%y" -T "tracknumber=%n" -T "genre=%m" %s

TOC of the extracted CD

Track | Start | Length | Start sector | End sector
---------------------------------------------------------
1 | 0:00.00 | 3:15.45 | 0 | 14669
2 | 3:15.45 | 3:03.07 | 14670 | 28401
3 | 6:18.52 | 2:09.23 | 28402 | 38099
4 | 8:28.00 | 4:38.60 | 38100 | 59009
5 | 13:06.60 | 3:38.07 | 59010 | 75366
6 | 16:44.67 | 3:29.28 | 75367 | 91069
7 | 20:14.20 | 2:31.67 | 91070 | 102461
8 | 22:46.12 | 1:28.48 | 102462 | 109109
9 | 24:14.60 | 2:26.55 | 109110 | 120114
10 | 26:41.40 | 2:04.50 | 120115 | 129464
11 | 28:46.15 | 2:07.22 | 129465 | 139011
12 | 30:53.37 | 2:57.45 | 139012 | 152331

Track 1

Filename C:\Users\Jeff\Desktop\BYO Split Series, Vol. 5 - 2004\01 - Alkaline Trio - Fine Without You.wav

Pre-gap length 0:00:02.00

Peak level 96.6 %
Track quality 99.9 %
Test CRC 20A6AE33
Copy CRC 20A6AE33
Accurately ripped (confidence 5) [923327A4]
Copy OK

Track 2

Filename C:\Users\Jeff\Desktop\BYO Split Series, Vol. 5 - 2004\02 - Alkaline Trio - Hating Every Minute.wav

Peak level 96.6 %
Track quality 100.0 %
Test CRC B4DE2DEC
Copy CRC B4DE2DEC
Accurately ripped (confidence 5) [070906B0]
Copy OK

Track 3

Filename C:\Users\Jeff\Desktop\BYO Split Series, Vol. 5 - 2004\03 - Alkaline Trio - Dead And Broken.wav

Peak level 100.0 %
Track quality 100.0 %
Test CRC 6CF17821
Copy CRC 6CF17821
Accurately ripped (confidence 5) [4DED93C3]
Copy OK

Track 4

Filename C:\Users\Jeff\Desktop\BYO Split Series, Vol. 5 - 2004\04 - Alkaline Trio - Sadie.wav

Peak level 96.6 %
Track quality 100.0 %
Test CRC 3BC12424
Copy CRC 3BC12424
Accurately ripped (confidence 5) [2F1D616A]
Copy OK

Track 5

Filename C:\Users\Jeff\Desktop\BYO Split Series, Vol. 5 - 2004\05 - Alkaline Trio - If You Had A Bad Time....wav

Peak level 96.6 %
Track quality 100.0 %
Test CRC 679827DB
Copy CRC 679827DB
Accurately ripped (confidence 5) [F8063360]
Copy OK

Track 6

Filename C:\Users\Jeff\Desktop\BYO Split Series, Vol. 5 - 2004\06 - Alkaline Trio - Wait For The Blackout.wav

Peak level 97.5 %
Track quality 100.0 %
Test CRC E12B8CB9
Copy CRC E12B8CB9
Accurately ripped (confidence 4) [A7A71406]
Copy OK

Track 7

Filename C:\Users\Jeff\Desktop\BYO Split Series, Vol. 5 - 2004\07 - One Man Army - The T.V. Song.wav

Peak level 96.6 %
Track quality 100.0 %
Test CRC B747FA20
Copy CRC B747FA20
Accurately ripped (confidence 4) [D97785A3]
Copy OK

Track 8

Filename C:\Users\Jeff\Desktop\BYO Split Series, Vol. 5 - 2004\08 - One Man Army - The Hemophiliac.wav

Peak level 96.6 %
Track quality 99.8 %
Test CRC 6F01BF3D
Copy CRC 6F01BF3D
Accurately ripped (confidence 3) [0EC10AB6]
Copy OK

Track 9

Filename C:\Users\Jeff\Desktop\BYO Split Series, Vol. 5 - 2004\09 - One Man Army - All The Way.wav

Peak level 96.6 %
Track quality 100.0 %
Test CRC 136F2AFC
Copy CRC 136F2AFC
Accurately ripped (confidence 3) [2CBF49C7]
Copy OK

Track 10

Filename C:\Users\Jeff\Desktop\BYO Split Series, Vol. 5 - 2004\10 - One Man Army - The Radio Airwaves Gave Me a Lobotomy.wav

Peak level 96.6 %
Track quality 100.0 %
Test CRC CE114E34
Copy CRC CE114E34
Accurately ripped (confidence 3) [DEDDF705]
Copy OK

Track 11

Filename C:\Users\Jeff\Desktop\BYO Split Series, Vol. 5 - 2004\11 - One Man Army - I.F.H.A. (one love).wav

Peak level 96.6 %
Track quality 100.0 %
Test CRC 6001CED6
Copy CRC 6001CED6
Accurately ripped (confidence 2) [BBC1D4DC]
Copy OK

Track 12

Filename C:\Users\Jeff\Desktop\BYO Split Series, Vol. 5 - 2004\12 - One Man Army - Let's Call it an Evening.wav

Peak level 96.6 %
Track quality 100.0 %
Test CRC 8004D60F
Copy CRC 8004D60F
Accurately ripped (confidence 2) [C6268095]
Copy OK

All tracks accurately ripped

No errors occurred

End of status report
REM GENRE Punk 
REM DATE 2004
REM DISCID 9D07EF0C
REM COMMENT "ExactAudioCopy v0.99pb4"
PERFORMER "Various"
TITLE "BYO Split Series, Vol. 5"
FILE "BYO Split Series, Vol. 5 - 2004\01 - Alkaline Trio - Fine Without You.wav" WAVE
TRACK 01 AUDIO
TITLE "Fine Without You"
PERFORMER "Alkaline Trio"
INDEX 01 00:00:00
FILE "BYO Split Series, Vol. 5 - 2004\02 - Alkaline Trio - Hating Every Minute.wav" WAVE
TRACK 02 AUDIO
TITLE "Hating Every Minute"
PERFORMER "Alkaline Trio"
INDEX 01 00:00:00
FILE "BYO Split Series, Vol. 5 - 2004\03 - Alkaline Trio - Dead And Broken.wav" WAVE
TRACK 03 AUDIO
TITLE "Dead And Broken"
PERFORMER "Alkaline Trio"
INDEX 01 00:00:00
FILE "BYO Split Series, Vol. 5 - 2004\04 - Alkaline Trio - Sadie.wav" WAVE
TRACK 04 AUDIO
TITLE "Sadie"
PERFORMER "Alkaline Trio"
INDEX 01 00:00:00
FILE "BYO Split Series, Vol. 5 - 2004\05 - Alkaline Trio - If You Had A Bad Time....wav" WAVE
TRACK 05 AUDIO
TITLE "If You Had A Bad Time..."
PERFORMER "Alkaline Trio"
INDEX 01 00:00:00
FILE "BYO Split Series, Vol. 5 - 2004\06 - Alkaline Trio - Wait For The Blackout.wav" WAVE
TRACK 06 AUDIO
TITLE "Wait For The Blackout"
PERFORMER "Alkaline Trio"
INDEX 01 00:00:00
FILE "BYO Split Series, Vol. 5 - 2004\07 - One Man Army - The T.V. Song.wav" WAVE
TRACK 07 AUDIO
TITLE "The T.V. Song"
PERFORMER "One Man Army"
INDEX 01 00:00:00
FILE "BYO Split Series, Vol. 5 - 2004\08 - One Man Army - The Hemophiliac.wav" WAVE
TRACK 08 AUDIO
TITLE "The Hemophiliac"
PERFORMER "One Man Army"
INDEX 01 00:00:00
FILE "BYO Split Series, Vol. 5 - 2004\09 - One Man Army - All The Way.wav" WAVE
TRACK 09 AUDIO
TITLE "All The Way"
PERFORMER "One Man Army"
INDEX 01 00:00:00
FILE "BYO Split Series, Vol. 5 - 2004\10 - One Man Army - The Radio Airwaves Gave Me a Lobotomy.wav" WAVE
TRACK 10 AUDIO
TITLE "The Radio Airwaves Gave Me a Lobotomy"
PERFORMER "One Man Army"
INDEX 01 00:00:00
FILE "BYO Split Series, Vol. 5 - 2004\11 - One Man Army - I.F.H.A. (one love).wav" WAVE
TRACK 11 AUDIO
TITLE "I.F.H.A. (one love)"
PERFORMER "One Man Army"
INDEX 01 00:00:00
FILE "BYO Split Series, Vol. 5 - 2004\12 - One Man Army - Let's Call it an Evening.wav" WAVE
TRACK 12 AUDIO
TITLE "Let's Call it an Evening"
PERFORMER "One Man Army"
INDEX 01 00:00:00
01. Time to Waste (4:12)
02. The Poison (2:04)
03. Burn (4:05)
04. Mercy Me (2:49)
05. Dethbed (3:04)
06. Settle for Satin (3:49)
07. Sadie (4:40)
08. Fall Victim (3:18)
09. I was a Prayer (2:37)
10. Prevent this Tragedy (3:07)
11. Back to Hell (2:54)
12. Your Neck (3:16)
13. Smoke (3:00)
Exact Audio Copy V0.99 prebeta 4 from 23. January 2008 

EAC extraction logfile from 15. March 2009, 20:09

Alkaline Trio / Crimson (Deluxe Edition) Disc 1

Used drive : MATSHITADVD-RAM UJ870QJ Adapter: 1 ID: 0

Read mode : Secure
Utilize accurate stream : Yes
Defeat audio cache : Yes
Make use of C2 pointers : No

Read offset correction : 102
Overread into Lead-In and Lead-Out : No
Fill up missing offset samples with silence : Yes
Delete leading and trailing silent blocks : No
Null samples used in CRC calculations : Yes
Used interface : Native Win32 interface for Win NT & 2000
Gap handling : Appended to previous track

Used output format : User Defined Encoder
Selected bitrate : 128 kBit/s
Quality : High
Add ID3 tag : No
Command line compressor : F:\Program Files\Exact Audio Copy\Flac\flac.exe
Additional command line options : -V -8 -T "artist=%a" -T "title=%t" -T "album=%g" -T "date=%y" -T "tracknumber=%n" -T "genre=%m" %s

TOC of the extracted CD

Track | Start | Length | Start sector | End sector
---------------------------------------------------------
1 | 0:00.00 | 4:12.26 | 0 | 18925
2 | 4:12.26 | 2:04.36 | 18926 | 28261
3 | 6:16.62 | 4:05.34 | 28262 | 46670
4 | 10:22.21 | 2:49.25 | 46671 | 59370
5 | 13:11.46 | 3:03.39 | 59371 | 73134
6 | 16:15.10 | 3:49.29 | 73135 | 90338
7 | 20:04.39 | 4:39.43 | 90339 | 111306
8 | 24:44.07 | 3:18.19 | 111307 | 126175
9 | 28:02.26 | 2:36.62 | 126176 | 137937
10 | 30:39.13 | 3:06.71 | 137938 | 151958
11 | 33:46.09 | 2:54.22 | 151959 | 165030
12 | 36:40.31 | 3:15.61 | 165031 | 179716
13 | 39:56.17 | 3:00.15 | 179717 | 193231
14 | 45:28.32 | 9:51.65 | 204632 | 249021

Track 1

Filename C:\EACRips\Alkaline Trio - 2005 - Crimson (Deluxe Edition) Disc 1\01 - Time to Waste.wav

Pre-gap length 0:00:02.00

Peak level 98.5 %
Track quality 99.9 %
Test CRC 1B0DAEF2
Copy CRC 1B0DAEF2
Accurately ripped (confidence 2) [5E12E357]
Copy OK

Track 2

Filename C:\EACRips\Alkaline Trio - 2005 - Crimson (Deluxe Edition) Disc 1\02 - The Poison.wav

Peak level 97.7 %
Track quality 100.0 %
Test CRC 3FBE095C
Copy CRC 3FBE095C
Track not present in AccurateRip database
Copy OK

Track 3

Filename C:\EACRips\Alkaline Trio - 2005 - Crimson (Deluxe Edition) Disc 1\03 - Burn.wav

Peak level 97.1 %
Track quality 100.0 %
Test CRC A81A5603
Copy CRC A81A5603
Accurately ripped (confidence 2) [978F632E]
Copy OK

Track 4

Filename C:\EACRips\Alkaline Trio - 2005 - Crimson (Deluxe Edition) Disc 1\04 - Mercy Me.wav

Peak level 97.4 %
Track quality 99.9 %
Test CRC 454D9479
Copy CRC 454D9479
Accurately ripped (confidence 2) [217EF329]
Copy OK

Track 5

Filename C:\EACRips\Alkaline Trio - 2005 - Crimson (Deluxe Edition) Disc 1\05 - Dethbed.wav

Peak level 98.9 %
Track quality 100.0 %
Test CRC B27C64AB
Copy CRC B27C64AB
Accurately ripped (confidence 2) [3E069CED]
Copy OK

Track 6

Filename C:\EACRips\Alkaline Trio - 2005 - Crimson (Deluxe Edition) Disc 1\06 - Settle for Satin.wav

Pre-gap length 0:00:00.58

Peak level 98.1 %
Track quality 100.0 %
Test CRC CAB9900C
Copy CRC CAB9900C
Track not present in AccurateRip database
Copy OK

Track 7

Filename C:\EACRips\Alkaline Trio - 2005 - Crimson (Deluxe Edition) Disc 1\07 - Sadie.wav

Peak level 97.4 %
Track quality 99.9 %
Test CRC 80783ABE
Copy CRC 80783ABE
Track not present in AccurateRip database
Copy OK

Track 8

Filename C:\EACRips\Alkaline Trio - 2005 - Crimson (Deluxe Edition) Disc 1\08 - Fall Victim.wav

Peak level 98.3 %
Track quality 99.9 %
Test CRC 2869F9F0
Copy CRC 2869F9F0
Track not present in AccurateRip database
Copy OK

Track 9

Filename C:\EACRips\Alkaline Trio - 2005 - Crimson (Deluxe Edition) Disc 1\09 - I was a Prayer.wav

Peak level 97.8 %
Track quality 100.0 %
Test CRC 00EAC526
Copy CRC 00EAC526
Track not present in AccurateRip database
Copy OK

Track 10

Filename C:\EACRips\Alkaline Trio - 2005 - Crimson (Deluxe Edition) Disc 1\10 - Prevent this Tragedy.wav

Pre-gap length 0:00:00.97

Peak level 98.0 %
Track quality 99.9 %
Test CRC 878332F4
Copy CRC 878332F4
Track not present in AccurateRip database
Copy OK

Track 11

Filename C:\EACRips\Alkaline Trio - 2005 - Crimson (Deluxe Edition) Disc 1\11 - Back to Hell.wav

Peak level 98.1 %
Track quality 100.0 %
Test CRC D8A5C1D6
Copy CRC D8A5C1D6
Track not present in AccurateRip database
Copy OK

Track 12

Filename C:\EACRips\Alkaline Trio - 2005 - Crimson (Deluxe Edition) Disc 1\12 - Your Neck.wav

Peak level 97.8 %
Track quality 100.0 %
Test CRC AB4F47F1
Copy CRC AB4F47F1
Track not present in AccurateRip database
Copy OK

Track 13

Filename C:\EACRips\Alkaline Trio - 2005 - Crimson (Deluxe Edition) Disc 1\13 - Smoke.wav

Peak level 96.9 %
Track quality 100.0 %
Test CRC 6450A7B0
Copy CRC 6450A7B0
Track not present in AccurateRip database
Copy OK

4 track(s) accurately ripped
9 track(s) not present in the AccurateRip database

Some tracks could not be verified as accurate

No errors occurred

End of status report
REM GENRE Punk 
REM DATE 2005
REM DISCID C60CF80E
REM COMMENT "ExactAudioCopy v0.99pb4"
PERFORMER "Alkaline Trio"
TITLE "Crimson (Deluxe Edition) Disc 1"
FILE "01 - Time to Waste.wav" WAVE
TRACK 01 AUDIO
TITLE "Time to Waste"
PERFORMER "Alkaline Trio"
ISRC USVR90540901
FLAGS DCP
INDEX 01 00:00:00
FILE "02 - The Poison.wav" WAVE
TRACK 02 AUDIO
TITLE "The Poison"
PERFORMER "Alkaline Trio"
ISRC USVR90540902
FLAGS DCP
INDEX 01 00:00:00
FILE "03 - Burn.wav" WAVE
TRACK 03 AUDIO
TITLE "Burn"
PERFORMER "Alkaline Trio"
ISRC USVR90540903
FLAGS DCP
INDEX 01 00:00:00
FILE "04 - Mercy Me.wav" WAVE
TRACK 04 AUDIO
TITLE "Mercy Me"
PERFORMER "Alkaline Trio"
ISRC USVR90540904
FLAGS DCP
INDEX 01 00:00:00
FILE "05 - Dethbed.wav" WAVE
TRACK 05 AUDIO
TITLE "Dethbed"
PERFORMER "Alkaline Trio"
ISRC USVR90540905
FLAGS DCP
INDEX 01 00:00:00
TRACK 06 AUDIO
TITLE "Settle for Satin"
PERFORMER "Alkaline Trio"
ISRC USVR90540906
FLAGS DCP
INDEX 00 03:02:70
FILE "06 - Settle for Satin.wav" WAVE
INDEX 01 00:00:00
FILE "07 - Sadie.wav" WAVE
TRACK 07 AUDIO
TITLE "Sadie"
PERFORMER "Alkaline Trio"
ISRC USVR90540907
FLAGS DCP
INDEX 01 00:00:00
FILE "08 - Fall Victim.wav" WAVE
TRACK 08 AUDIO
TITLE "Fall Victim"
PERFORMER "Alkaline Trio"
ISRC USVR90540908
FLAGS DCP
INDEX 01 00:00:00
FILE "09 - I was a Prayer.wav" WAVE
TRACK 09 AUDIO
TITLE "I was a Prayer"
PERFORMER "Alkaline Trio"
ISRC USVR90540909
FLAGS DCP
INDEX 01 00:00:00
TRACK 10 AUDIO
TITLE "Prevent this Tragedy"
PERFORMER "Alkaline Trio"
ISRC USVR90540910
FLAGS DCP
INDEX 00 02:35:64
FILE "10 - Prevent this Tragedy.wav" WAVE
INDEX 01 00:00:00
FILE "11 - Back to Hell.wav" WAVE
TRACK 11 AUDIO
TITLE "Back to Hell"
PERFORMER "Alkaline Trio"
ISRC USVR90540911
FLAGS DCP
INDEX 01 00:00:00
FILE "12 - Your Neck.wav" WAVE
TRACK 12 AUDIO
TITLE "Your Neck"
PERFORMER "Alkaline Trio"
ISRC USVR90540912
FLAGS DCP
INDEX 01 00:00:00
FILE "13 - Smoke.wav" WAVE
TRACK 13 AUDIO
TITLE "Smoke"
PERFORMER "Alkaline Trio"
ISRC USVR90540913
FLAGS DCP
INDEX 01 00:00:00
TRACK 14 MODEx/2xxx
TITLE "Data Track"
PERFORMER "Alkaline Trio"
INDEX 00 03:00:15
01. Time To Waste (Demo) (3:25)
02. The Poison (Demo) (1:39)
03. Burn (Matt's Home Demo) (2:57)
04. Mercy Me (Acoustic) (3:12)
05. Dethbed (Demo) (2:57)
06. Settle For Satin (Demo) (3:31)
07. Sadie (Acoustic) (3:19)
08. Fall Victim (Demo) (3:04)
09. I Was A Prayer (Acoustic) (2:55)
10. Prevent This Tragedy (Demo) (3:41)
11. Back To Hell (Matt's Home Demo) (2:57)
12. Your Neck (Demo) (3:15)
13. Smoke (Demo) (3:08)
14. Time To Waste (Acoustic) (4:21)
Exact Audio Copy V0.99 prebeta 4 from 23. January 2008 

EAC extraction logfile from 15. March 2009, 21:51

Alkaline Trio / Crimson (Deluxe Edition) Disc 2

Used drive : MATSHITADVD-RAM UJ870QJ Adapter: 1 ID: 0

Read mode : Secure
Utilize accurate stream : Yes
Defeat audio cache : Yes
Make use of C2 pointers : No

Read offset correction : 102
Overread into Lead-In and Lead-Out : No
Fill up missing offset samples with silence : Yes
Delete leading and trailing silent blocks : No
Null samples used in CRC calculations : Yes
Used interface : Native Win32 interface for Win NT & 2000
Gap handling : Appended to previous track

Used output format : User Defined Encoder
Selected bitrate : 128 kBit/s
Quality : High
Add ID3 tag : No
Command line compressor : F:\Program Files\Exact Audio Copy\Flac\flac.exe
Additional command line options : -V -8 -T "artist=%a" -T "title=%t" -T "album=%g" -T "date=%y" -T "tracknumber=%n" -T "genre=%m" %s

TOC of the extracted CD

Track | Start | Length | Start sector | End sector
---------------------------------------------------------
1 | 0:00.00 | 3:24.54 | 0 | 15353
2 | 3:24.54 | 1:39.36 | 15354 | 22814
3 | 5:04.15 | 2:57.37 | 22815 | 36126
4 | 8:01.52 | 3:12.36 | 36127 | 50562
5 | 11:14.13 | 2:56.43 | 50563 | 63805
6 | 14:10.56 | 3:31.37 | 63806 | 79667
7 | 17:42.18 | 3:19.36 | 79668 | 94628
8 | 21:01.54 | 3:04.05 | 94629 | 108433
9 | 24:05.59 | 2:54.51 | 108434 | 121534
10 | 27:00.35 | 3:40.57 | 121535 | 138091
11 | 30:41.17 | 2:56.48 | 138092 | 151339
12 | 33:37.65 | 3:14.40 | 151340 | 165929
13 | 36:52.30 | 3:07.64 | 165930 | 180018
14 | 40:00.19 | 4:21.20 | 180019 | 199613

Track 1

Filename C:\EACRips\Alkaline Trio - 2005 - Crimson (Deluxe Edition) Disc 2\01 - Time To Waste (Demo).wav

Pre-gap length 0:00:02.00

Peak level 99.8 %
Track quality 100.0 %
Test CRC ACE47954
Copy CRC ACE47954
Track not present in AccurateRip database
Copy OK

Track 2

Filename C:\EACRips\Alkaline Trio - 2005 - Crimson (Deluxe Edition) Disc 2\02 - The Poison (Demo).wav

Peak level 99.0 %
Track quality 100.0 %
Test CRC 3959B209
Copy CRC 3959B209
Track not present in AccurateRip database
Copy OK

Track 3

Filename C:\EACRips\Alkaline Trio - 2005 - Crimson (Deluxe Edition) Disc 2\03 - Burn (Matt's Home Demo).wav

Peak level 97.3 %
Track quality 100.0 %
Test CRC F0A3C304
Copy CRC F0A3C304
Track not present in AccurateRip database
Copy OK

Track 4

Filename C:\EACRips\Alkaline Trio - 2005 - Crimson (Deluxe Edition) Disc 2\04 - Mercy Me (Acoustic).wav

Peak level 99.8 %
Track quality 100.0 %
Test CRC 476D4A04
Copy CRC 476D4A04
Track not present in AccurateRip database
Copy OK

Track 5

Filename C:\EACRips\Alkaline Trio - 2005 - Crimson (Deluxe Edition) Disc 2\05 - Dethbed (Demo).wav

Peak level 99.8 %
Track quality 100.0 %
Test CRC 82E5EA93
Copy CRC 82E5EA93
Track not present in AccurateRip database
Copy OK

Track 6

Filename C:\EACRips\Alkaline Trio - 2005 - Crimson (Deluxe Edition) Disc 2\06 - Settle For Satin (Demo).wav

Peak level 99.8 %
Track quality 99.9 %
Test CRC 36B5773A
Copy CRC 36B5773A
Track not present in AccurateRip database
Copy OK

Track 7

Filename C:\EACRips\Alkaline Trio - 2005 - Crimson (Deluxe Edition) Disc 2\07 - Sadie (Acoustic).wav

Peak level 78.0 %
Track quality 100.0 %
Test CRC 4C8E30FE
Copy CRC 4C8E30FE
Track not present in AccurateRip database
Copy OK

Track 8

Filename C:\EACRips\Alkaline Trio - 2005 - Crimson (Deluxe Edition) Disc 2\08 - Fall Victim (Demo).wav

Peak level 99.8 %
Track quality 100.0 %
Test CRC E20E1A40
Copy CRC E20E1A40
Track not present in AccurateRip database
Copy OK

Track 9

Filename C:\EACRips\Alkaline Trio - 2005 - Crimson (Deluxe Edition) Disc 2\09 - I Was A Prayer (Acoustic).wav

Peak level 99.8 %
Track quality 99.9 %
Test CRC F75FAC99
Copy CRC F75FAC99
Track not present in AccurateRip database
Copy OK

Track 10

Filename C:\EACRips\Alkaline Trio - 2005 - Crimson (Deluxe Edition) Disc 2\10 - Prevent This Tragedy (Demo).wav

Peak level 99.8 %
Track quality 100.0 %
Test CRC 8CF0A703
Copy CRC 8CF0A703
Track not present in AccurateRip database
Copy OK

Track 11

Filename C:\EACRips\Alkaline Trio - 2005 - Crimson (Deluxe Edition) Disc 2\11 - Back To Hell (Matt's Home Demo).wav

Peak level 88.9 %
Track quality 99.9 %
Test CRC 63C4E91B
Copy CRC 63C4E91B
Track not present in AccurateRip database
Copy OK

Track 12

Filename C:\EACRips\Alkaline Trio - 2005 - Crimson (Deluxe Edition) Disc 2\12 - Your Neck (Demo).wav

Peak level 99.8 %
Track quality 100.0 %
Test CRC 7144C53D
Copy CRC 7144C53D
Track not present in AccurateRip database
Copy OK

Track 13

Filename C:\EACRips\Alkaline Trio - 2005 - Crimson (Deluxe Edition) Disc 2\13 - Smoke (Demo).wav

Peak level 99.8 %
Track quality 100.0 %
Test CRC 7B93D35D
Copy CRC 7B93D35D
Track not present in AccurateRip database
Copy OK

Track 14

Filename C:\EACRips\Alkaline Trio - 2005 - Crimson (Deluxe Edition) Disc 2\14 - Time To Waste (Acoustic).wav

Peak level 99.8 %
Track quality 100.0 %
Test CRC 3628C0C5
Copy CRC 3628C0C5
Track not present in AccurateRip database
Copy OK

None of the tracks are present in the AccurateRip database

No errors occurred

End of status report
REM GENRE Punk 
REM DATE 2005
REM DISCID A30A650E
REM COMMENT "ExactAudioCopy v0.99pb4"
PERFORMER "Alkaline Trio"
TITLE "Crimson (Deluxe Edition) Disc 2"
FILE "01 - Time To Waste (Demo).wav" WAVE
TRACK 01 AUDIO
TITLE "Time To Waste (Demo)"
PERFORMER "Alkaline Trio"
ISRC USVR90542201
INDEX 01 00:00:00
FILE "02 - The Poison (Demo).wav" WAVE
TRACK 02 AUDIO
TITLE "The Poison (Demo)"
PERFORMER "Alkaline Trio"
ISRC USVR90542202
INDEX 01 00:00:00
FILE "03 - Burn (Matt's Home Demo).wav" WAVE
TRACK 03 AUDIO
TITLE "Burn (Matt's Home Demo)"
PERFORMER "Alkaline Trio"
ISRC USVR90542203
INDEX 01 00:00:00
FILE "04 - Mercy Me (Acoustic).wav" WAVE
TRACK 04 AUDIO
TITLE "Mercy Me (Acoustic)"
PERFORMER "Alkaline Trio"
ISRC USVR90540916
INDEX 01 00:00:00
FILE "05 - Dethbed (Demo).wav" WAVE
TRACK 05 AUDIO
TITLE "Dethbed (Demo)"
PERFORMER "Alkaline Trio"
ISRC USVR90542204
INDEX 01 00:00:00
FILE "06 - Settle For Satin (Demo).wav" WAVE
TRACK 06 AUDIO
TITLE "Settle For Satin (Demo)"
PERFORMER "Alkaline Trio"
ISRC USVR90542205
INDEX 01 00:00:00
FILE "07 - Sadie (Acoustic).wav" WAVE
TRACK 07 AUDIO
TITLE "Sadie (Acoustic)"
PERFORMER "Alkaline Trio"
ISRC USVR90542206
INDEX 01 00:00:00
FILE "08 - Fall Victim (Demo).wav" WAVE
TRACK 08 AUDIO
TITLE "Fall Victim (Demo)"
PERFORMER "Alkaline Trio"
ISRC USVR90542207
INDEX 01 00:00:00
FILE "09 - I Was A Prayer (Acoustic).wav" WAVE
TRACK 09 AUDIO
TITLE "I Was A Prayer (Acoustic)"
PERFORMER "Alkaline Trio"
ISRC USVR90542208
INDEX 01 00:00:00
FILE "10 - Prevent This Tragedy (Demo).wav" WAVE
TRACK 10 AUDIO
TITLE "Prevent This Tragedy (Demo)"
PERFORMER "Alkaline Trio"
ISRC USVR90542209
INDEX 01 00:00:00
FILE "11 - Back To Hell (Matt's Home Demo).wav" WAVE
TRACK 11 AUDIO
TITLE "Back To Hell (Matt's Home Demo)"
PERFORMER "Alkaline Trio"
ISRC USVR90542210
INDEX 01 00:00:00
FILE "12 - Your Neck (Demo).wav" WAVE
TRACK 12 AUDIO
TITLE "Your Neck (Demo)"
PERFORMER "Alkaline Trio"
ISRC USVR90542211
INDEX 01 00:00:00
FILE "13 - Smoke (Demo).wav" WAVE
TRACK 13 AUDIO
TITLE "Smoke (Demo)"
PERFORMER "Alkaline Trio"
ISRC USVR90542212
INDEX 01 00:00:00
FILE "14 - Time To Waste (Acoustic).wav" WAVE
TRACK 14 AUDIO
TITLE "Time To Waste (Acoustic)"
PERFORMER "Alkaline Trio"
ISRC USVR90542213
INDEX 01 00:00:00
01. Hell Yes (3:50)
02. My Standard Break From Life (2:34)
03. Dead End Road (3:08)
04. Metro (3:42)
05. Jaked On Green Beers (3:27)
06. Queen Of Pain (3:56)
07. While You're Waiting (4:06)
08. Rooftops (2:15)
09. Old School Reasons (2:52)
10. Warbrain (2:28)
11. Fine Without You (3:16)
12. Hating Every Minute (3:03)
13. Dead And Broken (2:09)
14. Sadie (4:39)
15. If You Had A Bad Time (3:38)
16. Wait For The Blackout (3:28)
17. We Can Never Break Up (3:11)
18. Don't Say You Won't (2:21)
19. Buried (3:16)
20. Dethbed (Live) (3:12)
21. My Standard Break From Life (Live & Acoustic) (2:43)
22. I'm Dying Tomorrow (Live) (2:32)
EAC extraction logfile from 2. April 2007, 10:59 for CD 
Alkaline Trio / Remains

Used drive : TSSTcorpCDRW/DVD TSL462C Adapter: 1 ID: 0
Read mode : Secure with NO C2, accurate stream, disable cache
Read offset correction : 6
Overread into Lead-In and Lead-Out : No

Used output format : C:\Program Files\FLAC\flac.exe (User Defined Encoder)
128 kBit/s
Additional command line options : -V -8 -T "artist=%A" -T "title=%t" -T "album=%g" -T "tracknumber=%n" -T "genre=%m" %s

Other options :
Fill up missing offset samples with silence : Yes
Delete leading and trailing silent blocks : No
Native Win32 interface for Win NT & 2000

Track 1
Filename C:\Documents and Settings\gkelley\Desktop\Music to burn\Alkaline Trio - Remains (2007) [FLAC]\01 - Hell Yes.wav

Pre-gap length 0:00:02.00

Peak level 99.8 %
Track quality 100.0 %
Test CRC AFDFFFA8
Copy CRC AFDFFFA8
Copy OK

Track 2
Filename C:\Documents and Settings\gkelley\Desktop\Music to burn\Alkaline Trio - Remains (2007) [FLAC]\02 - My Standard Break From Life.wav

Peak level 99.8 %
Track quality 100.0 %
Test CRC 8169E827
Copy CRC 8169E827
Copy OK

Track 3
Filename C:\Documents and Settings\gkelley\Desktop\Music to burn\Alkaline Trio - Remains (2007) [FLAC]\03 - Dead End Road.wav

Peak level 99.8 %
Track quality 100.0 %
Test CRC 9C7804C2
Copy CRC 9C7804C2
Copy OK

Track 4
Filename C:\Documents and Settings\gkelley\Desktop\Music to burn\Alkaline Trio - Remains (2007) [FLAC]\04 - Metro.wav

Peak level 99.8 %
Track quality 100.0 %
Test CRC 3BC74F38
Copy CRC 3BC74F38
Copy OK

Track 5
Filename C:\Documents and Settings\gkelley\Desktop\Music to burn\Alkaline Trio - Remains (2007) [FLAC]\05 - Jaked On Green Beers.wav

Peak level 99.8 %
Track quality 99.9 %
Test CRC 92012B7C
Copy CRC 92012B7C
Copy OK

Track 6
Filename C:\Documents and Settings\gkelley\Desktop\Music to burn\Alkaline Trio - Remains (2007) [FLAC]\06 - Queen Of Pain.wav

Peak level 96.4 %
Track quality 99.9 %
Test CRC D1703EDD
Copy CRC D1703EDD
Copy OK

Track 7
Filename C:\Documents and Settings\gkelley\Desktop\Music to burn\Alkaline Trio - Remains (2007) [FLAC]\07 - While You're Waiting.wav

Peak level 96.1 %
Track quality 100.0 %
Test CRC C74B4155
Copy CRC C74B4155
Copy OK

Track 8
Filename C:\Documents and Settings\gkelley\Desktop\Music to burn\Alkaline Trio - Remains (2007) [FLAC]\08 - Rooftops.wav

Peak level 98.6 %
Track quality 100.0 %
Test CRC 8F7C44D9
Copy CRC 8F7C44D9
Copy OK

Track 9
Filename C:\Documents and Settings\gkelley\Desktop\Music to burn\Alkaline Trio - Remains (2007) [FLAC]\09 - Old School Reasons.wav

Peak level 99.8 %
Track quality 100.0 %
Test CRC 97D3FB78
Copy CRC 97D3FB78
Copy OK

Track 10
Filename C:\Documents and Settings\gkelley\Desktop\Music to burn\Alkaline Trio - Remains (2007) [FLAC]\10 - Warbrain.wav

Peak level 99.8 %
Track quality 100.0 %
Test CRC 4D64834B
Copy CRC 4D64834B
Copy OK

Track 11
Filename C:\Documents and Settings\gkelley\Desktop\Music to burn\Alkaline Trio - Remains (2007) [FLAC]\11 - Fine Without You.wav

Peak level 99.8 %
Track quality 100.0 %
Test CRC CEF7C476
Copy CRC CEF7C476
Copy OK

Track 12
Filename C:\Documents and Settings\gkelley\Desktop\Music to burn\Alkaline Trio - Remains (2007) [FLAC]\12 - Hating Every Minute.wav

Peak level 99.8 %
Track quality 100.0 %
Test CRC 9C3A1531
Copy CRC 9C3A1531
Copy OK

Track 13
Filename C:\Documents and Settings\gkelley\Desktop\Music to burn\Alkaline Trio - Remains (2007) [FLAC]\13 - Dead And Broken.wav

Peak level 99.8 %
Track quality 100.0 %
Test CRC 3A8C58B1
Copy CRC 3A8C58B1
Copy OK

Track 14
Filename C:\Documents and Settings\gkelley\Desktop\Music to burn\Alkaline Trio - Remains (2007) [FLAC]\14 - Sadie.wav

Peak level 99.8 %
Track quality 100.0 %
Test CRC EF999D1F
Copy CRC EF999D1F
Copy OK

Track 15
Filename C:\Documents and Settings\gkelley\Desktop\Music to burn\Alkaline Trio - Remains (2007) [FLAC]\15 - If You Had A Bad Time.wav

Peak level 99.8 %
Track quality 100.0 %
Test CRC 744153C6
Copy CRC 744153C6
Copy OK

Track 16
Filename C:\Documents and Settings\gkelley\Desktop\Music to burn\Alkaline Trio - Remains (2007) [FLAC]\16 - Wait For The Blackout.wav

Peak level 99.8 %
Track quality 100.0 %
Test CRC 35CEBAFD
Copy CRC 35CEBAFD
Copy OK

Track 17
Filename C:\Documents and Settings\gkelley\Desktop\Music to burn\Alkaline Trio - Remains (2007) [FLAC]\17 - We Can Never Break Up.wav

Peak level 99.6 %
Track quality 100.0 %
Test CRC 69AEE4F0
Copy CRC 69AEE4F0
Copy OK

Track 18
Filename C:\Documents and Settings\gkelley\Desktop\Music to burn\Alkaline Trio - Remains (2007) [FLAC]\18 - Don't Say You Won't.wav

Peak level 99.0 %
Track quality 100.0 %
Test CRC E45E877A
Copy CRC E45E877A
Copy OK

Track 19
Filename C:\Documents and Settings\gkelley\Desktop\Music to burn\Alkaline Trio - Remains (2007) [FLAC]\19 - Buried.wav

Peak level 97.5 %
Track quality 100.0 %
Test CRC 0F292CD2
Copy CRC 0F292CD2
Copy OK

Track 20
Filename C:\Documents and Settings\gkelley\Desktop\Music to burn\Alkaline Trio - Remains (2007) [FLAC]\20 - Dethbed (Live).wav

Peak level 99.8 %
Track quality 100.0 %
Test CRC 7268C4DA
Copy CRC 7268C4DA
Copy OK

Track 21
Filename C:\Documents and Settings\gkelley\Desktop\Music to burn\Alkaline Trio - Remains (2007) [FLAC]\21 - My Standard Break From Life (Live & Acoustic).wav

Peak level 99.8 %
Track quality 100.0 %
Test CRC A208D4F3
Copy CRC A208D4F3
Copy OK

Track 22
Filename C:\Documents and Settings\gkelley\Desktop\Music to burn\Alkaline Trio - Remains (2007) [FLAC]\22 - I'm Dying Tomorrow (Live).wav

Pre-gap length 0:00:00.01

Peak level 99.8 %
Track quality 100.0 %
Test CRC 31EFF3FF
Copy CRC 31EFF3FF
Copy OK

No errors occured

End of status report
REM GENRE Rock 
REM DATE 2007
REM DISCID 40105A16
REM COMMENT "ExactAudioCopy v0.95b4"
PERFORMER "Alkaline Trio"
TITLE "Remains"
FILE "01 - Hell Yes.wav" WAVE
TRACK 01 AUDIO
TITLE "Hell Yes"
PERFORMER "Alkaline Trio"
INDEX 01 00:00:00
FILE "02 - My Standard Break From Life.wav" WAVE
TRACK 02 AUDIO
TITLE "My Standard Break From Life"
PERFORMER "Alkaline Trio"
INDEX 01 00:00:00
FILE "03 - Dead End Road.wav" WAVE
TRACK 03 AUDIO
TITLE "Dead End Road"
PERFORMER "Alkaline Trio"
INDEX 01 00:00:00
FILE "04 - Metro.wav" WAVE
TRACK 04 AUDIO
TITLE "Metro"
PERFORMER "Alkaline Trio"
INDEX 01 00:00:00
FILE "05 - Jaked On Green Beers.wav" WAVE
TRACK 05 AUDIO
TITLE "Jaked On Green Beers"
PERFORMER "Alkaline Trio"
INDEX 01 00:00:00
FILE "06 - Queen Of Pain.wav" WAVE
TRACK 06 AUDIO
TITLE "Queen Of Pain"
PERFORMER "Alkaline Trio"
INDEX 01 00:00:00
FILE "07 - While You're Waiting.wav" WAVE
TRACK 07 AUDIO
TITLE "While You're Waiting"
PERFORMER "Alkaline Trio"
INDEX 01 00:00:00
FILE "08 - Rooftops.wav" WAVE
TRACK 08 AUDIO
TITLE "Rooftops"
PERFORMER "Alkaline Trio"
INDEX 01 00:00:00
FILE "09 - Old School Reasons.wav" WAVE
TRACK 09 AUDIO
TITLE "Old School Reasons"
PERFORMER "Alkaline Trio"
INDEX 01 00:00:00
FILE "10 - Warbrain.wav" WAVE
TRACK 10 AUDIO
TITLE "Warbrain"
PERFORMER "Alkaline Trio"
INDEX 01 00:00:00
FILE "11 - Fine Without You.wav" WAVE
TRACK 11 AUDIO
TITLE "Fine Without You"
PERFORMER "Alkaline Trio"
INDEX 01 00:00:00
FILE "12 - Hating Every Minute.wav" WAVE
TRACK 12 AUDIO
TITLE "Hating Every Minute"
PERFORMER "Alkaline Trio"
INDEX 01 00:00:00
FILE "13 - Dead And Broken.wav" WAVE
TRACK 13 AUDIO
TITLE "Dead And Broken"
PERFORMER "Alkaline Trio"
INDEX 01 00:00:00
FILE "14 - Sadie.wav" WAVE
TRACK 14 AUDIO
TITLE "Sadie"
PERFORMER "Alkaline Trio"
INDEX 01 00:00:00
FILE "15 - If You Had A Bad Time.wav" WAVE
TRACK 15 AUDIO
TITLE "If You Had A Bad Time"
PERFORMER "Alkaline Trio"
INDEX 01 00:00:00
FILE "16 - Wait For The Blackout.wav" WAVE
TRACK 16 AUDIO
TITLE "Wait For The Blackout"
PERFORMER "Alkaline Trio"
INDEX 01 00:00:00
FILE "17 - We Can Never Break Up.wav" WAVE
TRACK 17 AUDIO
TITLE "We Can Never Break Up"
PERFORMER "Alkaline Trio"
INDEX 01 00:00:00
FILE "18 - Don't Say You Won't.wav" WAVE
TRACK 18 AUDIO
TITLE "Don't Say You Won't"
PERFORMER "Alkaline Trio"
INDEX 01 00:00:00
FILE "19 - Buried.wav" WAVE
TRACK 19 AUDIO
TITLE "Buried"
PERFORMER "Alkaline Trio"
INDEX 01 00:00:00
FILE "20 - Dethbed (Live).wav" WAVE
TRACK 20 AUDIO
TITLE "Dethbed (Live)"
PERFORMER "Alkaline Trio"
INDEX 01 00:00:00
FILE "21 - My Standard Break From Life (Live & Acoustic).wav" WAVE
TRACK 21 AUDIO
TITLE "My Standard Break From Life (Live & Acoustic)"
PERFORMER "Alkaline Trio"
INDEX 01 00:00:00
TRACK 22 AUDIO
TITLE "I'm Dying Tomorrow (Live)"
PERFORMER "Alkaline Trio"
INDEX 00 02:42:60
FILE "22 - I'm Dying Tomorrow (Live).wav" WAVE
INDEX 01 00:00:00
01. Calling All Skeletons (3:19)
02. Help Me (3:45)
03. In Vein (3:56)
04. Over And Out (3:14)
05. I Found Away (4:01)
06. Do You Wanna Know? (3:37)
07. Live Young, Die Fast (4:14)
08. Love Love, Kiss Kiss (3:25)
09. Lost And Rendered (3:23)
10. Ruin It (3:36)
11. Into The Night (3:22)
EAC extraction logfile from 2. April 2007, 10:59 for CD 
Alkaline Trio / Remains

Used drive : TSSTcorpCDRW/DVD TSL462C Adapter: 1 ID: 0
Read mode : Secure with NO C2, accurate stream, disable cache
Read offset correction : 6
Overread into Lead-In and Lead-Out : No

Used output format : C:\Program Files\FLAC\flac.exe (User Defined Encoder)
128 kBit/s
Additional command line options : -V -8 -T "artist=%A" -T "title=%t" -T "album=%g" -T "tracknumber=%n" -T "genre=%m" %s

Other options :
Fill up missing offset samples with silence : Yes
Delete leading and trailing silent blocks : No
Native Win32 interface for Win NT & 2000

Track 1
Filename C:\Documents and Settings\gkelley\Desktop\Music to burn\Alkaline Trio - Remains (2007) [FLAC]\01 - Hell Yes.wav

Pre-gap length 0:00:02.00

Peak level 99.8 %
Track quality 100.0 %
Test CRC AFDFFFA8
Copy CRC AFDFFFA8
Copy OK

Track 2
Filename C:\Documents and Settings\gkelley\Desktop\Music to burn\Alkaline Trio - Remains (2007) [FLAC]\02 - My Standard Break From Life.wav

Peak level 99.8 %
Track quality 100.0 %
Test CRC 8169E827
Copy CRC 8169E827
Copy OK

Track 3
Filename C:\Documents and Settings\gkelley\Desktop\Music to burn\Alkaline Trio - Remains (2007) [FLAC]\03 - Dead End Road.wav

Peak level 99.8 %
Track quality 100.0 %
Test CRC 9C7804C2
Copy CRC 9C7804C2
Copy OK

Track 4
Filename C:\Documents and Settings\gkelley\Desktop\Music to burn\Alkaline Trio - Remains (2007) [FLAC]\04 - Metro.wav

Peak level 99.8 %
Track quality 100.0 %
Test CRC 3BC74F38
Copy CRC 3BC74F38
Copy OK

Track 5
Filename C:\Documents and Settings\gkelley\Desktop\Music to burn\Alkaline Trio - Remains (2007) [FLAC]\05 - Jaked On Green Beers.wav

Peak level 99.8 %
Track quality 99.9 %
Test CRC 92012B7C
Copy CRC 92012B7C
Copy OK

Track 6
Filename C:\Documents and Settings\gkelley\Desktop\Music to burn\Alkaline Trio - Remains (2007) [FLAC]\06 - Queen Of Pain.wav

Peak level 96.4 %
Track quality 99.9 %
Test CRC D1703EDD
Copy CRC D1703EDD
Copy OK

Track 7
Filename C:\Documents and Settings\gkelley\Desktop\Music to burn\Alkaline Trio - Remains (2007) [FLAC]\07 - While You're Waiting.wav

Peak level 96.1 %
Track quality 100.0 %
Test CRC C74B4155
Copy CRC C74B4155
Copy OK

Track 8
Filename C:\Documents and Settings\gkelley\Desktop\Music to burn\Alkaline Trio - Remains (2007) [FLAC]\08 - Rooftops.wav

Peak level 98.6 %
Track quality 100.0 %
Test CRC 8F7C44D9
Copy CRC 8F7C44D9
Copy OK

Track 9
Filename C:\Documents and Settings\gkelley\Desktop\Music to burn\Alkaline Trio - Remains (2007) [FLAC]\09 - Old School Reasons.wav

Peak level 99.8 %
Track quality 100.0 %
Test CRC 97D3FB78
Copy CRC 97D3FB78
Copy OK

Track 10
Filename C:\Documents and Settings\gkelley\Desktop\Music to burn\Alkaline Trio - Remains (2007) [FLAC]\10 - Warbrain.wav

Peak level 99.8 %
Track quality 100.0 %
Test CRC 4D64834B
Copy CRC 4D64834B
Copy OK

Track 11
Filename C:\Documents and Settings\gkelley\Desktop\Music to burn\Alkaline Trio - Remains (2007) [FLAC]\11 - Fine Without You.wav

Peak level 99.8 %
Track quality 100.0 %
Test CRC CEF7C476
Copy CRC CEF7C476
Copy OK

Track 12
Filename C:\Documents and Settings\gkelley\Desktop\Music to burn\Alkaline Trio - Remains (2007) [FLAC]\12 - Hating Every Minute.wav

Peak level 99.8 %
Track quality 100.0 %
Test CRC 9C3A1531
Copy CRC 9C3A1531
Copy OK

Track 13
Filename C:\Documents and Settings\gkelley\Desktop\Music to burn\Alkaline Trio - Remains (2007) [FLAC]\13 - Dead And Broken.wav

Peak level 99.8 %
Track quality 100.0 %
Test CRC 3A8C58B1
Copy CRC 3A8C58B1
Copy OK

Track 14
Filename C:\Documents and Settings\gkelley\Desktop\Music to burn\Alkaline Trio - Remains (2007) [FLAC]\14 - Sadie.wav

Peak level 99.8 %
Track quality 100.0 %
Test CRC EF999D1F
Copy CRC EF999D1F
Copy OK

Track 15
Filename C:\Documents and Settings\gkelley\Desktop\Music to burn\Alkaline Trio - Remains (2007) [FLAC]\15 - If You Had A Bad Time.wav

Peak level 99.8 %
Track quality 100.0 %
Test CRC 744153C6
Copy CRC 744153C6
Copy OK

Track 16
Filename C:\Documents and Settings\gkelley\Desktop\Music to burn\Alkaline Trio - Remains (2007) [FLAC]\16 - Wait For The Blackout.wav

Peak level 99.8 %
Track quality 100.0 %
Test CRC 35CEBAFD
Copy CRC 35CEBAFD
Copy OK

Track 17
Filename C:\Documents and Settings\gkelley\Desktop\Music to burn\Alkaline Trio - Remains (2007) [FLAC]\17 - We Can Never Break Up.wav

Peak level 99.6 %
Track quality 100.0 %
Test CRC 69AEE4F0
Copy CRC 69AEE4F0
Copy OK

Track 18
Filename C:\Documents and Settings\gkelley\Desktop\Music to burn\Alkaline Trio - Remains (2007) [FLAC]\18 - Don't Say You Won't.wav

Peak level 99.0 %
Track quality 100.0 %
Test CRC E45E877A
Copy CRC E45E877A
Copy OK

Track 19
Filename C:\Documents and Settings\gkelley\Desktop\Music to burn\Alkaline Trio - Remains (2007) [FLAC]\19 - Buried.wav

Peak level 97.5 %
Track quality 100.0 %
Test CRC 0F292CD2
Copy CRC 0F292CD2
Copy OK

Track 20
Filename C:\Documents and Settings\gkelley\Desktop\Music to burn\Alkaline Trio - Remains (2007) [FLAC]\20 - Dethbed (Live).wav

Peak level 99.8 %
Track quality 100.0 %
Test CRC 7268C4DA
Copy CRC 7268C4DA
Copy OK

Track 21
Filename C:\Documents and Settings\gkelley\Desktop\Music to burn\Alkaline Trio - Remains (2007) [FLAC]\21 - My Standard Break From Life (Live & Acoustic).wav

Peak level 99.8 %
Track quality 100.0 %
Test CRC A208D4F3
Copy CRC A208D4F3
Copy OK

Track 22
Filename C:\Documents and Settings\gkelley\Desktop\Music to burn\Alkaline Trio - Remains (2007) [FLAC]\22 - I'm Dying Tomorrow (Live).wav

Pre-gap length 0:00:00.01

Peak level 99.8 %
Track quality 100.0 %
Test CRC 31EFF3FF
Copy CRC 31EFF3FF
Copy OK

No errors occured

End of status report
REM GENRE Rock 
REM DATE 2007
REM DISCID 40105A16
REM COMMENT "ExactAudioCopy v0.95b4"
PERFORMER "Alkaline Trio"
TITLE "Remains"
FILE "01 - Hell Yes.wav" WAVE
TRACK 01 AUDIO
TITLE "Hell Yes"
PERFORMER "Alkaline Trio"
INDEX 01 00:00:00
FILE "02 - My Standard Break From Life.wav" WAVE
TRACK 02 AUDIO
TITLE "My Standard Break From Life"
PERFORMER "Alkaline Trio"
INDEX 01 00:00:00
FILE "03 - Dead End Road.wav" WAVE
TRACK 03 AUDIO
TITLE "Dead End Road"
PERFORMER "Alkaline Trio"
INDEX 01 00:00:00
FILE "04 - Metro.wav" WAVE
TRACK 04 AUDIO
TITLE "Metro"
PERFORMER "Alkaline Trio"
INDEX 01 00:00:00
FILE "05 - Jaked On Green Beers.wav" WAVE
TRACK 05 AUDIO
TITLE "Jaked On Green Beers"
PERFORMER "Alkaline Trio"
INDEX 01 00:00:00
FILE "06 - Queen Of Pain.wav" WAVE
TRACK 06 AUDIO
TITLE "Queen Of Pain"
PERFORMER "Alkaline Trio"
INDEX 01 00:00:00
FILE "07 - While You're Waiting.wav" WAVE
TRACK 07 AUDIO
TITLE "While You're Waiting"
PERFORMER "Alkaline Trio"
INDEX 01 00:00:00
FILE "08 - Rooftops.wav" WAVE
TRACK 08 AUDIO
TITLE "Rooftops"
PERFORMER "Alkaline Trio"
INDEX 01 00:00:00
FILE "09 - Old School Reasons.wav" WAVE
TRACK 09 AUDIO
TITLE "Old School Reasons"
PERFORMER "Alkaline Trio"
INDEX 01 00:00:00
FILE "10 - Warbrain.wav" WAVE
TRACK 10 AUDIO
TITLE "Warbrain"
PERFORMER "Alkaline Trio"
INDEX 01 00:00:00
FILE "11 - Fine Without You.wav" WAVE
TRACK 11 AUDIO
TITLE "Fine Without You"
PERFORMER "Alkaline Trio"
INDEX 01 00:00:00
FILE "12 - Hating Every Minute.wav" WAVE
TRACK 12 AUDIO
TITLE "Hating Every Minute"
PERFORMER "Alkaline Trio"
INDEX 01 00:00:00
FILE "13 - Dead And Broken.wav" WAVE
TRACK 13 AUDIO
TITLE "Dead And Broken"
PERFORMER "Alkaline Trio"
INDEX 01 00:00:00
FILE "14 - Sadie.wav" WAVE
TRACK 14 AUDIO
TITLE "Sadie"
PERFORMER "Alkaline Trio"
INDEX 01 00:00:00
FILE "15 - If You Had A Bad Time.wav" WAVE
TRACK 15 AUDIO
TITLE "If You Had A Bad Time"
PERFORMER "Alkaline Trio"
INDEX 01 00:00:00
FILE "16 - Wait For The Blackout.wav" WAVE
TRACK 16 AUDIO
TITLE "Wait For The Blackout"
PERFORMER "Alkaline Trio"
INDEX 01 00:00:00
FILE "17 - We Can Never Break Up.wav" WAVE
TRACK 17 AUDIO
TITLE "We Can Never Break Up"
PERFORMER "Alkaline Trio"
INDEX 01 00:00:00
FILE "18 - Don't Say You Won't.wav" WAVE
TRACK 18 AUDIO
TITLE "Don't Say You Won't"
PERFORMER "Alkaline Trio"
INDEX 01 00:00:00
FILE "19 - Buried.wav" WAVE
TRACK 19 AUDIO
TITLE "Buried"
PERFORMER "Alkaline Trio"
INDEX 01 00:00:00
FILE "20 - Dethbed (Live).wav" WAVE
TRACK 20 AUDIO
TITLE "Dethbed (Live)"
PERFORMER "Alkaline Trio"
INDEX 01 00:00:00
FILE "21 - My Standard Break From Life (Live & Acoustic).wav" WAVE
TRACK 21 AUDIO
TITLE "My Standard Break From Life (Live & Acoustic)"
PERFORMER "Alkaline Trio"
INDEX 01 00:00:00
TRACK 22 AUDIO
TITLE "I'm Dying Tomorrow (Live)"
PERFORMER "Alkaline Trio"
INDEX 00 02:42:60
FILE "22 - I'm Dying Tomorrow (Live).wav" WAVE
INDEX 01 00:00:00
01. Burned is the House (4:26)
02. Maybe I'll Catch Fire (acoustic) (3:04)
03. Live Young, Die Fast (acoustic) (3:19)
04. Into the Night (acoustic) (3:12)
05. Over and Out (acoustic) (2:47)
06. Lost and Rendered (acoustic) (3:13)
Exact Audio Copy V0.99 prebeta 4 from 23. January 2008 

EAC extraction logfile from 1. July 2008, 12:21

Alkaline trio / Agony And Irony Bonus Disc

Used drive : _NEC DVD_RW ND-3550A Adapter: 3 ID: 0

Read mode : Secure
Utilize accurate stream : Yes
Defeat audio cache : Yes
Make use of C2 pointers : No

Read offset correction : 48
Overread into Lead-In and Lead-Out : No
Fill up missing offset samples with silence : Yes
Delete leading and trailing silent blocks : No
Null samples used in CRC calculations : Yes
Used interface : Native Win32 interface for Win NT & 2000
Gap handling : Appended to previous track

Used output format : User Defined Encoder
Selected bitrate : 768 kBit/s
Quality : High
Add ID3 tag : No
Command line compressor : C:\Program Files\Exact Audio Copy\FLAC\FLAC.EXE
Additional command line options : V -8 -T "artist=%a" -T "title=%t" -T "album=%g" -T "date=%y" -T "tracknumber=%n" -T "genre=%m" %s

TOC of the extracted CD

Track | Start | Length | Start sector | End sector
---------------------------------------------------------
1 | 0:00.00 | 4:25.53 | 0 | 19927
2 | 4:25.53 | 3:03.63 | 19928 | 33715
3 | 7:29.41 | 3:18.48 | 33716 | 48613
4 | 10:48.14 | 3:11.68 | 48614 | 63006
5 | 14:00.07 | 2:46.60 | 63007 | 75516
6 | 16:46.67 | 3:13.19 | 75517 | 90010

Track 1

Filename F:\Music\Ripped\FLAC\Alkaline trio - 2008 - Agony And Irony Bonus Disc\01 - Burned is the House.wav

Pre-gap length 0:00:02.00

Peak level 97.7 %
Track quality 100.0 %
Test CRC 1D76E83A
Copy CRC 1D76E83A
Track not present in AccurateRip database
Copy OK

Track 2

Filename F:\Music\Ripped\FLAC\Alkaline trio - 2008 - Agony And Irony Bonus Disc\02 - Maybe I'll Catch Fire (acoustic).wav

Peak level 97.7 %
Track quality 100.0 %
Test CRC 73DA71F7
Copy CRC 73DA71F7
Track not present in AccurateRip database
Copy OK

Track 3

Filename F:\Music\Ripped\FLAC\Alkaline trio - 2008 - Agony And Irony Bonus Disc\03 - Live Young, Die Fast (acoustic).wav

Peak level 97.7 %
Track quality 100.0 %
Test CRC 75A80896
Copy CRC 75A80896
Track not present in AccurateRip database
Copy OK

Track 4

Filename F:\Music\Ripped\FLAC\Alkaline trio - 2008 - Agony And Irony Bonus Disc\04 - Into the Night (acoustic).wav

Peak level 97.7 %
Track quality 99.9 %
Test CRC 9B47C2C1
Copy CRC 9B47C2C1
Track not present in AccurateRip database
Copy OK

Track 5

Filename F:\Music\Ripped\FLAC\Alkaline trio - 2008 - Agony And Irony Bonus Disc\05 - Over and Out (acoustic).wav

Peak level 97.7 %
Track quality 100.0 %
Test CRC 939421AD
Copy CRC 939421AD
Track not present in AccurateRip database
Copy OK

Track 6

Filename F:\Music\Ripped\FLAC\Alkaline trio - 2008 - Agony And Irony Bonus Disc\06 - Lost and Rendered (acoustic).wav

Peak level 97.7 %
Track quality 99.9 %
Test CRC 6C019EEA
Copy CRC 6C019EEA
Track not present in AccurateRip database
Copy OK

None of the tracks are present in the AccurateRip database

No errors occurred

End of status report
REM GENRE Punk 
REM DATE 2008
REM DISCID 3D04B006
REM COMMENT "ExactAudioCopy v0.99pb4"
PERFORMER "Alkaline trio"
TITLE "Agony And Irony Bonus Disc"
FILE "01 - Burned is the House.wav" WAVE
TRACK 01 AUDIO
TITLE "Burned is the House"
PERFORMER "Alkaline trio"
INDEX 01 00:00:00
FILE "02 - Maybe I'll Catch Fire (acoustic).wav" WAVE
TRACK 02 AUDIO
TITLE "Maybe I'll Catch Fire (acoustic)"
PERFORMER "Alkaline trio"
INDEX 01 00:00:00
FILE "03 - Live Young, Die Fast (acoustic).wav" WAVE
TRACK 03 AUDIO
TITLE "Live Young, Die Fast (acoustic)"
PERFORMER "Alkaline trio"
INDEX 01 00:00:00
FILE "04 - Into the Night (acoustic).wav" WAVE
TRACK 04 AUDIO
TITLE "Into the Night (acoustic)"
PERFORMER "Alkaline trio"
INDEX 01 00:00:00
FILE "05 - Over and Out (acoustic).wav" WAVE
TRACK 05 AUDIO
TITLE "Over and Out (acoustic)"
PERFORMER "Alkaline trio"
INDEX 01 00:00:00
FILE "06 - Lost and Rendered (acoustic).wav" WAVE
TRACK 06 AUDIO
TITLE "Lost and Rendered (acoustic)"
PERFORMER "Alkaline trio"
INDEX 01 00:00:00
01. This Addiction (2:35)
02. Dine, Dine My Darling (2:58)
03. Lead Poisonning (2:37)
04. Dead On The Floor (4:20)
05. The American Scream (3:00)
06. Off The Map (3:16)
07. Draculina (3:34)
08. Eating Me Alive (2:53)
09. Piss An Vinegar (2:28)
10. Dorothy (3:32)
11. Fine (3:20)
12. Kick Rocks (2:45)
13. Those lungs (3:49)
14. This Addiction (Acoustic) (2:38)
15. Dine, Dine My Darling (Acoustic) (3:00)
16. Dead On The Floor (Acoustic) (4:08)
17. Fine (Acoustic) (3:12)
Exact Audio Copy V0.99 prebeta 5 from 4. May 2009 

EAC extraction logfile from 22. February 2010, 14:59

Alkaline Trio / This Addiction (Deluxe Edition)

Used drive : PIONEER DVD-RW DVR-216D Adapter: 5 ID: 0

Read mode : Secure
Utilize accurate stream : Yes
Defeat audio cache : Yes
Make use of C2 pointers : No

Read offset correction : 96
Overread into Lead-In and Lead-Out : No
Fill up missing offset samples with silence : Yes
Delete leading and trailing silent blocks : No
Null samples used in CRC calculations : Yes
Used interface : Native Win32 interface for Win NT & 2000
Gap handling : Appended to previous track

Used output format : User Defined Encoder
Selected bitrate : 128 kBit/s
Quality : High
Add ID3 tag : No
Command line compressor : C:\Program Files\Exact Audio Copy\Flac\flac.exe
Additional command line options : -8 -V -T "ARTIST=%a" -T "TITLE=%t" -T "ALBUM=%g" -T "DATE=%y" -T "TRACKNUMBER=%n" -T "GENRE=%m" %s

TOC of the extracted CD

Track | Start | Length | Start sector | End sector
---------------------------------------------------------
1 | 0:00.00 | 2:34.65 | 0 | 11614
2 | 2:34.65 | 2:58.02 | 11615 | 24966
3 | 5:32.67 | 2:37.33 | 24967 | 36774
4 | 8:10.25 | 4:20.01 | 36775 | 56275
5 | 12:30.26 | 2:59.65 | 56276 | 69765
6 | 15:30.16 | 3:15.71 | 69766 | 84461
7 | 18:46.12 | 3:33.58 | 84462 | 100494
8 | 22:19.70 | 2:53.12 | 100495 | 113481
9 | 25:13.07 | 2:27.55 | 113482 | 124561
10 | 27:40.62 | 3:31.42 | 124562 | 140428
11 | 31:12.29 | 3:19.42 | 140429 | 155395
12 | 34:31.71 | 2:44.53 | 155396 | 167748
13 | 37:16.49 | 3:49.34 | 167749 | 184957
14 | 41:06.08 | 2:37.40 | 184958 | 196772
15 | 43:43.48 | 2:59.44 | 196773 | 210241
16 | 46:43.17 | 4:07.62 | 210242 | 228828
17 | 50:51.04 | 3:12.07 | 228829 | 243235

Track 1

Filename U:\EAC_RIPS\01 - This Addiction.wav

Pre-gap length 0:00:02.00

Peak level 100.0 %
Track quality 100.0 %
Test CRC 65AB092C
Copy CRC 65AB092C
Track not present in AccurateRip database
Copy OK

Track 2

Filename U:\EAC_RIPS\02 - Dine, Dine My Darling.wav

Peak level 100.0 %
Track quality 100.0 %
Test CRC 8E4AE4C8
Copy CRC 8E4AE4C8
Track not present in AccurateRip database
Copy OK

Track 3

Filename U:\EAC_RIPS\03 - Lead Poisonning.wav

Peak level 100.0 %
Track quality 100.0 %
Test CRC EAC0D9B7
Copy CRC EAC0D9B7
Track not present in AccurateRip database
Copy OK

Track 4

Filename U:\EAC_RIPS\04 - Dead On The Floor.wav

Peak level 100.0 %
Track quality 99.9 %
Test CRC A26BEAAB
Copy CRC A26BEAAB
Track not present in AccurateRip database
Copy OK

Track 5

Filename U:\EAC_RIPS\05 - The American Scream.wav

Peak level 100.0 %
Track quality 100.0 %
Test CRC 47E4ADA8
Copy CRC 47E4ADA8
Track not present in AccurateRip database
Copy OK

Track 6

Filename U:\EAC_RIPS\06 - Off The Map.wav

Peak level 100.0 %
Track quality 100.0 %
Test CRC 72ED9554
Copy CRC 72ED9554
Track not present in AccurateRip database
Copy OK

Track 7

Filename U:\EAC_RIPS\07 - Draculina.wav

Peak level 100.0 %
Track quality 100.0 %
Test CRC 414044A5
Copy CRC 414044A5
Track not present in AccurateRip database
Copy OK

Track 8

Filename U:\EAC_RIPS\08 - Eating Me Alive.wav

Peak level 100.0 %
Track quality 100.0 %
Test CRC 45CF07CF
Copy CRC 45CF07CF
Track not present in AccurateRip database
Copy OK

Track 9

Filename U:\EAC_RIPS\09 - Piss An Vinegar.wav

Peak level 100.0 %
Track quality 99.9 %
Test CRC 9E8B76A8
Copy CRC 9E8B76A8
Track not present in AccurateRip database
Copy OK

Track 10

Filename U:\EAC_RIPS\10 - Dorothy.wav

Peak level 100.0 %
Track quality 100.0 %
Test CRC 2B0E55D8
Copy CRC 2B0E55D8
Track not present in AccurateRip database
Copy OK

Track 11

Filename U:\EAC_RIPS\11 - Fine.wav

Peak level 100.0 %
Track quality 99.9 %
Test CRC F0F36177
Copy CRC F0F36177
Track not present in AccurateRip database
Copy OK

Track 12

Filename U:\EAC_RIPS\12 - Kick Rocks.wav

Pre-gap length 0:00:02.78

Peak level 100.0 %
Track quality 99.9 %
Test CRC 436CF067
Copy CRC 436CF067
Track not present in AccurateRip database
Copy OK

Track 13

Filename U:\EAC_RIPS\13 - Those lungs.wav

Peak level 100.0 %
Track quality 99.9 %
Test CRC 8369F6E6
Copy CRC 8369F6E6
Track not present in AccurateRip database
Copy OK

Track 14

Filename U:\EAC_RIPS\14 - This Addiction (Acoustic).wav

Peak level 99.9 %
Track quality 100.0 %
Test CRC 8F3CE16D
Copy CRC 8F3CE16D
Track not present in AccurateRip database
Copy OK

Track 15

Filename U:\EAC_RIPS\15 - Dine, Dine My Darling (Acoustic).wav

Peak level 98.8 %
Track quality 100.0 %
Test CRC 2380AD08
Copy CRC 2380AD08
Track not present in AccurateRip database
Copy OK

Track 16

Filename U:\EAC_RIPS\16 - Dead On The Floor (Acoustic).wav

Peak level 99.9 %
Track quality 100.0 %
Test CRC DEE688FC
Copy CRC DEE688FC
Track not present in AccurateRip database
Copy OK

Track 17

Filename U:\EAC_RIPS\17 - Fine (Acoustic).wav

Peak level 99.9 %
Track quality 100.0 %
Test CRC 529825F0
Copy CRC 529825F0
Track not present in AccurateRip database
Copy OK

None of the tracks are present in the AccurateRip database

No errors occurred

End of status report
REM GENRE "Punk Rock" 
REM DATE 2010
REM DISCID DF0CAB11
REM COMMENT "ExactAudioCopy v0.99pb5"
PERFORMER "Alkaline Trio"
TITLE "This Addiction (Deluxe Edition)"
FILE "01 - This Addiction.wav" WAVE
TRACK 01 AUDIO
TITLE "This Addiction"
PERFORMER "Alkaline Trio"
INDEX 01 00:00:00
FILE "02 - Dine, Dine My Darling.wav" WAVE
TRACK 02 AUDIO
TITLE "Dine, Dine My Darling"
PERFORMER "Alkaline Trio"
INDEX 01 00:00:00
FILE "03 - Lead Poisonning.wav" WAVE
TRACK 03 AUDIO
TITLE "Lead Poisonning"
PERFORMER "Alkaline Trio"
INDEX 01 00:00:00
FILE "04 - Dead On The Floor.wav" WAVE
TRACK 04 AUDIO
TITLE "Dead On The Floor"
PERFORMER "Alkaline Trio"
INDEX 01 00:00:00
FILE "05 - The American Scream.wav" WAVE
TRACK 05 AUDIO
TITLE "The American Scream"
PERFORMER "Alkaline Trio"
INDEX 01 00:00:00
FILE "06 - Off The Map.wav" WAVE
TRACK 06 AUDIO
TITLE "Off The Map"
PERFORMER "Alkaline Trio"
INDEX 01 00:00:00
FILE "07 - Draculina.wav" WAVE
TRACK 07 AUDIO
TITLE "Draculina"
PERFORMER "Alkaline Trio"
INDEX 01 00:00:00
FILE "08 - Eating Me Alive.wav" WAVE
TRACK 08 AUDIO
TITLE "Eating Me Alive"
PERFORMER "Alkaline Trio"
INDEX 01 00:00:00
FILE "09 - Piss An Vinegar.wav" WAVE
TRACK 09 AUDIO
TITLE "Piss An Vinegar"
PERFORMER "Alkaline Trio"
INDEX 01 00:00:00
FILE "10 - Dorothy.wav" WAVE
TRACK 10 AUDIO
TITLE "Dorothy"
PERFORMER "Alkaline Trio"
INDEX 01 00:00:00
FILE "11 - Fine.wav" WAVE
TRACK 11 AUDIO
TITLE "Fine"
PERFORMER "Alkaline Trio"
INDEX 01 00:00:00
TRACK 12 AUDIO
TITLE "Kick Rocks"
PERFORMER "Alkaline Trio"
INDEX 00 03:16:58
FILE "12 - Kick Rocks.wav" WAVE
INDEX 01 00:00:00
FILE "13 - Those lungs.wav" WAVE
TRACK 13 AUDIO
TITLE "Those lungs"
PERFORMER "Alkaline Trio"
INDEX 01 00:00:00
FILE "14 - This Addiction (Acoustic).wav" WAVE
TRACK 14 AUDIO
TITLE "This Addiction (Acoustic)"
PERFORMER "Alkaline Trio"
INDEX 01 00:00:00
FILE "15 - Dine, Dine My Darling (Acoustic).wav" WAVE
TRACK 15 AUDIO
TITLE "Dine, Dine My Darling (Acoustic)"
PERFORMER "Alkaline Trio"
INDEX 01 00:00:00
FILE "16 - Dead On The Floor (Acoustic).wav" WAVE
TRACK 16 AUDIO
TITLE "Dead On The Floor (Acoustic)"
PERFORMER "Alkaline Trio"
INDEX 01 00:00:00
FILE "17 - Fine (Acoustic).wav" WAVE
TRACK 17 AUDIO
TITLE "Fine (Acoustic)"
PERFORMER "Alkaline Trio"
INDEX 01 00:00:00
01. Calling All Skeletons (3:31)
02. Nose Over Tail (2:42)
03. This Could Be Love (4:26)
04. Every Thug Needs A Lady (3:42)
05. Clavicle (2:39)
06. Mercy Me (3:02)
07. The American Scream (3:16)
08. We've Had Enough (2:49)
09. Olde English 800 (1:37)
10. I Held Her In My Arms (2:44)
11. Blue In The Face (3:41)
12. I Remember A Rooftop (3:39)
13. Private Eye (3:47)
14. You've Got So Far To Go (3:12)
15. Radio (5:23)
Exact Audio Copy V1.0 beta 2 from 29. April 2011 

EAC extraction logfile from 9. July 2011, 18:41

Alkaline Trio / Damnesia

Used drive : HL-DT-STDVD-RAM GH22NP20 Adapter: 0 ID: 0

Read mode : Secure
Utilize accurate stream : Yes
Defeat audio cache : Yes
Make use of C2 pointers : No

Read offset correction : 102
Overread into Lead-In and Lead-Out : No
Fill up missing offset samples with silence : Yes
Delete leading and trailing silent blocks : No
Null samples used in CRC calculations : Yes
Used interface : Native Win32 interface for Win NT & 2000
Gap handling : Appended to previous track

Used output format : User Defined Encoder
Selected bitrate : 256 kBit/s
Quality : High
Add ID3 tag : No
Command line compressor : C:\Program Files (x86)\Exact Audio Copy\Flac\flac.exe
Additional command line options : -8 -V -T "ARTIST=%artist%" -T "TITLE=%title%" -T "ALBUM=%albumtitle%" -T "DATE=%year%" -T "TRACKNUMBER=%tracknr%" -T "TOTALTRACKS=%numtracks%" -T "GENRE=%genre%" -T "ALBUMARTIST=%albumartist%" -T "ALBUM ARTIST=%albumartist%

TOC of the extracted CD

Track | Start | Length | Start sector | End sector
---------------------------------------------------------
1 | 0:00.00 | 3:31.04 | 0 | 15828
2 | 3:31.04 | 2:42.00 | 15829 | 27978
3 | 6:13.04 | 4:26.15 | 27979 | 47943
4 | 10:39.19 | 3:41.72 | 47944 | 64590
5 | 14:21.16 | 2:38.72 | 64591 | 76512
6 | 17:00.13 | 3:02.35 | 76513 | 90197
7 | 20:02.48 | 3:15.67 | 90198 | 104889
8 | 23:18.40 | 2:48.50 | 104890 | 117539
9 | 26:07.15 | 1:37.31 | 117540 | 124845
10 | 27:44.46 | 2:43.69 | 124846 | 137139
11 | 30:28.40 | 3:40.42 | 137140 | 153681
12 | 34:09.07 | 3:38.55 | 153682 | 170086
13 | 37:47.62 | 3:47.27 | 170087 | 187138
14 | 41:35.14 | 3:12.16 | 187139 | 201554
15 | 44:47.30 | 5:23.14 | 201555 | 225793

Track 1

Filename D:\Rips\Alkaline Trio - Damnesia (2011) [FLAC]\01 - Calling All Skeletons.wav

Pre-gap length 0:00:02.00

Peak level 100.0 %
Extraction speed 1.5 X
Track quality 100.0 %
Test CRC 6BC4307D
Copy CRC 6BC4307D
Track not present in AccurateRip database
Copy OK

Track 2

Filename D:\Rips\Alkaline Trio - Damnesia (2011) [FLAC]\02 - Nose Over Tail.wav

Peak level 100.0 %
Extraction speed 1.3 X
Track quality 99.9 %
Test CRC 7E49B873
Copy CRC 7E49B873
Track not present in AccurateRip database
Copy OK

Track 3

Filename D:\Rips\Alkaline Trio - Damnesia (2011) [FLAC]\03 - This Could Be Love.wav

Peak level 100.0 %
Extraction speed 1.8 X
Track quality 100.0 %
Test CRC 1511B1BC
Copy CRC 1511B1BC
Track not present in AccurateRip database
Copy OK

Track 4

Filename D:\Rips\Alkaline Trio - Damnesia (2011) [FLAC]\04 - Every Thug Needs A Lady.wav

Peak level 100.0 %
Extraction speed 1.9 X
Track quality 100.0 %
Test CRC 3C9BA1A6
Copy CRC 3C9BA1A6
Track not present in AccurateRip database
Copy OK

Track 5

Filename D:\Rips\Alkaline Trio - Damnesia (2011) [FLAC]\05 - Clavicle.wav

Peak level 100.0 %
Extraction speed 1.9 X
Track quality 100.0 %
Test CRC 8F093662
Copy CRC 8F093662
Track not present in AccurateRip database
Copy OK

Track 6

Filename D:\Rips\Alkaline Trio - Damnesia (2011) [FLAC]\06 - Mercy Me.wav

Peak level 100.0 %
Extraction speed 2.1 X
Track quality 100.0 %
Test CRC A92538B6
Copy CRC A92538B6
Track not present in AccurateRip database
Copy OK

Track 7

Filename D:\Rips\Alkaline Trio - Damnesia (2011) [FLAC]\07 - The American Scream.wav

Peak level 100.0 %
Extraction speed 1.9 X
Track quality 99.9 %
Test CRC 0368219B
Copy CRC 0368219B
Track not present in AccurateRip database
Copy OK

Track 8

Filename D:\Rips\Alkaline Trio - Damnesia (2011) [FLAC]\08 - We've Had Enough.wav

Peak level 100.0 %
Extraction speed 1.9 X
Track quality 99.9 %
Test CRC 8D4AB60E
Copy CRC 8D4AB60E
Track not present in AccurateRip database
Copy OK

Track 9

Filename D:\Rips\Alkaline Trio - Damnesia (2011) [FLAC]\09 - Olde English 800.wav

Peak level 100.0 %
Extraction speed 2.0 X
Track quality 100.0 %
Test CRC C287E96A
Copy CRC C287E96A
Track not present in AccurateRip database
Copy OK

Track 10

Filename D:\Rips\Alkaline Trio - Damnesia (2011) [FLAC]\10 - I Held Her In My Arms.wav

Peak level 100.0 %
Extraction speed 2.3 X
Track quality 100.0 %
Test CRC 7FF5E762
Copy CRC 7FF5E762
Track not present in AccurateRip database
Copy OK

Track 11

Filename D:\Rips\Alkaline Trio - Damnesia (2011) [FLAC]\11 - Blue In The Face.wav

Peak level 100.0 %
Extraction speed 2.5 X
Track quality 100.0 %
Test CRC 24E4E87A
Copy CRC 24E4E87A
Track not present in AccurateRip database
Copy OK

Track 12

Filename D:\Rips\Alkaline Trio - Damnesia (2011) [FLAC]\12 - I Remember A Rooftop.wav

Peak level 100.0 %
Extraction speed 2.6 X
Track quality 100.0 %
Test CRC 81113F14
Copy CRC 81113F14
Track not present in AccurateRip database
Copy OK

Track 13

Filename D:\Rips\Alkaline Trio - Damnesia (2011) [FLAC]\13 - Private Eye.wav

Peak level 100.0 %
Extraction speed 2.7 X
Track quality 100.0 %
Test CRC 5F72E64C
Copy CRC 5F72E64C
Track not present in AccurateRip database
Copy OK

Track 14

Filename D:\Rips\Alkaline Trio - Damnesia (2011) [FLAC]\14 - You've Got So Far To Go.wav

Peak level 100.0 %
Extraction speed 2.3 X
Track quality 99.9 %
Test CRC A0766004
Copy CRC A0766004
Track not present in AccurateRip database
Copy OK

Track 15

Filename D:\Rips\Alkaline Trio - Damnesia (2011) [FLAC]\15 - Radio.wav

Peak level 100.0 %
Extraction speed 3.0 X
Track quality 100.0 %
Test CRC 1BE288C3
Copy CRC 1BE288C3
Track not present in AccurateRip database
Copy OK

None of the tracks are present in the AccurateRip database

No errors occurred

End of status report

==== Log checksum B01F50AEAB978B10143F3157017D98669614355684E64430AED0E14DB72622D2 ====
REM GENRE Acoustic 
REM DATE 2011
REM DISCID C20BC20F
REM COMMENT "ExactAudioCopy v1.0b2"
PERFORMER "Alkaline Trio"
TITLE "Damnesia"
FILE "01 - Calling All Skeletons.wav" WAVE
TRACK 01 AUDIO
TITLE "Calling All Skeletons"
PERFORMER "Alkaline Trio"
FLAGS DCP
INDEX 01 00:00:00
FILE "02 - Nose Over Tail.wav" WAVE
TRACK 02 AUDIO
TITLE "Nose Over Tail"
PERFORMER "Alkaline Trio"
FLAGS DCP
INDEX 01 00:00:00
FILE "03 - This Could Be Love.wav" WAVE
TRACK 03 AUDIO
TITLE "This Could Be Love"
PERFORMER "Alkaline Trio"
FLAGS DCP
INDEX 01 00:00:00
FILE "04 - Every Thug Needs A Lady.wav" WAVE
TRACK 04 AUDIO
TITLE "Every Thug Needs A Lady"
PERFORMER "Alkaline Trio"
FLAGS DCP
INDEX 01 00:00:00
FILE "05 - Clavicle.wav" WAVE
TRACK 05 AUDIO
TITLE "Clavicle"
PERFORMER "Alkaline Trio"
FLAGS DCP
INDEX 01 00:00:00
FILE "06 - Mercy Me.wav" WAVE
TRACK 06 AUDIO
TITLE "Mercy Me"
PERFORMER "Alkaline Trio"
FLAGS DCP
INDEX 01 00:00:00
FILE "07 - The American Scream.wav" WAVE
TRACK 07 AUDIO
TITLE "The American Scream"
PERFORMER "Alkaline Trio"
FLAGS DCP
INDEX 01 00:00:00
FILE "08 - We've Had Enough.wav" WAVE
TRACK 08 AUDIO
TITLE "We've Had Enough"
PERFORMER "Alkaline Trio"
FLAGS DCP
INDEX 01 00:00:00
FILE "09 - Olde English 800.wav" WAVE
TRACK 09 AUDIO
TITLE "Olde English 800"
PERFORMER "Alkaline Trio"
FLAGS DCP
INDEX 01 00:00:00
FILE "10 - I Held Her In My Arms.wav" WAVE
TRACK 10 AUDIO
TITLE "I Held Her In My Arms"
PERFORMER "Alkaline Trio"
FLAGS DCP
INDEX 01 00:00:00
FILE "11 - Blue In The Face.wav" WAVE
TRACK 11 AUDIO
TITLE "Blue In The Face"
PERFORMER "Alkaline Trio"
FLAGS DCP
INDEX 01 00:00:00
FILE "12 - I Remember A Rooftop.wav" WAVE
TRACK 12 AUDIO
TITLE "I Remember A Rooftop"
PERFORMER "Alkaline Trio"
FLAGS DCP
INDEX 01 00:00:00
FILE "13 - Private Eye.wav" WAVE
TRACK 13 AUDIO
TITLE "Private Eye"
PERFORMER "Alkaline Trio"
FLAGS DCP
INDEX 01 00:00:00
FILE "14 - You've Got So Far To Go.wav" WAVE
TRACK 14 AUDIO
TITLE "You've Got So Far To Go"
PERFORMER "Alkaline Trio"
FLAGS DCP
INDEX 01 00:00:00
FILE "15 - Radio.wav" WAVE
TRACK 15 AUDIO
TITLE "Radio"
PERFORMER "Alkaline Trio"
FLAGS DCP
INDEX 01 00:00:00
01. She Lied to the FBI (2:49)
02. I Wanna Be a Warhol (3:07)
03. I'm Only Here to Disappoint (2:46)
04. Kiss You to Death (3:21)
05. The Temptation of St. Anthony (3:35)
06. I, Pessimist (2:11)
07. Only Love (4:36)
08. The Torture Doctor (3:38)
09. Midnight Blue (2:45)
10. One Last Dance (3:29)
11. Young Lovers (3:31)
12. Until Death Do Us Part (4:11)
13. Balanced On a Shelf (4:06)
14. Pocket Knife (2:43)
15. Broken Wing (3:28)
16. Sun Burns (3:42)
Lossless Audio Checker 2.0.6 logfile from Tuesday 11 July 2017 09:49:12 PM 

File: H:\Music (lossless)\Alkaline Trio\2013 - My Shame Is True\01 - She Lied to the FBI.flac
Result: Clean

File: H:\Music (lossless)\Alkaline Trio\2013 - My Shame Is True\02 - I Wanna Be a Warhol.flac
Result: Clean

File: H:\Music (lossless)\Alkaline Trio\2013 - My Shame Is True\03 - I'm Only Here to Disappoint.flac
Result: Clean

File: H:\Music (lossless)\Alkaline Trio\2013 - My Shame Is True\04 - Kiss You to Death.flac
Result: Clean

File: H:\Music (lossless)\Alkaline Trio\2013 - My Shame Is True\05 - The Temptation of St. Anthony.flac
Result: Clean

File: H:\Music (lossless)\Alkaline Trio\2013 - My Shame Is True\06 - I, Pessimist.flac
Result: Clean

File: H:\Music (lossless)\Alkaline Trio\2013 - My Shame Is True\07 - Only Love.flac
Result: Clean

File: H:\Music (lossless)\Alkaline Trio\2013 - My Shame Is True\08 - The Torture Doctor.flac
Result: Clean

File: H:\Music (lossless)\Alkaline Trio\2013 - My Shame Is True\09 - Midnight Blue.flac
Result: Clean

File: H:\Music (lossless)\Alkaline Trio\2013 - My Shame Is True\10 - One Last Dance.flac
Result: Clean

File: H:\Music (lossless)\Alkaline Trio\2013 - My Shame Is True\11 - Young Lovers.flac
Result: Clean

File: H:\Music (lossless)\Alkaline Trio\2013 - My Shame Is True\12 - Until Death Do Us Part.flac
Result: Clean

File: H:\Music (lossless)\Alkaline Trio\2013 - My Shame Is True\13 - Balanced On a Shelf.flac
Result: Clean

File: H:\Music (lossless)\Alkaline Trio\2013 - My Shame Is True\14 - Pocket Knife.flac
Result: Clean

File: H:\Music (lossless)\Alkaline Trio\2013 - My Shame Is True\15 - Broken Wing.flac
Result: Clean

File: H:\Music (lossless)\Alkaline Trio\2013 - My Shame Is True\16 - Sun Burns.flac
Result: Clean

info [Профиль]  [ЛС] 
Показать сообщения:    
Ответить на тему

Текущее время: 22-Сен 01:22

Часовой пояс: GMT + 4



Вы не можете начинать темы
Вы не можете отвечать на сообщения
Вы не можете редактировать свои сообщения
Вы не можете удалять свои сообщения
Вы не можете голосовать в опросах
Вы не можете прикреплять файлы к сообщениям
Вы не можете скачивать файлы