Ошибка

Повелители времени / Chronos Ruler / Jikan no Shihaisha [TV] [1-1 из 12] [2017] [приключения, комедия, сверхъестественное] [WEBRip] [720p] [Профессиональный]

Ответить на тему
 
Автор Сообщение

NovA_JKE

Пол: Пол:Жен

Стаж: 7 лет 4 месяца

Сообщений: 497

Антарктида
Рейтинг

post 10-Июл-2017 19:49 0[+]

[Цитировать] 

pic="http://savepic.ru/14765821.gif"
Повелители времени | Chronos Ruler | Jikan no Shihaisha

Год выпуска: 2017
Страна: Япония
Жанр: приключения, комедия, сверхъестественное
Тип: TV
Продолжительность: 12 эп. x 25 мин.
Студия:
Режиссер: Мацунэ Масато
Автор оригинала: Пон Цзе
Релиз: студия Kansai
Перевод: Руслан Тарасов
Озвучивание: многоголосое закадровое


Описание: Повелители Времени сражаются с демонами, пожирающими время. Эти демоны являются людям, когда те решают обратить время вспять. Победит Повелитель Времени или нет – решают его навыки управления временем. Ведь если он уступит демону хоть на мгновение… его ждет неминуемая смерть.
Дополнительная информация:


Качество: WEBRip
Формат: mkv
Видео: h.264; 8 bit; 1280x720; 23,976 fps; ~2727 kbps
Аудио:
  1. RU: AAC-LC 2.0, 48 kHz, ~256 kbps
Субтитры: нет
  1. Бытие и небытие.

Код:

Общее
Полное имя                               : P:\NovA_JKE\Аниме\!DL Jikan no Shihaisha (Повелители времени) [HDTV, Студия KANSAI]\[KANSAI] Jikan no Shihaisha - 01 [720p].mp4
Формат                                   : MPEG-4
Профиль формата                          : Base Media
Идентификатор кодека                     : isom (isom)
Размер файла                             : 516 Мбайт
Продолжительность                        : 24 м. 0 с.
Режим общего битрейта                    : Переменный
Общий поток                              : 3004 Кбит/сек
Дата кодирования                         : UTC 2017-07-09 13:03:53
Дата пометки                             : UTC 2017-07-09 13:03:53
Программа кодирования                    : Yamb 2.1.0.0 [http://yamb.unite-video.com]

Видео
Идентификатор                            : 1
Формат                                   : AVC
Формат/Информация                        : Advanced Video Codec
Профиль формата                          : Main@L4.1
Параметр CABAC формата                   : Да
Параметр ReFrames формата                : 4 кадра
Идентификатор кодека                     : avc1
Идентификатор кодека/Информация          : Advanced Video Coding
Продолжительность                        : 24 м. 0 с.
Битрейт                                  : 2727 Кбит/сек
Максимальный битрейт                     : 13,0 Мбит/сек
Ширина                                   : 1280 пикселей
Высота                                   : 720 пикселей
Соотношение сторон                       : 16:9
Режим частоты кадров                     : Переменный
Частота кадров                           : 23,976 (23976/1000) кадра/сек
Минимальная частота кадров               : 12,195 кадров/сек
Максимальная частота кадров              : 24,390 кадра/сек
Частота кадров в оригинале               : 23,976 (24000/1001) кадра/сек
Цветовое пространство                    : YUV
Субдискретизация насыщенности            : 4:2:0
Битовая глубина                          : 8 бит
Тип развёртки                            : Прогрессивная
Бит/(Пиксели*Кадры)                      : 0.123
Размер потока                            : 468 Мбайт (91%)
Заголовок                                : https://kansai.studio
Библиотека кодирования                   : x264 core 152 r2851+58 429492e t_mod_Custom [8-bit@all X86_64]
Настройки программы                      : cabac=1 / ref=3 / deblock=1:0:0 / analyse=0x1:0x111 / me=hex / subme=7 / psy=1 / fade_compensate=0.00 / psy_rd=1.00:0.00 / mixed_ref=1 / me_range=16 / chroma_me=1 / trellis=1 / 8x8dct=0 / cqm=0 / deadzone=21,11 / fast_pskip=1 / chroma_qp_offset=-2 / threads=12 / lookahead_threads=2 / sliced_threads=0 / nr=0 / decimate=1 / interlaced=0 / bluray_compat=0 / constrained_intra=0 / fgo=0 / bframes=3 / b_pyramid=2 / b_adapt=1 / b_bias=0 / direct=1 / weightb=1 / open_gop=0 / weightp=2 / keyint=240 / keyint_min=1 / scenecut=40 / intra_refresh=0 / rc_lookahead=40 / rc=crf / mbtree=1 / crf=20.0000 / qcomp=0.60 / qpmin=0:0:0 / qpmax=69:69:69 / qpstep=4 / ip_ratio=1.40 / aq=1:1.50 / aq-sensitivity=10.00 / aq-factor=1.00:1.00:1.00 / aq2=0 / aq3=0
Язык                                     : Japanese
Дата кодирования                         : UTC 2017-07-07 16:05:05
Дата пометки                             : UTC 2017-07-09 13:04:55
Цветовой диапазон                        : Limited
Основные цвета                           : BT.709
Характеристики трансфера                 : BT.709
Коэффициенты матрицы                     : BT.709

Аудио
Идентификатор                            : 2
Формат                                   : AAC
Формат/Информация                        : Advanced Audio Codec
Профиль формата                          : LC
Идентификатор кодека                     : 40
Продолжительность                        : 24 м. 0 с.
Вид битрейта                             : Переменный
Битрейт                                  : 272 Кбит/сек
Максимальный битрейт                     : 413 Кбит/сек
Каналы                                   : 2 канала
Расположение каналов                     : Front: L R
Частота                                  : 48,0 КГц
Частота кадров                           : 46,875 кадров/сек (1024 spf)
Метод сжатия                             : С потерями
Размер потока                            : 46,7 Мбайт (9%)
Заголовок                                : KANSAI Studio
Язык                                     : Russian
Дата кодирования                         : UTC 2017-07-09 13:04:50
Дата пометки                             : UTC 2017-07-09 13:04:55
info [Профиль]  [ЛС] 
Показать сообщения:    
Ответить на тему

Текущее время: 20-Июл 18:33

Часовой пояс: GMT + 4



Вы не можете начинать темы
Вы не можете отвечать на сообщения
Вы не можете редактировать свои сообщения
Вы не можете удалять свои сообщения
Вы не можете голосовать в опросах
Вы не можете прикреплять файлы к сообщениям
Вы не можете скачивать файлы