Ошибка
Загрузка...

Любовь и ложь / Love and Lies / Koi to Uso [TV] [1-10 из 12] [2017] [драма, романтика, школа] [WEBRip] [720p] [Профессиональный] MVO Kansai

Ответить на тему
 
Автор Сообщение

NovA_JKE

Пол: Пол:Жен

Стаж: 7 лет 6 месяцев

Сообщений: 607

Антарктида
Рейтинг

post 08-Июл-2017 13:46 0[+]

[Цитировать] 

pic="https://image.ibb.co/bTVksF/koi_to_uso.gif"


Любовь и ложь | Love and Lies | Koi to Uso

Год выпуска: 2017
Страна: Япония
Жанр: драма, романтика, школа
Тип: TV
Продолжительность: 12 эп. x 25 мин.
Студия:
Режиссер: Такуно Сэйки
Автор оригинала: Мусао
Релиз: студия Kansai
Перевод: Елизавета Захарьева
Озвучивание: многоголосое закадровое


Описание: Ложь запрещена. А любовь – запрещена вдвойне. В ближайшем будущем, когда подростки достигают 16 лет, правительство само назначает им партнера для брака. Людям больше не надо проходить через трудности, ища себе вторую половинку, и в обществе царит вера, что государство сможет найти им пару, которая сделает их счастливыми. Юкари Нейджима – 15-летний подросток, он живет в небольшом районе страны и совсем не может преуспеть в жизни: и в науке, и в спорте его результаты ниже среднего. Однако, внутри него прячется сердце, пылающее страстью. В мире, где любовь под запретом, что с ним станет… когда он влюбится?
Дополнительная информация:


Качество: WEBRip
Формат: mkv
Видео: h.264; 8 bit; 1280x720; 23,976 fps; ~1290 kbps
Аудио:
  1. RU: AAC-LC 2.0, 48 kHz, ~256 kbps
Субтитры: нет
  1. Первая любовь.
  2. Маленькая ложь.
  3. Overlooked Love.
  4. The Science of Love.
  5. Risky Love.
  6. A Prison to Compel Love.
  7. A Silent Lie.
  8. Feelings Without Lies.
  9. So Bright It Doesn`t Seem Real.
  10. A Love to Give Everything For.

Код:

Общее
Уникальный идентификатор                 : 247855896397539305388024278499963044578 (0xBA774F2CBE9453F8A5F1C3AE792A02E2)
Полное имя                               : P:\NovA_JKE\Аниме\!DL Koi to Uso (Любовь и ложь) [WEBRip 720p, Студия KANSAI]\[KANSAI] Koi to Uso TV - 01 [720p].mkv
Формат                                   : Matroska
Версия формата                           : Version 4 / Version 2
Размер файла                             : 266 Мбайт
Продолжительность                        : 23 м. 59 с.
Режим общего битрейта                    : Переменный
Общий поток                              : 1552 Кбит/сек
Дата кодирования                         : UTC 2017-07-04 20:34:17
Программа кодирования                    : mkvmerge v12.0.0 ('Trust / Lust') 64bit
Библиотека кодирования                   : libebml v1.3.4 + libmatroska v1.4.5
Attachments                              : OpenSans-Semibold.ttf

Видео
Идентификатор                            : 1
Формат                                   : AVC
Формат/Информация                        : Advanced Video Codec
Профиль формата                          : High@L3.1
Параметр CABAC формата                   : Да
Параметр ReFrames формата                : 5 кадров
Идентификатор кодека                     : V_MPEG4/ISO/AVC
Продолжительность                        : 23 м. 59 с.
Вид битрейта                             : Переменный
Битрейт                                  : 1290 Кбит/сек
Максимальный битрейт                     : 4500 Кбит/сек
Ширина                                   : 1280 пикселей
Высота                                   : 720 пикселей
Соотношение сторон                       : 16:9
Режим частоты кадров                     : Постоянный
Частота кадров                           : 23,976 (24000/1001) кадра/сек
Цветовое пространство                    : YUV
Субдискретизация насыщенности            : 4:2:0
Битовая глубина                          : 8 бит
Тип развёртки                            : Прогрессивная
Бит/(Пиксели*Кадры)                      : 0.058
Размер потока                            : 221 Мбайт (83%)
Заголовок                                : https://kansai.studio
Язык                                     : Japanese
Default                                  : Да
Forced                                   : Нет
Цветовой диапазон                        : Limited
Основные цвета                           : BT.709
Характеристики трансфера                 : BT.709
Коэффициенты матрицы                     : BT.709

Аудио
Идентификатор                            : 2
Формат                                   : AAC
Формат/Информация                        : Advanced Audio Codec
Профиль формата                          : LC
Идентификатор кодека                     : A_AAC
Продолжительность                        : 23 м. 59 с.
Битрейт                                  : 259 Кбит/сек
Каналы                                   : 2 канала
Расположение каналов                     : Front: L R
Частота                                  : 48,0 КГц
Частота кадров                           : 46,875 кадров/сек (1024 spf)
Метод сжатия                             : С потерями
Размер потока                            : 44,4 Мбайт (17%)
Заголовок                                : KANSAI Studio
Язык                                     : Russian
Default                                  : Да
Forced                                   : Нет
info [Профиль]  [ЛС] 

franck

Пол: Пол:Муж

Стаж: 7 лет 10 месяцев

Сообщений: 174

Украина
Рейтинг

post 09-Июл-2017 15:57 (спустя 1 день 2 часа) [-]3[+]

[Цитировать] 

Чего ж глаза то такие стеклянные

_________________
info [Профиль]  [ЛС] 

Postall

Стаж: 7 лет 11 месяцев

Сообщений: 65

Куба
Рейтинг

post 10-Июл-2017 00:24 (спустя 8 часов) [-]-5[+]

[Цитировать] 

Глаза вообще больше чем обычно преувеличенные ИМХО.

_________________
info [Профиль]  [ЛС] 

NovA_JKE

Пол: Пол:Жен

Стаж: 7 лет 6 месяцев

Сообщений: 607

Антарктида
Рейтинг

post 10-Июл-2017 01:07 (спустя 43 минуты) [-]0[+]

[Цитировать] 

мм, глаза.. https://mangaclub.ru/manga/view/599-franken-fran/v-c37.html#01
info [Профиль]  [ЛС] 

NovA_JKE

Пол: Пол:Жен

Стаж: 7 лет 6 месяцев

Сообщений: 607

Антарктида
Рейтинг

post 13-Июл-2017 20:44 (спустя 3 дня) [-]0[+]

[Цитировать] 

Добавлена 2-я сeрия.
info [Профиль]  [ЛС] 

Big Bonus Internet

Пол: Пол:Муж

Стаж: 7 лет 8 месяцев

Сообщений: 69

Россия
Рейтинг

post 15-Июл-2017 14:29 (спустя 1 день 17 часов) [-]2[+]

[Цитировать] 

Анимеха довольно забавная.
Давно Kansai вставляет аудиорекламу? В первый раз такое вижу.
info [Профиль]  [ЛС] 

NovA_JKE

Пол: Пол:Жен

Стаж: 7 лет 6 месяцев

Сообщений: 607

Антарктида
Рейтинг

post 19-Июл-2017 23:40 (спустя 4 дня) [-]0[+]

[Цитировать] 

Добавлена 3-я сeрия.
info [Профиль]  [ЛС] 

NovA_JKE

Пол: Пол:Жен

Стаж: 7 лет 6 месяцев

Сообщений: 607

Антарктида
Рейтинг

post 26-Июл-2017 19:07 (спустя 6 дней) [-]0[+]

[Цитировать] 

Добавлена 4-я сeрия.
info [Профиль]  [ЛС] 

NovA_JKE

Пол: Пол:Жен

Стаж: 7 лет 6 месяцев

Сообщений: 607

Антарктида
Рейтинг

post 17-Авг-2017 21:46 (спустя 22 дня) [-]0[+]

[Цитировать] 

Добавлены 5-7 сeрии.
info [Профиль]  [ЛС] 

NovA_JKE

Пол: Пол:Жен

Стаж: 7 лет 6 месяцев

Сообщений: 607

Антарктида
Рейтинг

post 01-Сен-2017 00:57 (спустя 14 дней) [-]0[+]

[Цитировать] 

Добавлены 8-9 сeрии.
info [Профиль]  [ЛС] 

NovA_JKE

Пол: Пол:Жен

Стаж: 7 лет 6 месяцев

Сообщений: 607

Антарктида
Рейтинг

post 10-Сен-2017 21:54 (спустя 9 дней) [-]0[+]

[Цитировать] 

Добавлена 10-я сeрия.
info [Профиль]  [ЛС] 
Показать сообщения:    
Ответить на тему

Текущее время: 23-Сен 20:44

Часовой пояс: GMT + 4



Вы не можете начинать темы
Вы не можете отвечать на сообщения
Вы не можете редактировать свои сообщения
Вы не можете удалять свои сообщения
Вы не можете голосовать в опросах
Вы не можете прикреплять файлы к сообщениям
Вы не можете скачивать файлы