Ошибка

Живительный удар: Неистовый танец клинков / Katsugeki: Touken Ranbu [TV] [1-3 из 11] [2017] [приключения, фэнтези] [WEBRip] [720p] [Профессиональный]

Ответить на тему
 
Автор Сообщение

NovA_JKE

Пол: Пол:Жен

Стаж: 7 лет 4 месяца

Сообщений: 497

Антарктида
Рейтинг

post 08-Июл-2017 12:00 1[+]

[Цитировать] 

pic="http://savepic.ru/14782705.gif"


Живительный удар: Неистовый танец клинков | Katsugeki: Touken Ranbu

Год выпуска: 2017
Страна: Япония
Жанр: приключения, фэнтези
Тип: TV
Продолжительность: 12 эп. x 25 мин.
Студия:
Режиссер: Сирай Тосиюки
Автор оригинала: Кондо Хикару
Релиз: студия Kansai
Перевод: Ян Егоров
Озвучивание: многоголосое закадровое


Описание: 1863 год. Эра самураев подходит к концу. Япония расколота между фракциями про-сёгуната и анти-сёгуната. Судьба мира под угрозой поскольку армия исторических ревизионистов отправляется из будущего дабы изменить ход истории. Чтобы одолеть эти силы и защитить реальную историю, два воина мечника, чьи души являются мечами, оживленные Санивой спешат в Эдо. Вежливый и вдумчивый Хорикава Кунихиро и кроткий, но умелый Изуминоками Канесада противостоят вторгающейся армии вместе с группой других воинов. Судьба теперь лежит в руках этих героев и чем обернется новая история – скоро раскроется.
Дополнительная информация:


Качество: WEBRip
Формат: mkv
Видео: h.264; 8 bit; 1280x720; 23,976 fps; ~1776 kbps
Аудио:
  1. RU: AAC-LC 2.0, 48 kHz, ~256 kbps
Субтитры: нет
  1. На передовой.
  2. Командир.
  3. Приказы мастера.

Код:

Общее
Уникальный идентификатор                 : 226427981912931092273265549072757355985 (0xAA58716C779C36448E01C9CB4E46F5D1)
Полное имя                               : P:\NovA_JKE\Аниме\!DL Katsugeki Touken Ranbu (Живительный удар Неистовый танец клинков) [WEBRip 720p, Студия KANSAI]\[KANSAI] Katsugeki Touken Ranbu TV - 01 [720p].mkv
Формат                                   : Matroska
Версия формата                           : Version 4 / Version 2
Размер файла                             : 349 Мбайт
Продолжительность                        : 23 м. 39 с.
Общий поток                              : 2062 Кбит/сек
Дата кодирования                         : UTC 2017-07-16 15:19:40
Программа кодирования                    : mkvmerge v12.0.0 ('Trust / Lust') 64bit
Библиотека кодирования                   : libebml v1.3.4 + libmatroska v1.4.5

Видео
Идентификатор                            : 1
Формат                                   : AVC
Формат/Информация                        : Advanced Video Codec
Профиль формата                          : High@L4
Параметр CABAC формата                   : Да
Параметр ReFrames формата                : 6 кадров
Идентификатор кодека                     : V_MPEG4/ISO/AVC
Продолжительность                        : 23 м. 39 с.
Битрейт                                  : 1776 Кбит/сек
Ширина                                   : 1280 пикселей
Высота                                   : 720 пикселей
Соотношение сторон                       : 16:9
Режим частоты кадров                     : Переменный
Частота кадров                           : 23,976 (23976/1000) кадра/сек
Цветовое пространство                    : YUV
Субдискретизация насыщенности            : 4:2:0
Битовая глубина                          : 8 бит
Тип развёртки                            : Прогрессивная
Бит/(Пиксели*Кадры)                      : 0.080
Размер потока                            : 300 Мбайт (86%)
Библиотека кодирования                   : x264 core 120 r2120 0c7dab9
Настройки программы                      : cabac=1 / ref=6 / deblock=1:1:1 / analyse=0x3:0x113 / me=umh / subme=8 / psy=1 / psy_rd=0.40:0.00 / mixed_ref=1 / me_range=16 / chroma_me=1 / trellis=1 / 8x8dct=1 / cqm=0 / deadzone=21,11 / fast_pskip=1 / chroma_qp_offset=-2 / threads=4 / sliced_threads=0 / nr=0 / decimate=1 / interlaced=0 / bluray_compat=0 / constrained_intra=0 / bframes=3 / b_pyramid=2 / b_adapt=2 / b_bias=0 / direct=3 / weightb=1 / open_gop=0 / weightp=2 / keyint=250 / keyint_min=23 / scenecut=40 / intra_refresh=0 / rc_lookahead=50 / rc=2pass / mbtree=1 / bitrate=1776 / ratetol=1.0 / qcomp=0.60 / qpmin=0 / qpmax=69 / qpstep=4 / cplxblur=20.0 / qblur=0.5 / vbv_maxrate=3552 / vbv_bufsize=8880 / nal_hrd=none / ip_ratio=1.40 / aq=1:0.60
Default                                  : Да
Forced                                   : Нет

Аудио
Идентификатор                            : 2
Формат                                   : AAC
Формат/Информация                        : Advanced Audio Codec
Профиль формата                          : LC
Идентификатор кодека                     : A_AAC
Продолжительность                        : 23 м. 39 с.
Битрейт                                  : 288 Кбит/сек
Каналы                                   : 2 канала
Расположение каналов                     : Front: L R
Частота                                  : 48,0 КГц
Частота кадров                           : 46,875 кадров/сек (1024 spf)
Метод сжатия                             : С потерями
Размер потока                            : 48,1 Мбайт (14%)
Заголовок                                : KANSAI Studio
Язык                                     : Russian
Default                                  : Да
Forced                                   : Нет
info [Профиль]  [ЛС] 

Constant

Пол: Пол:Муж

Стаж: 7 лет 10 месяцев

Сообщений: 508

Россия
Рейтинг

post 08-Июл-2017 16:11 (спустя 4 часа) [-]0[+]

[Цитировать] 

Интересно, думаю стоит дождаться всех серий и посмотреть.

_________________
Xbox 360 slim 250gb+kinect LT+2.0 Dashboard 2.0 16536
PC CPU FX8320 RAM 8gb 1600 GPU R9 270X SSD 120 HDD 2TB Power 750W
info [Профиль]  [ЛС] 

NovA_JKE

Пол: Пол:Жен

Стаж: 7 лет 4 месяца

Сообщений: 497

Антарктида
Рейтинг

post 10-Июл-2017 23:19 (спустя 2 дня 7 часов) [-]0[+]

[Цитировать] 

Добавлена 2-я серия.
info [Профиль]  [ЛС] 

Radik

Пол: Пол:Муж

Стаж: 6 лет 9 месяцев

Сообщений: 65

Рейтинг

post 12-Июл-2017 21:06 (спустя 1 день 21 час) [-]0[+]

[Цитировать] 

"Живительный удар" это как "упасть вверх" ?

_________________
Tempus Edax Rerum
info [Профиль]  [ЛС] 

NovA_JKE

Пол: Пол:Жен

Стаж: 7 лет 4 месяца

Сообщений: 497

Антарктида
Рейтинг

post 16-Июл-2017 20:44 (спустя 3 дня) [-]0[+]

[Цитировать] 

Добавлена 3-я серия.
Заменены равки. Файлы переименованы.
info [Профиль]  [ЛС] 
Показать сообщения:    
Ответить на тему

Текущее время: 20-Июл 18:32

Часовой пояс: GMT + 4



Вы не можете начинать темы
Вы не можете отвечать на сообщения
Вы не можете редактировать свои сообщения
Вы не можете удалять свои сообщения
Вы не можете голосовать в опросах
Вы не можете прикреплять файлы к сообщениям
Вы не можете скачивать файлы