Ошибка

(Score) Final Fantasy VII Advent Children + Final Fantasy VII Advent Children Complete - Reunion Tracks (by Nobuo Uematsu, Kenichiro Fukui, Tsuyoshi Sekito, Keiji Kawamori, Keiji Kawamori, Takeharu Ishimoto) - 2005-2009 г., FLAC (tracks), lossless

Ответить на тему
 
Автор Сообщение

Hobbit38

Пол: Пол:Муж

Стаж: 3 года 2 месяца

Сообщений: 84

Россия
Рейтинг

post 06-Июл-2017 23:46 0[+]

[Цитировать] 


Final Fantasy VII Advent Children
Жанр: Score | Год выпуска диска: 2005-2009 | Издатель (лейбл): Square Enix

Композиторы: Nobuo Uematsu, Kenichiro Fukui, Tsuyoshi Sekito, Keiji Kawamori, Keiji Kawamori, Takeharu Ishimoto

Аудио кодек: FLAC (.flac) | Тип рипа: tracks | Битрейт аудио: lossless

Продолжительность: 02:25:37 | Полиграфия: отсутствует

Год выпуска: Sep 28, 2005
Композитор: Nobuo Uematsu, Kenichiro Fukui, Tsuyoshi Sekito, Keiji Kawamori
Издатель: Square Enix
Номер издания: SQEX-10051~2
Продолжительность: 01:22:47

CD 1
01. Opening (1:30)
02. The Promised Land (2:51)
03. NobuoBeyond The Wasteland (4:13)
04. Sign (1:48)
05. Tifa's Theme (Piano Version) (4:22)
06. NobuoFor the Reunion (2:31)
07. Those Who Fight (Piano Version) (3:59)
08. Water (2:20)
09. Materia (0:52)
10. Black Water (2:39)
11. Aerith's Theme (Piano Version) (4:06)
12. Battle in the Forgotten City (3:24)
13. Violator (2:34)
14. The Great Northern Cave (FFVII AC Version) (1:51)

CD 2
01. Divinity I (2:53)
02. Those Who Fight (FFVII AC Version) (1:59)
03. Those Who Fight Further (FFVII AC Version) (4:24)
04. Divinity II (3:34)
05. Encounter (0:52)
06. The Chase of Highway (4:33)
07. NobuSavior (2:15)
08. J-E-N-O-V-A (FFVII AC Version) (2:45)
09. Advent: One-Winged Angel (6:06)
10. Cloud Smiles (3:28)
11. NobuEnd Credits (5:35)
12. CALLING (5:02)
EAC extraction logfile from 18. June 2007, 21:29 for CD
Nubuo Uematsu / Final Fantasy VII - Advent Children CD1
Used drive : TSSTcorpCD/DVDW TS-H552L Adapter: 5 ID: 0
Read mode : Secure with NO C2, accurate stream, disable cache
Read offset correction : 6
Overread into Lead-In and Lead-Out : No
Used output format : C:\Program Files\FLAC\flac.exe (User Defined Encoder)
128 kBit/s
Additional command line options : -8 -V -T "artist=%a" -T "title=%t" -T "album=%g" -T "date=%y" -T "tracknumber=%n" -T "genre=%m" %s
Other options :
Fill up missing offset samples with silence : Yes
Delete leading and trailing silent blocks : No
Native Win32 interface for Win NT & 2000
Track 1
Filename C:\Music\ Nubuo Uematsu\Final Fantasy VII - Advent Children CD1\01 - Opening .wav
Peak level 100.0 %
Track quality 99.8 %
Test CRC DD83CE43
Copy CRC DD83CE43
Copy OK
Track 2
Filename C:\Music\ Nubuo Uematsu\Final Fantasy VII - Advent Children CD1\02 - The Promised Land .wav
Peak level 99.2 %
Track quality 99.9 %
Test CRC 44E9AFEA
Copy CRC 44E9AFEA
Copy OK
Track 3
Filename C:\Music\ Nubuo Uematsu\Final Fantasy VII - Advent Children CD1\03 - Beyond The Wasteland .wav
Peak level 100.0 %
Track quality 99.9 %
Test CRC DFAA0586
Copy CRC DFAA0586
Copy OK
Track 4
Filename C:\Music\ Nubuo Uematsu\Final Fantasy VII - Advent Children CD1\04 - Sign .wav
Peak level 99.2 %
Track quality 100.0 %
Test CRC CBE24BB6
Copy CRC CBE24BB6
Copy OK
Track 5
Filename C:\Music\ Nubuo Uematsu\Final Fantasy VII - Advent Children CD1\05 - (Piano Version) .wav
Peak level 99.2 %
Track quality 100.0 %
Test CRC EFC95B59
Copy CRC EFC95B59
Copy OK
Track 6
Filename C:\Music\ Nubuo Uematsu\Final Fantasy VII - Advent Children CD1\06 - For The Reunion .wav
Peak level 100.0 %
Track quality 100.0 %
Test CRC 0F5B572B
Copy CRC 0F5B572B
Copy OK
Track 7
Filename C:\Music\ Nubuo Uematsu\Final Fantasy VII - Advent Children CD1\07 - (Piano Version) .wav
Peak level 99.5 %
Track quality 100.0 %
Test CRC ABA616DE
Copy CRC ABA616DE
Copy OK
Track 8
Filename C:\Music\ Nubuo Uematsu\Final Fantasy VII - Advent Children CD1\08 - Water .wav
Peak level 100.0 %
Track quality 100.0 %
Test CRC 6342488D
Copy CRC 6342488D
Copy OK
Track 9
Filename C:\Music\ Nubuo Uematsu\Final Fantasy VII - Advent Children CD1\09 - Materia .wav
Peak level 100.0 %
Track quality 100.0 %
Test CRC 66BA5425
Copy CRC 66BA5425
Copy OK
Track 10
Filename C:\Music\ Nubuo Uematsu\Final Fantasy VII - Advent Children CD1\10 - Black Water .wav
Peak level 100.0 %
Track quality 99.8 %
Test CRC 62CF2BB8
Copy CRC AD24615D
Copy OK
Track 11
Filename C:\Music\ Nubuo Uematsu\Final Fantasy VII - Advent Children CD1\11 - (Piano Version) .wav
Peak level 99.4 %
Track quality 100.0 %
Test CRC 1A257C70
Copy CRC 1A257C70
Copy OK
Track 12
Filename C:\Music\ Nubuo Uematsu\Final Fantasy VII - Advent Children CD1\12 - Battle In The Forgotten City .wav
Peak level 100.0 %
Track quality 100.0 %
Test CRC DEA41F30
Copy CRC DEA41F30
Copy OK
Track 13
Filename C:\Music\ Nubuo Uematsu\Final Fantasy VII - Advent Children CD1\13 - Violator .wav
Peak level 100.0 %
Track quality 100.0 %
Test CRC CD524E2A
Copy CRC CD524E2A
Copy OK
Track 14
Filename C:\Music\ Nubuo Uematsu\Final Fantasy VII - Advent Children CD1\14 - (FFVII AC Version) .wav
Peak level 100.0 %
Track quality 100.0 %
Test CRC 70925EDD
Copy CRC 70925EDD
Copy OK
No errors occured
End of status report
EAC extraction logfile from 18. June 2007, 20:27 for CD
Nobuo Uematsu / Final Fantasy VII Advent Children (OST) (Disc 2)
Used drive : TSSTcorpCD/DVDW TS-H552L Adapter: 5 ID: 0
Read mode : Secure with NO C2, accurate stream, disable cache
Read offset correction : 6
Overread into Lead-In and Lead-Out : No
Used output format : C:\Program Files\FLAC\flac.exe (User Defined Encoder)
128 kBit/s
Additional command line options : -8 -V -T "artist=%a" -T "title=%t" -T "album=%g" -T "date=%y" -T "tracknumber=%n" -T "genre=%m" %s
Other options :
Fill up missing offset samples with silence : Yes
Delete leading and trailing silent blocks : No
Native Win32 interface for Win NT & 2000
Track 1
Filename C:\Music\ Nobuo Uematsu\Final Fantasy VII Advent Children (OST) (Disc 2)\01 - Divinity I .wav
Peak level 100.0 %
Track quality 99.9 %
Test CRC 76509182
Copy CRC 76509182
Copy OK
Track 2
Filename C:\Music\ Nobuo Uematsu\Final Fantasy VII Advent Children (OST) (Disc 2)\02 - (FFVII AC Version) .wav
Peak level 100.0 %
Track quality 100.0 %
Test CRC 23F10C66
Copy CRC 23F10C66
Copy OK
Track 3
Filename C:\Music\ Nobuo Uematsu\Final Fantasy VII Advent Children (OST) (Disc 2)\03 - (FFVII AC Version) .wav
Peak level 100.0 %
Track quality 100.0 %
Test CRC 8DA69402
Copy CRC 8DA69402
Copy OK
Track 4
Filename C:\Music\ Nobuo Uematsu\Final Fantasy VII Advent Children (OST) (Disc 2)\04 - Divinity II .wav
Peak level 100.0 %
Track quality 100.0 %
Test CRC B75431BB
Copy CRC B75431BB
Copy OK
Track 5
Filename C:\Music\ Nobuo Uematsu\Final Fantasy VII Advent Children (OST) (Disc 2)\05 - Encounter .wav
Peak level 100.0 %
Track quality 100.0 %
Test CRC 7889C32E
Copy CRC 7889C32E
Copy OK
Track 6
Filename C:\Music\ Nobuo Uematsu\Final Fantasy VII Advent Children (OST) (Disc 2)\06 - The Chase Of Highway .wav
Peak level 100.0 %
Track quality 100.0 %
Test CRC 0AF3D227
Copy CRC 0AF3D227
Copy OK
Track 7
Filename C:\Music\ Nobuo Uematsu\Final Fantasy VII Advent Children (OST) (Disc 2)\07 - Savior .wav
Peak level 100.0 %
Track quality 100.0 %
Test CRC 983C0969
Copy CRC 983C0969
Copy OK
Track 8
Filename C:\Music\ Nobuo Uematsu\Final Fantasy VII Advent Children (OST) (Disc 2)\08 - J-E-N-O-V-A (FFVII AC Version) .wav
Peak level 100.0 %
Track quality 99.9 %
Test CRC E0E68206
Copy CRC E0E68206
Copy OK
Track 9
Filename C:\Music\ Nobuo Uematsu\Final Fantasy VII Advent Children (OST) (Disc 2)\09 - Advent- One-Winged Angel .wav
Peak level 100.0 %
Track quality 100.0 %
Test CRC 9927E0E3
Copy CRC 9927E0E3
Copy OK
Track 10
Filename C:\Music\ Nobuo Uematsu\Final Fantasy VII Advent Children (OST) (Disc 2)\10 - Cloud Smiles .wav
Peak level 99.6 %
Track quality 100.0 %
Test CRC 734E0FAA
Copy CRC 734E0FAA
Copy OK
Track 11
Filename C:\Music\ Nobuo Uematsu\Final Fantasy VII Advent Children (OST) (Disc 2)\11 - End Credits .wav
Peak level 100.0 %
Track quality 99.9 %
Test CRC 1C465771
Copy CRC 1C465771
Copy OK
Track 12
Filename C:\Music\ Nobuo Uematsu\Final Fantasy VII Advent Children (OST) (Disc 2)\12 - Calling .wav
Peak level 100.0 %
Track quality 100.0 %
Test CRC 04E8A685
Copy CRC 04E8A685
Copy OK
No errors occured
End of status report
Год выпуска: Sep 16, 2009
Композитор: Nobuo Uematsu, Tsuyoshi Sekito, Keiji Kawamori, Takeharu Ishimoto
Издатель: Square Enix
Номер издания: SQEX-10172
Продолжительность: 01:02:36

Final Fantasy VII Advent Children Complete

01. Beyond The Wasteland - FFVII ACC Version 4:08
02. Sign - ACC Long Version 5:09
03. Main Theme of Final Fantasy VII - ACC Orchestra Version 3:26
04. MUSIC EFFECT 0:39
05. Anxious Heart - FFVII ACC Version 0:47
06. Materia - FFVII ACC Version 1:26
07. Black Water - FFVII ACC Version 2:54
08. Battle in the Forgotten City - FFVII ACC Version 3:29
09. Main Theme of Final Fantasy VII - ACC Piano Version 1:15
10. Those Who Fight Further - FFVII ACC Version 6:29
11. The Chase of Highway - FFVII ACC Version 6:40
12. Advent: One-Winged Angel - ACC Long Version 6:59
13. Aerith's Theme - ACC Long Version 2:10

On the Way to a Smile Episode: Denzel -Final Fantasy VII-

14. Daybreak ~Theme of FFVII Arrange Version~ 3:52
15. Doubt 1:26
16. In the Sun 1:11
17. Red Sky 1:26
18. Blue Sky 1:13
19. Connected Heart ~Tifa's Theme Arrange Version~ 0:59
20. Promise 2:45
21. On the Way to a Smile -EPISODE DENZEL- 4:13
Exact Audio Copy V0.99
EAC extraction logfile from 01. February 2010, 22:56
Various / Final Fantasy VII Advent Children Complete Reunion Tracks
Used drive : IDE\CDROM NEC DVD-RW ND-3540A
Read mode : Secure
Utilize accurate stream : Yes
Defeat audio cache : Yes
Make use of C2 pointers : No
Read offset correction : 48
Overread into Lead-In and Lead-Out : No
Fill up missing offset samples with silence : Yes
Delete leading and trailing silent blocks : No
Null samples used in CRC calculations : Yes
Used interface : Native Win32 interface for Win NT & 2000
Gap handling : Appended to previous track
Used output format : User Defined Encoder
Selected bitrate : 1024 kBit/s
Quality : High
Add ID3 tag : No
Command line compressor : C:\Program Files\FLAC\flac.exe
Additional command line options : -V -8 -T "artist=%a" -T "title=%t" -T "album=%g" -T "date=%y" -T "tracknumber=%n" -T "genre=%m" %s
TOC of the extracted CD
Track | Start | Length | Start sector | End sector
---------------------------------------------------------
1 | 0:00.00 | 4:08.70 | 0 | 18669
2 | 4:08.70 | 5:09.45 | 18670 | 41889
3 | 9:18.40 | 3:26.45 | 41890 | 57384
4 | 12:45.10 | 0:39.25 | 57385 | 60334
5 | 13:24.35 | 0:47.35 | 60335 | 63894
6 | 14:11.70 | 1:26.15 | 63895 | 70359
7 | 15:38.10 | 2:54.35 | 70360 | 83444
8 | 18:32.45 | 3:29.00 | 83445 | 99119
9 | 22:01.45 | 1:15.60 | 99120 | 104804
10 | 23:17.30 | 6:29.00 | 104805 | 133979
11 | 29:46.30 | 6:40.35 | 133980 | 164014
12 | 36:26.65 | 6:59.20 | 164015 | 195459
13 | 43:26.10 | 2:10.10 | 195460 | 205219
14 | 45:36.20 | 3:52.60 | 205220 | 222679
15 | 49:29.05 | 1:26.45 | 222680 | 229174
16 | 50:55.50 | 1:11.60 | 229175 | 234559
17 | 52:07.35 | 1:26.55 | 234560 | 241064
18 | 53:34.15 | 1:13.60 | 241065 | 246599
19 | 54:48.00 | 0:59.60 | 246600 | 251084
20 | 55:47.60 | 2:45.30 | 251085 | 263489
21 | 58:33.15 | 4:13.35 | 263490 | 282499
Track 1
Filename C:\Documents and Settings\Cloud9\Рабочий стол\NEW_OSTs2\Final Fantasy VII AC Complete Reunion Tracks (FLAC)\01 - Track01.wav
Pre-gap length 0:00:02.00
Peak level 99.2 %
Track quality 100.0 %
Test CRC D75DF684
Copy CRC D75DF684
Copy OK
Track 2
Filename C:\Documents and Settings\Cloud9\Рабочий стол\NEW_OSTs2\Final Fantasy VII AC Complete Reunion Tracks (FLAC)\02 - Track02.wav
Pre-gap length 0:00:02.40
Peak level 86.7 %
Track quality 100.0 %
Test CRC E2360F47
Copy CRC E2360F47
Copy OK
Track 3
Filename C:\Documents and Settings\Cloud9\Рабочий стол\NEW_OSTs2\Final Fantasy VII AC Complete Reunion Tracks (FLAC)\03 - Track03.wav
Pre-gap length 0:00:12.40
Peak level 99.2 %
Track quality 100.0 %
Test CRC 8D933546
Copy CRC 8D933546
Copy OK
Track 4
Filename C:\Documents and Settings\Cloud9\Рабочий стол\NEW_OSTs2\Final Fantasy VII AC Complete Reunion Tracks (FLAC)\04 - Track04.wav
Pre-gap length 0:00:02.40
Peak level 79.2 %
Track quality 100.0 %
Test CRC 369D965E
Copy CRC 369D965E
Copy OK
Track 5
Filename C:\Documents and Settings\Cloud9\Рабочий стол\NEW_OSTs2\Final Fantasy VII AC Complete Reunion Tracks (FLAC)\05 - Track05.wav
Pre-gap length 0:00:02.40
Peak level 94.5 %
Track quality 99.7 %
Test CRC C5333867
Copy CRC C5333867
Copy OK
Track 6
Filename C:\Documents and Settings\Cloud9\Рабочий стол\NEW_OSTs2\Final Fantasy VII AC Complete Reunion Tracks (FLAC)\06 - Track06.wav
Pre-gap length 0:00:02.40
Peak level 99.2 %
Track quality 100.0 %
Test CRC 550578D4
Copy CRC 550578D4
Copy OK
Track 7
Filename C:\Documents and Settings\Cloud9\Рабочий стол\NEW_OSTs2\Final Fantasy VII AC Complete Reunion Tracks (FLAC)\07 - Track07.wav
Pre-gap length 0:00:02.40
Peak level 99.2 %
Track quality 100.0 %
Test CRC 89757E90
Copy CRC 89757E90
Copy OK
Track 8
Filename C:\Documents and Settings\Cloud9\Рабочий стол\NEW_OSTs2\Final Fantasy VII AC Complete Reunion Tracks (FLAC)\08 - Track08.wav
Pre-gap length 0:00:02.40
Peak level 99.2 %
Track quality 100.0 %
Test CRC 10245618
Copy CRC 10245618
Copy OK
Track 9
Filename C:\Documents and Settings\Cloud9\Рабочий стол\NEW_OSTs2\Final Fantasy VII AC Complete Reunion Tracks (FLAC)\09 - Track09.wav
Pre-gap length 0:00:02.40
Peak level 88.6 %
Track quality 100.0 %
Test CRC 83F55056
Copy CRC 83F55056
Copy OK
Track 10
Filename C:\Documents and Settings\Cloud9\Рабочий стол\NEW_OSTs2\Final Fantasy VII AC Complete Reunion Tracks (FLAC)\10 - Track10.wav
Pre-gap length 0:00:01.40
Peak level 99.2 %
Track quality 100.0 %
Test CRC 7D1FF30B
Copy CRC 7D1FF30B
Copy OK
Track 11
Filename C:\Documents and Settings\Cloud9\Рабочий стол\NEW_OSTs2\Final Fantasy VII AC Complete Reunion Tracks (FLAC)\11 - Track11.wav
Pre-gap length 0:00:02.37
Peak level 99.2 %
Track quality 99.9 %
Test CRC 207A732E
Copy CRC 207A732E
Copy OK
Track 12
Filename C:\Documents and Settings\Cloud9\Рабочий стол\NEW_OSTs2\Final Fantasy VII AC Complete Reunion Tracks (FLAC)\12 - Track12.wav
Pre-gap length 0:00:03.40
Peak level 99.2 %
Track quality 100.0 %
Test CRC 0F0FFA5D
Copy CRC 0F0FFA5D
Copy OK
Track 13
Filename C:\Documents and Settings\Cloud9\Рабочий стол\NEW_OSTs2\Final Fantasy VII AC Complete Reunion Tracks (FLAC)\13 - Track13.wav
Pre-gap length 0:00:02.40
Peak level 99.2 %
Track quality 100.0 %
Test CRC 16CA2CD7
Copy CRC 16CA2CD7
Copy OK
Track 14
Filename C:\Documents and Settings\Cloud9\Рабочий стол\NEW_OSTs2\Final Fantasy VII AC Complete Reunion Tracks (FLAC)\14 - Track14.wav
Pre-gap length 0:00:04.40
Peak level 98.8 %
Track quality 100.0 %
Test CRC E918CBAE
Copy CRC E918CBAE
Copy OK
Track 15
Filename C:\Documents and Settings\Cloud9\Рабочий стол\NEW_OSTs2\Final Fantasy VII AC Complete Reunion Tracks (FLAC)\15 - Track15.wav
Pre-gap length 0:00:02.40
Peak level 98.8 %
Track quality 100.0 %
Test CRC 23188A76
Copy CRC 23188A76
Copy OK
Track 16
Filename C:\Documents and Settings\Cloud9\Рабочий стол\NEW_OSTs2\Final Fantasy VII AC Complete Reunion Tracks (FLAC)\16 - Track16.wav
Pre-gap length 0:00:01.85
Peak level 98.8 %
Track quality 100.0 %
Test CRC EF74A1CF
Copy CRC EF74A1CF
Copy OK
Track 17
Filename C:\Documents and Settings\Cloud9\Рабочий стол\NEW_OSTs2\Final Fantasy VII AC Complete Reunion Tracks (FLAC)\17 - Track17.wav
Pre-gap length 0:00:02.40
Peak level 94.7 %
Track quality 100.0 %
Test CRC 0C485768
Copy CRC 0C485768
Copy OK
Track 18
Filename C:\Documents and Settings\Cloud9\Рабочий стол\NEW_OSTs2\Final Fantasy VII AC Complete Reunion Tracks (FLAC)\18 - Track18.wav
Pre-gap length 0:00:02.40
Peak level 93.9 %
Track quality 100.0 %
Test CRC C47A547B
Copy CRC C47A547B
Copy OK
Track 19
Filename C:\Documents and Settings\Cloud9\Рабочий стол\NEW_OSTs2\Final Fantasy VII AC Complete Reunion Tracks (FLAC)\19 - Track19.wav
Pre-gap length 0:00:03.40
Peak level 75.1 %
Track quality 100.0 %
Test CRC DF8FAC18
Copy CRC DF8FAC18
Copy OK
Track 20
Filename C:\Documents and Settings\Cloud9\Рабочий стол\NEW_OSTs2\Final Fantasy VII AC Complete Reunion Tracks (FLAC)\20 - Track20.wav
Pre-gap length 0:00:03.40
Peak level 98.8 %
Track quality 100.0 %
Test CRC AB126DF4
Copy CRC AB126DF4
Copy OK
Track 21
Filename C:\Documents and Settings\Cloud9\Рабочий стол\NEW_OSTs2\Final Fantasy VII AC Complete Reunion Tracks (FLAC)\21 - Track21.wav
Pre-gap length 0:00:03.21
Peak level 98.8 %
Track quality 100.0 %
Test CRC 0F842946
Copy CRC 0F842946
Copy OK
No errors occurred
End of status report

info [Профиль]  [ЛС] 
Показать сообщения:    
Ответить на тему

Текущее время: 20-Июл 18:46

Часовой пояс: GMT + 4



Вы не можете начинать темы
Вы не можете отвечать на сообщения
Вы не можете редактировать свои сообщения
Вы не можете удалять свои сообщения
Вы не можете голосовать в опросах
Вы не можете прикреплять файлы к сообщениям
Вы не можете скачивать файлы