Ошибка
Загрузка...

Судьба - Апокриф / Fate - Apocrypha [TV] [1-11 из 25] [2017] [приключения, фэнтези, драма] [HDTV] [720p] [Профессиональный] MVO Kansai

Ответить на тему
 
Автор Сообщение

NovA_JKE

Пол: Пол:Жен

Стаж: 7 лет 6 месяцев

Сообщений: 607

Антарктида
Рейтинг

post 03-Июл-2017 23:17 0[+]

[Цитировать] 

pic="https://image.ibb.co/k8wQsF/image.gif"


Судьба/Апокриф | Fate/Apocrypha

Год выпуска: 2017
Страна: Япония
Жанр: приключения, фэнтези, драма
Тип: TV
Продолжительность: 25 эп. x 25 мин.
Студия:
Режиссер: Асай Ёсиюки
Автор оригинала: Хигасидэ Юйтиро
Релиз: студия Kansai
Перевод: Елизавета Захарьева
Озвучивание: многоголосое закадровое (Никита Красильников, Артём Николаев, Иван Чабан, Елизавета Захарьева, Юлия Рудина, Ирина Обрезкова, Сергей Куприянов)


Описание: «Судьба:Начало» и «Судьба:Ночь Схватки» повествовали нам о Четвертой и Пятой Войнах Святого Грааля. Но события «Судьба:Апокриф» происходят в параллельном мире, где уже после Третьей Войны, Грааль покинул злополучный город Фуюки. История начинается с того, что в Румынии был обнаружен «726-ой Святой Грааль». Его похитила семья Иггдмилленния. Это знаменует начало «Великой Войны Святого Грааля». В городе Трифас организуются две противоборствующие стороны: Чёрная Фракция, члены которой являются частью семьи Иггдмилленния и Красная Фракция, члены которой были посланы Ассоциацией Магов, за исключением одного участника от Церкви. Грааль также призывает слугу класса «Рулер» выступать в качестве посредника в Войне.
Дополнительная информация:


Качество: HDTV
Формат: mkv
Видео: h.264; 8 bit; 1280x720; 23,976 fps; ~1138 kbps
Аудио:
  1. RU: AAC-LC 2.0, 48 kHz, ~256 kbps
Субтитры: нет
  1. Апокриф. Великая Война Святого Грааля.
  2. Явление Святых.
  3. Судьба, которую выбрал он.
  4. Цена жизни - искупление смерти.
  5. Голос небес.
  6. Рыцарь восстания.
  7. В поисках свободы.
  8. Маяк войны.
  9. Сотня огней и сотня цветков.
  10. Опавший цветок.
  11. Вечное сияние.

Код:

Общее
Уникальный идентификатор                 : 186192428399022771490781387727501485783 (0x8C135B79CB5F66EEB48D32E7D8DB66D7)
Полное имя                               : P:\NovA_JKE\Аниме\!DL Fate - Apocrypha (Судьба - Апокриф) [HDTV, Студия KANSAI]\[KANSAI] Fate - Apocrypha - 01 [720p].mkv
Формат                                   : Matroska
Версия формата                           : Version 4 / Version 2
Размер файла                             : 243 Мбайт
Продолжительность                        : 23 м. 44 с.
Общий поток                              : 1433 Кбит/сек
Дата кодирования                         : UTC 2017-07-25 19:33:16
Программа кодирования                    : mkvmerge v12.0.0 ('Trust / Lust') 64bit
Библиотека кодирования                   : libebml v1.3.4 + libmatroska v1.4.5

Видео
Идентификатор                            : 1
Формат                                   : AVC
Формат/Информация                        : Advanced Video Codec
Профиль формата                          : High@L4.1
Параметр CABAC формата                   : Да
Параметр RefFrames формата               : 4 кадра
Идентификатор кодека                     : V_MPEG4/ISO/AVC
Продолжительность                        : 23 м. 44 с.
Битрейт                                  : 1138 Кбит/сек
Ширина                                   : 1280 пикселей
Высота                                   : 720 пикселей
Соотношение сторон                       : 16:9
Режим частоты кадров                     : Постоянный
Частота кадров                           : 23,976 (23976/1000) кадра/сек
Цветовое пространство                    : YUV
Субдискретизация насыщенности            : 4:2:0
Битовая глубина                          : 8 бит
Тип развёртки                            : Прогрессивная
Бит/(Пиксели*Кадры)                      : 0.051
Размер потока                            : 193 Мбайт (79%)
Заголовок                                : https://kansai.studio
Библиотека кодирования                   : x264 core 130 r2273 b3065e6
Настройки программы                      : cabac=1 / ref=1 / deblock=1:1:1 / analyse=0x3:0x113 / me=hex / subme=2 / psy=1 / psy_rd=0.40:0.00 / mixed_ref=0 / me_range=16 / chroma_me=1 / trellis=0 / 8x8dct=1 / cqm=0 / deadzone=21,11 / fast_pskip=1 / chroma_qp_offset=0 / threads=6 / lookahead_threads=2 / sliced_threads=0 / nr=0 / decimate=1 / interlaced=0 / bluray_compat=0 / constrained_intra=0 / bframes=5 / b_pyramid=2 / b_adapt=1 / b_bias=0 / direct=1 / weightb=1 / open_gop=0 / weightp=1 / keyint=250 / keyint_min=23 / scenecut=40 / intra_refresh=0 / rc_lookahead=10 / rc=crf / mbtree=1 / crf=18.0 / qcomp=0.60 / qpmin=0 / qpmax=69 / qpstep=4 / vbv_maxrate=50000 / vbv_bufsize=62500 / crf_max=0.0 / nal_hrd=none / ip_ratio=1.40 / aq=1:0.60
Язык                                     : Japanese
Default                                  : Да
Forced                                   : Нет

Аудио
Идентификатор                            : 2
Формат                                   : AAC
Формат/Информация                        : Advanced Audio Codec
Профиль формата                          : LC
Идентификатор кодека                     : A_AAC
Продолжительность                        : 23 м. 44 с.
Битрейт                                  : 288 Кбит/сек
Каналы                                   : 2 канала
Расположение каналов                     : Front: L R
Частота                                  : 48,0 КГц
Частота кадров                           : 46,875 кадров/сек (1024 SPF)
Метод сжатия                             : С потерями
Размер потока                            : 49,8 Мбайт (20%)
Заголовок                                : KANSAI Studio
Язык                                     : Russian
Default                                  : Да
Forced                                   : Нет
info [Профиль]  [ЛС] 

NovA_JKE

Пол: Пол:Жен

Стаж: 7 лет 6 месяцев

Сообщений: 607

Антарктида
Рейтинг

post 12-Июл-2017 00:50 (спустя 8 дней) [-]0[+]

[Цитировать] 

upd. 2ой эпизод.
info [Профиль]  [ЛС] 

leSang

Пол: Пол:Муж

Стаж: 8 лет 5 месяцев

Сообщений: 1357

Япония
Рейтинг

post 12-Июл-2017 13:03 (спустя 12 часов) [-]0[+]

[Цитировать] 


_________________
info [Профиль]  [ЛС] 

NovA_JKE

Пол: Пол:Жен

Стаж: 7 лет 6 месяцев

Сообщений: 607

Антарктида
Рейтинг

post 17-Июл-2017 23:37 (спустя 5 дней) [-]-1[+]

[Цитировать] 

Добавлена 3-я серия.
info [Профиль]  [ЛС] 

NovA_JKE

Пол: Пол:Жен

Стаж: 7 лет 6 месяцев

Сообщений: 607

Антарктида
Рейтинг

post 26-Июл-2017 19:05 (спустя 8 дней) [-]-1[+]

[Цитировать] 

Добавлена 4-я серия.
info [Профиль]  [ЛС] 

RenegadeAD

Пол: Пол:Муж

Стаж: 7 лет 3 месяца

Сообщений: 373

Россия
Рейтинг

post 27-Июл-2017 10:06 (спустя 15 часов) [-]1[+]

[Цитировать] 

На трекере много раздач аниме и поэтому возник вопрос. Почему тут так не любят субтитры и 1080, 2560 качество ?

_________________
info [Профиль]  [ЛС] 

NovA_JKE

Пол: Пол:Жен

Стаж: 7 лет 6 месяцев

Сообщений: 607

Антарктида
Рейтинг

post 05-Авг-2017 20:05 (спустя 9 дней) [-]0[+]

[Цитировать] 

Добавлена 5-я серия.
info [Профиль]  [ЛС] 

NovA_JKE

Пол: Пол:Жен

Стаж: 7 лет 6 месяцев

Сообщений: 607

Антарктида
Рейтинг

post 11-Авг-2017 19:45 (спустя 5 дней) [-]0[+]

[Цитировать] 

Добавлена 6-я серия.
info [Профиль]  [ЛС] 

NovA_JKE

Пол: Пол:Жен

Стаж: 7 лет 6 месяцев

Сообщений: 607

Антарктида
Рейтинг

post 16-Авг-2017 02:31 (спустя 4 дня) [-]0[+]

[Цитировать] 

Добавлена 7-я серия.
info [Профиль]  [ЛС] 

NovA_JKE

Пол: Пол:Жен

Стаж: 7 лет 6 месяцев

Сообщений: 607

Антарктида
Рейтинг

post 23-Авг-2017 21:45 (спустя 7 дней) [-]0[+]

[Цитировать] 

Добавлена 8-я серия.
info [Профиль]  [ЛС] 

NovA_JKE

Пол: Пол:Жен

Стаж: 7 лет 6 месяцев

Сообщений: 607

Антарктида
Рейтинг

post 31-Авг-2017 19:25 (спустя 7 дней) [-]0[+]

[Цитировать] 

Добавлена 9-я серия.
info [Профиль]  [ЛС] 

NovA_JKE

Пол: Пол:Жен

Стаж: 7 лет 6 месяцев

Сообщений: 607

Антарктида
Рейтинг

post 07-Сен-2017 05:49 (спустя 6 дней) [-]0[+]

[Цитировать] 

Добавлена 10-я серия.
info [Профиль]  [ЛС] 

NovA_JKE

Пол: Пол:Жен

Стаж: 7 лет 6 месяцев

Сообщений: 607

Антарктида
Рейтинг

post 14-Сен-2017 15:05 (спустя 7 дней) [-]0[+]

[Цитировать] 

Добавлена 11-я серия.
info [Профиль]  [ЛС] 
Показать сообщения:    
Ответить на тему

Текущее время: 21-Сен 18:25

Часовой пояс: GMT + 4



Вы не можете начинать темы
Вы не можете отвечать на сообщения
Вы не можете редактировать свои сообщения
Вы не можете удалять свои сообщения
Вы не можете голосовать в опросах
Вы не можете прикреплять файлы к сообщениям
Вы не можете скачивать файлы