Ошибка

Судьба - Апокриф / Fate - Apocrypha [TV] [1-3 из 25] [2017] [приключения, фэнтези] [HDTV] [720p] [Профессиональный]

Ответить на тему
 
Автор Сообщение

NovA_JKE

Пол: Пол:Жен

Стаж: 7 лет 4 месяца

Сообщений: 510

Антарктида
Рейтинг

post 03-Июл-2017 23:17 0[+]

[Цитировать] 

pic="http://savepic.ru/14739693.gif"


Судьба/Апокриф | Fate/Apocrypha

Год выпуска: 2017
Страна: Япония
Жанр: приключения, фэнтези
Тип: TV
Продолжительность: 25 эп. x 25 мин.
Студия:
Режиссер: Асай Ёсиюки
Автор оригинала: Хигасидэ Юйтиро
Релиз: студия Kansai
Перевод: Елизавета Захарьева
Озвучивание: многоголосое закадровое


Описание: «Судьба:Начало» и «Судьба:Ночь Схватки» повествовали нам о Четвертой и Пятой Войнах Святого Грааля. Но события «Судьба:Апокриф» происходят в параллельном мире, где уже после Третьей Войны, Грааль покинул злополучный город Фуюки. История начинается с того, что в Румынии был обнаружен «726-ой Святой Грааль». Его похитила семья Иггдмилленния. Это знаменует начало «Великой Войны Святого Грааля». В городе Трифас организуются две противоборствующие стороны: Чёрная Фракция, члены которой являются частью семьи Иггдмилленния и Красная Фракция, члены которой были посланы Ассоциацией Магов, за исключением одного участника от Церкви. Грааль также призывает слугу класса «Рулер» выступать в качестве посредника в Войне.
Дополнительная информация:


Качество: HDTV
Формат: mkv
Видео: h.264; 10 bit; 1280x720; 23,976 fps; ~1528 kbps
Аудио:
  1. RU: AAC-LC 2.0, 48 kHz, ~256 kbps
Субтитры: нет
  1. Апокриф. Великая Война Святого Грааля.
  2. Явление Святых.
  3. Судьба, которую выбрал он.

Код:

Общее
Уникальный идентификатор                 : 182174682327149386653241530430869369576 (0x890D914CF170A7A49505FF96E2BE72E8)
Полное имя                               : P:\NovA_JKE\Аниме\!DL Fate - Apocrypha (Судьба - Апокриф) [HDTV, Студия KANSAI]\[KANSAI] Fate - Apocrypha - 01 [720p].mkv
Формат                                   : Matroska
Версия формата                           : Version 4 / Version 2
Размер файла                             : 310 Мбайт
Продолжительность                        : 23 м. 44 с.
Общий поток                              : 1824 Кбит/сек
Дата кодирования                         : UTC 2017-07-03 18:59:00
Программа кодирования                    : mkvmerge v13.0.0 ('The Juggler') 64bit
Библиотека кодирования                   : libebml v1.3.4 + libmatroska v1.4.5

Видео
Идентификатор                            : 1
Формат                                   : AVC
Формат/Информация                        : Advanced Video Codec
Профиль формата                          : High 10@L5
Параметр CABAC формата                   : Да
Параметр ReFrames формата                : 16 кадров
Идентификатор кодека                     : V_MPEG4/ISO/AVC
Продолжительность                        : 23 м. 44 с.
Битрейт                                  : 1528 Кбит/сек
Ширина                                   : 1280 пикселей
Высота                                   : 720 пикселей
Соотношение сторон                       : 16:9
Режим частоты кадров                     : Постоянный
Частота кадров                           : 23,976 (24000/1001) кадра/сек
Цветовое пространство                    : YUV
Субдискретизация насыщенности            : 4:2:0
Битовая глубина                          : 10 бит
Тип развёртки                            : Прогрессивная
Бит/(Пиксели*Кадры)                      : 0.069
Размер потока                            : 260 Мбайт (84%)
Заголовок                                : https://kansai.studio
Библиотека кодирования                   : x264 core 150 r2833kMod df79067
Настройки программы                      : cabac=1 / ref=16 / deblock=1:1:1 / analyse=0x3:0x133 / me=umh / subme=10 / psy=1 / fade_compensate=0.60 / psy_rd=0.75:0.00 / mixed_ref=1 / me_range=24 / chroma_me=1 / trellis=2 / 8x8dct=1 / cqm=0 / deadzone=21,11 / fast_pskip=1 / chroma_qp_offset=-2 / threads=6 / lookahead_threads=1 / sliced_threads=0 / nr=0 / decimate=1 / interlaced=0 / bluray_compat=0 / constrained_intra=0 / bframes=16 / b_pyramid=2 / b_adapt=2 / b_bias=0 / direct=3 / weightb=1 / open_gop=0 / weightp=2 / keyint=250 / keyint_min=23 / scenecut=40 / intra_refresh=0 / rc_lookahead=60 / rc=crf / mbtree=1 / crf=16.0000 / qcomp=0.70 / qpmin=0 / qpmax=81 / qpstep=4 / ip_ratio=1.40 / aq=3:0.80
Язык                                     : Japanese
Default                                  : Да
Forced                                   : Нет
Цветовой диапазон                        : Limited
Основные цвета                           : BT.709
Характеристики трансфера                 : BT.709
Коэффициенты матрицы                     : BT.709

Аудио
Идентификатор                            : 2
Формат                                   : AAC
Формат/Информация                        : Advanced Audio Codec
Профиль формата                          : LC
Идентификатор кодека                     : A_AAC
Продолжительность                        : 23 м. 44 с.
Битрейт                                  : 288 Кбит/сек
Каналы                                   : 2 канала
Расположение каналов                     : Front: L R
Частота                                  : 48,0 КГц
Частота кадров                           : 46,875 кадров/сек (1024 spf)
Метод сжатия                             : С потерями
Размер потока                            : 49,8 Мбайт (16%)
Заголовок                                : KANSAI Studio
Язык                                     : Russian
Default                                  : Да
Forced                                   : Нет
info [Профиль]  [ЛС] 

NovA_JKE

Пол: Пол:Жен

Стаж: 7 лет 4 месяца

Сообщений: 510

Антарктида
Рейтинг

post 12-Июл-2017 00:50 (спустя 8 дней) [-]0[+]

[Цитировать] 

upd. 2ой эпизод.
info [Профиль]  [ЛС] 

leSang

Пол: Пол:Муж

Стаж: 8 лет 3 месяца

Сообщений: 1319

Япония
Рейтинг

post 12-Июл-2017 13:03 (спустя 12 часов) [-]0[+]

[Цитировать] 


_________________
info [Профиль]  [ЛС] 

NovA_JKE

Пол: Пол:Жен

Стаж: 7 лет 4 месяца

Сообщений: 510

Антарктида
Рейтинг

post 17-Июл-2017 23:37 (спустя 5 дней) [-]0[+]

[Цитировать] 

Добавлена 3-я серия.
info [Профиль]  [ЛС] 
Показать сообщения:    
Ответить на тему

Текущее время: 26-Июл 12:41

Часовой пояс: GMT + 4



Вы не можете начинать темы
Вы не можете отвечать на сообщения
Вы не можете редактировать свои сообщения
Вы не можете удалять свои сообщения
Вы не можете голосовать в опросах
Вы не можете прикреплять файлы к сообщениям
Вы не можете скачивать файлы