Ошибка

(Punk-Rock) Rise Against - Wolves - 2017, FLAC (tracks+.cue), lossless

Ответить на тему
 
Автор Сообщение

The Royal

Пол: Пол:Муж

Стаж: 7 лет 10 месяцев

Сообщений: 670

Россия
Рейтинг

post 29-Июн-2017 13:09 0[+]

[Цитировать] 

Rise Against - Wolves

Жанр: Punk-Rock
Год издания данного носителя: 2017
Страна-производитель носителя: USA
Аудио кодек: FLAC
Тип рипа: tracks+.cue
Битрейт аудио: lossless
Продолжительность: 00:40:11
Полиграфия: Отсутствует
Треклист:
01. Wolves (03:38)
02.House On Fire (03:15)
03.The Violence (03:49)
04. Welcome To The Breakdown (03:03)
05. Far From Perfect (03:33)
06. Bullshit (04:13)
07. Politics Of Love (04:10)
08. Parts Per Million (03:41)
09. Mourning In Amerika (03:20)
10. How Many Walls (03:51)
11. Miracle (03:41)
Exact Audio Copy V1.0 beta 3 from 29. August 2011 

EAC extraction logfile from 8. June 2017, 17:56

Rise Against / Wolves

Used drive : ASUS BC-12B1ST b Adapter: 0 ID: 0

Read mode : Secure
Utilize accurate stream : Yes
Defeat audio cache : Yes
Make use of C2 pointers : No

Read offset correction : 6
Overread into Lead-In and Lead-Out : No
Fill up missing offset samples with silence : Yes
Delete leading and trailing silent blocks : No
Null samples used in CRC calculations : Yes
Used interface : Native Win32 interface for Win NT & 2000
Gap handling : Appended to previous track

Used output format : User Defined Encoder
Selected bitrate : 768 kBit/s
Quality : High
Add ID3 tag : No
Command line compressor : D:ApplicationsExact Audio CopyFLACFLAC.EXE
Additional command line options : -8 -e -V -T "ARTIST=%artist%" -T "TITLE=%title%" -T "ALBUM=%albumtitle%" -T "DATE=%year%" -T "TRACKNUMBER=%tracknr%" -T "GENRE=%genre%" -T "PERFORMER=%albuminterpret%" -T "COMPOSER=%composer%" %haslyrics%--tag-from-file=LYRICS="%lyricsfile%"%haslyrics% -T "ALBUMARTIST=%albumartist%" -T "DISCNUMBER=%cdnumber%" -T "TOTALDISCS=%totalcds%" -T "TOTALTRACKS=%numtracks%" -T "COMMENT=%comment%" %source% -o %dest%

TOC of the extracted CD

Track | Start | Length | Start sector | End sector
---------------------------------------------------------
1 | 0:00.00 | 3:37.54 | 0 | 16328
2 | 3:37.54 | 3:14.38 | 16329 | 30916
3 | 6:52.17 | 3:48.54 | 30917 | 48070
4 | 10:40.71 | 3:03.04 | 48071 | 61799
5 | 13:44.00 | 3:32.65 | 61800 | 77764
6 | 17:16.65 | 4:12.09 | 77765 | 96673
7 | 21:28.74 | 4:09.17 | 96674 | 115365
8 | 25:38.16 | 3:40.71 | 115366 | 131936
9 | 29:19.12 | 3:19.40 | 131937 | 146901
10 | 32:38.52 | 3:50.71 | 146902 | 164222
11 | 36:29.48 | 3:40.29 | 164223 | 180751

Track 1

Filename D:MusicRippedRise AgainstRise Against - Wolves (2017) {B002678608 CD} [FLAC]1 - Wolves.wav

Pre-gap length 0:00:02.00

Peak level 100.0 %
Extraction speed 4.9 X
Track quality 100.0 %
Test CRC D44F6CFD
Copy CRC D44F6CFD
Track not present in AccurateRip database
Copy OK

Track 2

Filename D:MusicRippedRise AgainstRise Against - Wolves (2017) {B002678608 CD} [FLAC]2 - House On Fire.wav

Peak level 100.0 %
Extraction speed 4.4 X
Track quality 99.9 %
Test CRC 0AD38E48
Copy CRC 0AD38E48
Track not present in AccurateRip database
Copy OK

Track 3

Filename D:MusicRippedRise AgainstRise Against - Wolves (2017) {B002678608 CD} [FLAC]3 - The Violence.wav

Peak level 100.0 %
Extraction speed 4.9 X
Track quality 99.9 %
Test CRC 3B3CDE82
Copy CRC 3B3CDE82
Track not present in AccurateRip database
Copy OK

Track 4

Filename D:MusicRippedRise AgainstRise Against - Wolves (2017) {B002678608 CD} [FLAC]4 - Welcome To The Breakdown.wav

Peak level 100.0 %
Extraction speed 5.9 X
Track quality 100.0 %
Test CRC BA367E70
Copy CRC BA367E70
Track not present in AccurateRip database
Copy OK

Track 5

Filename D:MusicRippedRise AgainstRise Against - Wolves (2017) {B002678608 CD} [FLAC]5 - Far From Perfect.wav

Peak level 100.0 %
Extraction speed 6.3 X
Track quality 100.0 %
Test CRC B97DF1DA
Copy CRC B97DF1DA
Track not present in AccurateRip database
Copy OK

Track 6

Filename D:MusicRippedRise AgainstRise Against - Wolves (2017) {B002678608 CD} [FLAC]6 - Bullshxt.wav

Peak level 100.0 %
Extraction speed 6.8 X
Track quality 100.0 %
Test CRC C83E410F
Copy CRC C83E410F
Track not present in AccurateRip database
Copy OK

Track 7

Filename D:MusicRippedRise AgainstRise Against - Wolves (2017) {B002678608 CD} [FLAC]7 - Politics Of Love.wav

Peak level 100.0 %
Extraction speed 7.1 X
Track quality 100.0 %
Test CRC 80226D56
Copy CRC 80226D56
Track not present in AccurateRip database
Copy OK

Track 8

Filename D:MusicRippedRise AgainstRise Against - Wolves (2017) {B002678608 CD} [FLAC]8 - Parts Per Million.wav

Peak level 100.0 %
Extraction speed 7.3 X
Track quality 100.0 %
Test CRC 69A825B3
Copy CRC 69A825B3
Track not present in AccurateRip database
Copy OK

Track 9

Filename D:MusicRippedRise AgainstRise Against - Wolves (2017) {B002678608 CD} [FLAC]9 - Mourning In Amerika.wav

Peak level 100.0 %
Extraction speed 5.8 X
Track quality 99.9 %
Test CRC 9A6C0153
Copy CRC 9A6C0153
Track not present in AccurateRip database
Copy OK

Track 10

Filename D:MusicRippedRise AgainstRise Against - Wolves (2017) {B002678608 CD} [FLAC]10 - How Many Walls.wav

Peak level 100.0 %
Extraction speed 7.9 X
Track quality 100.0 %
Test CRC 1F4D78D7
Copy CRC 1F4D78D7
Track not present in AccurateRip database
Copy OK

Track 11

Filename D:MusicRippedRise AgainstRise Against - Wolves (2017) {B002678608 CD} [FLAC]11 - Miracle.wav

Pre-gap length 0:00:01.50

Peak level 100.0 %
Extraction speed 8.0 X
Track quality 100.0 %
Test CRC BE8BAC69
Copy CRC BE8BAC69
Track not present in AccurateRip database
Copy OK

None of the tracks are present in the AccurateRip database

No errors occurred

End of status report

==== Log checksum 1CD16272A8EB2D15B840DA8CBA0454BE8E71696BF08F913A0E1986B02DA8623E ====
REM GENRE Rock 
REM DATE 2017
REM DISCID 81096A0B
REM COMMENT "ExactAudioCopy v1.0b3"
CATALOG 0602557634266
PERFORMER "Rise Against"
TITLE "Wolves"
FILE "01 - Wolves.wav" WAVE
TRACK 01 AUDIO
TITLE "Wolves"
PERFORMER "Rise Against"
ISRC USUM71703502
INDEX 01 00:00:00
FILE "02 - House On Fire.wav" WAVE
TRACK 02 AUDIO
TITLE "House On Fire"
PERFORMER "Rise Against"
ISRC USUM71703495
INDEX 01 00:00:00
FILE "03 - The Violence.wav" WAVE
TRACK 03 AUDIO
TITLE "The Violence"
PERFORMER "Rise Against"
ISRC USUM71703493
INDEX 01 00:00:00
FILE "04 - Welcome To The Breakdown.wav" WAVE
TRACK 04 AUDIO
TITLE "Welcome To The Breakdown"
PERFORMER "Rise Against"
ISRC USUM71703501
INDEX 01 00:00:00
FILE "05 - Far From Perfect.wav" WAVE
TRACK 05 AUDIO
TITLE "Far From Perfect"
PERFORMER "Rise Against"
ISRC USUM71703494
INDEX 01 00:00:00
FILE "06 - Bullshxt.wav" WAVE
TRACK 06 AUDIO
TITLE "Bullshxt"
PERFORMER "Rise Against"
ISRC USUM71703492
INDEX 01 00:00:00
FILE "07 - Politics Of Love.wav" WAVE
TRACK 07 AUDIO
TITLE "Politics Of Love"
PERFORMER "Rise Against"
ISRC USUM71703492
INDEX 01 00:00:00
FILE "08 - Parts Per Million.wav" WAVE
TRACK 08 AUDIO
TITLE "Parts Per Million"
PERFORMER "Rise Against"
ISRC USUM71703499
INDEX 01 00:00:00
FILE "09 - Mourning In Amerika.wav" WAVE
TRACK 09 AUDIO
TITLE "Mourning In Amerika"
PERFORMER "Rise Against"
ISRC USUM71703499
INDEX 01 00:00:00
FILE "10 - How Many Walls.wav" WAVE
TRACK 10 AUDIO
TITLE "How Many Walls"
PERFORMER "Rise Against"
ISRC USUM71703496
INDEX 01 00:00:00
TRACK 11 AUDIO
TITLE "Miracle"
PERFORMER "Rise Against"
ISRC USUM71703497
INDEX 00 03:49:33
FILE "11 - Miracle.wav" WAVE
INDEX 01 00:00:00
info [Профиль]  [ЛС] 
Показать сообщения:    
Ответить на тему

Текущее время: 24-Ноя 06:09

Часовой пояс: GMT + 4



Вы не можете начинать темы
Вы не можете отвечать на сообщения
Вы не можете редактировать свои сообщения
Вы не можете удалять свои сообщения
Вы не можете голосовать в опросах
Вы не можете прикреплять файлы к сообщениям
Вы не можете скачивать файлы