Ошибка

Смурфики: Затерянная деревня / Smurfs: The Lost Village (Келли Эсбёри) [2017, мультфильм, фэнтези, комедия, приключения, семейный, BDRip 1080p] [iTunes]

Ответить на тему
 
Автор Сообщение

DENZEL519

Пол: Пол:Муж

Стаж: 6 лет 5 месяцев

Сообщений: 1146

СССР
Рейтинг

post 29-Июн-2017 01:42 3[+]

[Цитировать] 

Смурфики: Затерянная деревня / Smurfs: The Lost Village
«Кто здесь?»

Год выпуска: 2017
Страна: США
Жанр: мультфильм, фэнтези, комедия, приключения, семейный
Продолжительность: 01:29:46
Перевод: Дублированный [iTunes]
Субтитры: Русские, английские
Режиссер: Келли Эсбёри
Сценарий: Стэйси Харман, Памела Рибон, Пейо
Продюсер: Мэри Эллен Бодер, Джордан Кернер, Раджа Госнелл
Композитор: Кристофер Леннерц
Художник: Ноэль Тиоро, Дин Гордон, Марсело Винали
Монтаж: Брэт Марнелл
В ролях: Ариэль Уинтер (Smurflily, озвучка), Джо Манганьелло (Hefty, озвучка), Мишель Родригес (Smurfstorm, озвучка), Джулия Робертс (Smurfwillow, озвучка), Элли Кемпер (Smurfblossom, озвучка), Мэнди Пэтинкин (Papa Smurf, озвучка), Рэйн Уилсон (Gargamel, озвучка), Деми Ловато (Smurfette, озвучка), Джейк Джонсон (Grouchy, озвучка), Джек МакБрайер (Clumsy, озвучка), Дэнни Пуди (Brainy, озвучка), Габриэль Иглесиас (Jokey, озвучка)



Описание: Смурфетта и её лучшие друзья Умник, Растяпа и Силач, отправляются на поиски таинственной затерянной деревни, стремясь опередить злобного волшебника Гаргамеля. В пути смурфиков ожидают невероятные опасности и головокружительные приключения, но игра стоит свеч, ведь в конечном итоге герои смогут разгадать самую большую загадку в истории своего существования!


Качество: BDRip 1080p
Формат: MKV
Видео кодек: AVC
Аудио кодек: AC3/DTS
Видео: 1920x1036 (1.85:1), 23.976 fps, AVC, 10.3 Mbps
Аудио: Аудио #1: AC3, 384 Kbps, 48.0 KHz, 6 ch [Rus]
Аудио #2: DTS, 1 510 Kbps, 48.0 KHz, 6 ch [Eng]


Код:

General
Unique ID                                : 209006852083733486770337203925113269769 (0x9D3D416883C2B6DA819A913F40C66E09)
Complete name                            : Smurfs.The.Lost.Village.2017.BDRip.1080p.ExKinoRay.mkv
Format                                   : Matroska
Format version                           : Version 4 / Version 2
File size                                : 7.67 GiB
Duration                                 : 1h 29mn
Overall bit rate                         : 12.2 Mbps
Encoded date                             : UTC 2017-06-28 18:45:43
Writing application                      : mkvmerge v13.0.0 ('The Juggler') 64bit
Writing library                          : libebml v1.3.4 + libmatroska v1.4.5
DURATION                                 : 01:29:45.664000000
NUMBER_OF_FRAMES                         : 168302
NUMBER_OF_BYTES                          : 258511872
_STATISTICS_WRITING_APP                  : mkvmerge v13.0.0 ('The Juggler') 64bit
_STATISTICS_WRITING_DATE_UTC             : 2017-06-28 18:45:43
_STATISTICS_TAGS                         : BPS DURATION NUMBER_OF_FRAMES NUMBER_OF_BYTES

Video
ID                                       : 1
Format                                   : AVC
Format/Info                              : Advanced Video Codec
Format profile                           : High@L4.1
Format settings, CABAC                   : Yes
Format settings, ReFrames                : 4 frames
Codec ID                                 : V_MPEG4/ISO/AVC
Duration                                 : 1h 29mn
Bit rate                                 : 10.3 Mbps
Width                                    : 1 920 pixels
Height                                   : 1 036 pixels
Display aspect ratio                     : 1.85:1
Frame rate mode                          : Constant
Frame rate                               : 23.976 fps
Color space                              : YUV
Chroma subsampling                       : 4:2:0
Bit depth                                : 8 bits
Scan type                                : Progressive
Bits/(Pixel*Frame)                       : 0.217
Stream size                              : 6.33 GiB (83%)
Writing library                          : x264 core 148 r2597 e86f3a1
Encoding settings                        : cabac=1 / ref=4 / deblock=1:0:0 / analyse=0x3:0x113 / me=umh / subme=10 / psy=1 / psy_rd=1.05:0.10 / mixed_ref=1 / me_range=48 / chroma_me=1 / trellis=2 / 8x8dct=1 / cqm=0 / deadzone=21,11 / fast_pskip=0 / chroma_qp_offset=-2 / threads=12 / lookahead_threads=1 / sliced_threads=0 / nr=0 / decimate=1 / interlaced=0 / bluray_compat=0 / constrained_intra=0 / bframes=6 / b_pyramid=2 / b_adapt=2 / b_bias=0 / direct=3 / weightb=1 / open_gop=0 / weightp=2 / keyint=250 / keyint_min=23 / scenecut=40 / intra_refresh=0 / rc=2pass / mbtree=0 / bitrate=10329 / ratetol=2.0 / qcomp=0.70 / qpmin=0 / qpmax=69 / qpstep=4 / cplxblur=20.0 / qblur=0.5 / ip_ratio=1.40 / pb_ratio=1.30 / aq=2:1.00
Default                                  : Yes
Forced                                   : No

Audio #1
ID                                       : 2
Format                                   : AC-3
Format/Info                              : Audio Coding 3
Mode extension                           : CM (complete main)
Format settings, Endianness              : Big
Codec ID                                 : A_AC3
Duration                                 : 1h 29mn
Bit rate mode                            : Constant
Bit rate                                 : 384 Kbps
Channel(s)                               : 6 channels
Channel positions                        : Front: L C R, Side: L R, LFE
Sampling rate                            : 48.0 KHz
Bit depth                                : 16 bits
Compression mode                         : Lossy
Stream size                              : 247 MiB (3%)
Title                                    : iTunes
Language                                 : Russian
Default                                  : Yes
Forced                                   : No

Audio #2
ID                                       : 3
Format                                   : DTS
Format/Info                              : Digital Theater Systems
Codec ID                                 : A_DTS
Duration                                 : 1h 29mn
Bit rate mode                            : Constant
Bit rate                                 : 1 510 Kbps
Channel(s)                               : 6 channels
Channel positions                        : Front: L C R, Side: L R, LFE
Sampling rate                            : 48.0 KHz
Bit depth                                : 24 bits
Compression mode                         : Lossy
Stream size                              : 969 MiB (12%)
Title                                    : Original
Language                                 : English
Default                                  : No
Forced                                   : No

Text #1
ID                                       : 4
Format                                   : UTF-8
Codec ID                                 : S_TEXT/UTF8
Codec ID/Info                            : UTF-8 Plain Text
Title                                    : Forced
Language                                 : Russian
Default                                  : Yes
Forced                                   : No

Text #2
ID                                       : 5
Format                                   : UTF-8
Codec ID                                 : S_TEXT/UTF8
Codec ID/Info                            : UTF-8 Plain Text
Title                                    : Full
Language                                 : Russian
Default                                  : No
Forced                                   : No

Text #3
ID                                       : 6
Format                                   : UTF-8
Codec ID                                 : S_TEXT/UTF8
Codec ID/Info                            : UTF-8 Plain Text
Title                                    : Full
Language                                 : English
Default                                  : No
Forced                                   : No

Text #4
ID                                       : 7
Format                                   : UTF-8
Codec ID                                 : S_TEXT/UTF8
Codec ID/Info                            : UTF-8 Plain Text
Title                                    : SDH
Language                                 : English
Default                                  : No
Forced                                   : No

Text #5
ID                                       : 8
Format                                   : UTF-8
Codec ID                                 : S_TEXT/UTF8
Codec ID/Info                            : UTF-8 Plain Text
Title                                    : SDH (Colored)
Language                                 : English
Default                                  : No
Forced                                   : No

Menu
00:00:00.000                             : en:00:00:00.000
00:08:48.445                             : en:00:08:48.445
00:11:03.413                             : en:00:11:03.413
00:14:33.748                             : en:00:14:33.748
00:21:21.071                             : en:00:21:21.071
00:27:25.143                             : en:00:27:25.143
00:30:33.540                             : en:00:30:33.540
00:36:49.082                             : en:00:36:49.082
00:42:41.350                             : en:00:42:41.350
00:45:58.673                             : en:00:45:58.673
00:50:35.950                             : en:00:50:35.950
00:55:41.964                             : en:00:55:41.964
00:57:03.587                             : en:00:57:03.587
01:02:35.293                             : en:01:02:35.293
01:09:07.769                             : en:01:09:07.769
01:14:39.475                             : en:01:14:39.475
01:19:34.478                             : en:01:19:34.478

» Это перезагрузка всей франшизы «Смурфики», а не художественный фильм с другим актёрским составом. Такое решение было принято ввиду провала в прокате фильма «Смурфики 2» (Раджа Госнелл, 2013) и смерти Джонатана Уинтерса (1925-2013), который озвучил в нём Папу Смурфа.

» Пекаря Смурфа озвучивает Гордон Рамзи, знаменитый британский шеф-повар и ведущий британских телешоу и их американских аналогов.

Бюджет: $60 000 000
Сборы в США: $44 708 273
Сборы в мире: + $149 989 552 = $194 697 825
Сборы в России: $4 151 574
Зрители: Россия 1.19 млн
Премьера (мир): 23 марта 2017
Премьера (РФ): 30 марта 2017
Рейтинг MPAA: Рекомендуется присутствие родителей



Время раздачи: 24/7 (до появления первых 3-5 скачавших)
© Оформление by DENZEL519 for http://tapochek.net


info [Профиль]  [ЛС] 
Показать сообщения:    
Ответить на тему

Текущее время: 14-Дек 04:35

Часовой пояс: GMT + 4



Вы не можете начинать темы
Вы не можете отвечать на сообщения
Вы не можете редактировать свои сообщения
Вы не можете удалять свои сообщения
Вы не можете голосовать в опросах
Вы не можете прикреплять файлы к сообщениям
Вы не можете скачивать файлы