Ошибка

Жизнь Кабачка / Ma vie de Courgette (Клод Баррас) [2016, мультфильм, семейный, драма, BDRip 1080p] [iTunes]

Ответить на тему
 
Автор Сообщение

DENZEL519

Пол: Пол:Муж

Стаж: 6 лет 5 месяцев

Сообщений: 1146

СССР
Рейтинг

post 24-Июн-2017 01:29 0[+]

[Цитировать] 

Жизнь Кабачка / Ma vie de Courgette
-

Год выпуска: 2016
Страна: Швейцария, Франция
Жанр: мультфильм, семейный, драма
Продолжительность: 01:05:49
Перевод: Профессиональный многоголосый [iTunes]
Субтитры: Нет
Режиссер: Клод Баррас
Сценарий: Селин Скьямма, Germano Zullo, Клод Баррас
Продюсер: Марк Бонни, Armelle Glorennec, Полин Карли Гигакс
Оператор: David Toutevoix
Композитор: Sophie Hunger
Художник: Ludovic Chemarin, Christel Grandchamp, Vanessa Riera
Монтаж: Валентин Ротелли
В ролях: Gaspard Schlatter (Courgette, озвучка), Sixtine Murat (Camille, озвучка), Полин Жаккуд (Simon, озвучка), Мишель Вюйермоз (Raymond, озвучка), Raul Ribera (Ahmed, озвучка), Estelle Hennard (Alice, озвучка), Elliot Sanchez (Jujube, озвучка), Lou Wick (Béatrice, озвучка), Бриджитт Россет (Tante Ida, озвучка), Наташа Кучумов (Courgette's Mother, озвучка), Моника Будде (Mme Papineau, озвучка), Adrien Barazzone (Mr. Paul, озвучка)



Описание: Кабачок — вовсе не овощ, так зовут маленького мальчика. Его мама погибла, и он остался во всем мире совсем один и совсем не знает, как и с кем ему жить дальше. Симон, Ахмед, Жужубе, Алиса и Беатрис — новые друзья Кабачка, которых он встречает в приюте для детей. Там же он впервые влюбится, в особенную, очаровательную Камиллу.Это история о детях, жизнь которых полна больших и маленьких потрясений, но они находят в себе силы снова доверять людям, продолжают любить мир, радуются всему новому.


Качество: BDRip 1080p
Формат: MKV
Видео кодек: AVC
Аудио кодек: AC3/DTS
Видео: 1920x1080 (16:9), 23.976 fps, AVC, 17.0 Mbps
Аудио: Аудио #1: AC3, 384 Kbps, 48.0 KHz, 6 ch [Rus]
Аудио #2: DTS, 1 510 Kbps, 48.0 KHz, 6 ch [Fre]


Код:

General
Unique ID                                : 206858715044906087667991740150366974911 (0x9B9F8A1340399E89A6FA59D5C009B3BF)
Complete name                            : Ma.vie.de.Courgette.2016.BDRip.1080p.ExKinoRay.mkv
Format                                   : Matroska
Format version                           : Version 4 / Version 2
File size                                : 8.68 GiB
Duration                                 : 1h 5mn
Overall bit rate                         : 18.9 Mbps
Encoded date                             : UTC 2017-06-23 17:36:41
Writing application                      : mkvmerge v12.0.0 ('Trust / Lust') 64bit
Writing library                          : libebml v1.3.4 + libmatroska v1.4.5
DURATION                                 : 01:05:49.632000000
NUMBER_OF_FRAMES                         : 123426
NUMBER_OF_BYTES                          : 189582336
_STATISTICS_WRITING_APP                  : mkvmerge v12.0.0 ('Trust / Lust') 64bit
_STATISTICS_WRITING_DATE_UTC             : 2017-06-23 17:36:41
_STATISTICS_TAGS                         : BPS DURATION NUMBER_OF_FRAMES NUMBER_OF_BYTES

Video
ID                                       : 1
Format                                   : AVC
Format/Info                              : Advanced Video Codec
Format profile                           : High@L4.1
Format settings, CABAC                   : Yes
Format settings, ReFrames                : 4 frames
Codec ID                                 : V_MPEG4/ISO/AVC
Duration                                 : 1h 5mn
Bit rate                                 : 17.0 Mbps
Width                                    : 1 920 pixels
Height                                   : 1 080 pixels
Display aspect ratio                     : 16:9
Frame rate mode                          : Constant
Frame rate                               : 23.976 fps
Color space                              : YUV
Chroma subsampling                       : 4:2:0
Bit depth                                : 8 bits
Scan type                                : Progressive
Bits/(Pixel*Frame)                       : 0.342
Stream size                              : 7.63 GiB (88%)
Writing library                          : x264 core 148 r2705 3f5ed56
Encoding settings                        : cabac=1 / ref=4 / deblock=1:-2:-2 / analyse=0x3:0x133 / me=umh / subme=10 / psy=1 / psy_rd=1.05:0.05 / mixed_ref=1 / me_range=32 / chroma_me=1 / trellis=2 / 8x8dct=1 / cqm=0 / deadzone=21,11 / fast_pskip=0 / chroma_qp_offset=-3 / threads=12 / lookahead_threads=2 / sliced_threads=0 / nr=0 / decimate=0 / interlaced=0 / bluray_compat=0 / constrained_intra=0 / bframes=8 / b_pyramid=2 / b_adapt=2 / b_bias=0 / direct=3 / weightb=1 / open_gop=0 / weightp=2 / keyint=240 / keyint_min=23 / scenecut=40 / intra_refresh=0 / rc_lookahead=50 / rc=2pass / mbtree=0 / bitrate=17000 / ratetol=1.0 / qcomp=0.60 / qpmin=0 / qpmax=69 / qpstep=4 / cplxblur=20.0 / qblur=0.5 / vbv_maxrate=50000 / vbv_bufsize=62500 / nal_hrd=none / filler=0 / ip_ratio=1.40 / pb_ratio=1.30 / aq=3:0.80
Language                                 : English
Default                                  : Yes
Forced                                   : No
DURATION                                 : 01:05:49.654000000
NUMBER_OF_FRAMES                         : 94697
NUMBER_OF_BYTES                          : 8380419266
_STATISTICS_WRITING_APP                  : mkvmerge v12.0.0 ('Trust / Lust') 64bit
_STATISTICS_WRITING_DATE_UTC             : 2017-06-23 17:36:41
_STATISTICS_TAGS                         : BPS DURATION NUMBER_OF_FRAMES NUMBER_OF_BYTES

Audio #1
ID                                       : 2
Format                                   : AC-3
Format/Info                              : Audio Coding 3
Mode extension                           : CM (complete main)
Format settings, Endianness              : Big
Codec ID                                 : A_AC3
Duration                                 : 1h 5mn
Bit rate mode                            : Constant
Bit rate                                 : 384 Kbps
Channel(s)                               : 6 channels
Channel positions                        : Front: L C R, Side: L R, LFE
Sampling rate                            : 48.0 KHz
Bit depth                                : 16 bits
Compression mode                         : Lossy
Stream size                              : 181 MiB (2%)
Title                                    : iTunes
Language                                 : Russian
Default                                  : Yes
Forced                                   : No

Audio #2
ID                                       : 3
Format                                   : DTS
Format/Info                              : Digital Theater Systems
Codec ID                                 : A_DTS
Duration                                 : 1h 5mn
Bit rate mode                            : Constant
Bit rate                                 : 1 510 Kbps
Channel(s)                               : 6 channels
Channel positions                        : Front: L C R, Side: L R, LFE
Sampling rate                            : 48.0 KHz
Bit depth                                : 24 bits
Compression mode                         : Lossy
Stream size                              : 711 MiB (8%)
Title                                    : Original
Language                                 : French
Default                                  : No
Forced                                   : No

Menu
00:00:00.000                             : en:00:00:00.000
00:05:51.351                             : en:00:05:51.351
00:10:59.659                             : en:00:10:59.659
00:15:27.927                             : en:00:15:27.927
00:21:54.313                             : en:00:21:54.313
00:28:12.691                             : en:00:28:12.691
00:32:16.935                             : en:00:32:16.935
00:38:43.321                             : en:00:38:43.321
00:44:34.672                             : en:00:44:34.672
00:49:52.990                             : en:00:49:52.990
00:55:34.331                             : en:00:55:34.331
00:59:57.594                             : en:00:59:57.594

Бюджет: €6 500 000
Сборы в США: $309 766
Сборы в России: $23 970
Зрители: Россия 5.6 тыс.
Премьера (мир): 15 мая 2016
Премьера (РФ): 1 июня 2017
Рейтинг MPAA: Детям до 13 лет просмотр не желателен

Оскар, 2017 год
Номинации (1):
»Лучший анимационный фильм


Золотой глобус, 2017 год
Номинации (1):
»Лучший анимационный фильм


Сезар, 2017 год
Победитель (2):
»Лучший адаптированный сценарий
»Лучший анимационный фильм

Номинации (1):
»Лучший саундтрек


Каннский кинофестиваль, 2016 год
Номинации (1):
»Золотая камера (награда за режиссерский дебют)(Клод Баррас)


Европейская киноакадемия, 2016 год
Победитель (1):
»Лучший анимационный фильм


Сан-Себастьян, 2016 год
Победитель (1):
»Приз зрительских симпатий за лучший европейский фильм



Время раздачи: 24/7 (до появления первых 3-5 скачавших)
© Оформление by DENZEL519 for http://tapochek.net


info [Профиль]  [ЛС] 

paranoic

Стаж: 8 лет 8 месяцев

Сообщений: 43

Афганистан
Рейтинг

post 24-Июн-2017 22:11 (спустя 20 часов) [-]0[+]

[Цитировать] 

Кто смотрел? Детям это можно показывать?
info [Профиль]  [ЛС] 

Trost

Пол: Пол:Муж

Стаж: 6 лет 5 месяцев

Сообщений: 65

Украина
Рейтинг

post 25-Июн-2017 02:01 (спустя 3 часа) [-]0[+]

[Цитировать] 

paranoic писал(а):

Кто смотрел? Детям это можно показывать?
Возрастной рейтинг: PG-13 (для детей до 13 лет настойчиво рекомендуется присутствие родителей)
info [Профиль]  [ЛС] 

Dark Vendor

Пол: Пол:Муж

Стаж: 7 лет 8 месяцев

Сообщений: 52

Предупреждений: 2

Рейтинг

post 25-Июн-2017 11:34 (спустя 9 часов) [-]7[+]

[Цитировать] 

paranoic писал(а):

Кто смотрел? Детям это можно показывать?
Судя по названию мультик про мою жизнь,не стоит такое детям показывать. Для детей лучше полный расколбас.
info [Профиль]  [ЛС] 

LeffManowar

Пол: Пол:Муж

Стаж: 2 года 10 месяцев

Сообщений: 15

Россия
Рейтинг

post 23-Авг-2017 21:14 (спустя 1 месяц 28 дней) [-]0[+]

[Цитировать] 

хороший добрый анимационный фильм. Я взрослый дядя. Меня тронул, смотрел с женой и киндером сынишкой 4 года.
info [Профиль]  [ЛС] 

Алексо

Пол: Пол:Муж

Стаж: 3 года 6 месяцев

Сообщений: 271

Россия
Рейтинг

post 24-Авг-2017 12:24 (спустя 15 часов) [-]0[+]

[Цитировать] 

Симон, Ахмед, Жужубе, Алиса и Беатрис. Ахмед то ж француз? ^^
info [Профиль]  [ЛС] 
Показать сообщения:    
Ответить на тему

Текущее время: 14-Дек 04:35

Часовой пояс: GMT + 4



Вы не можете начинать темы
Вы не можете отвечать на сообщения
Вы не можете редактировать свои сообщения
Вы не можете удалять свои сообщения
Вы не можете голосовать в опросах
Вы не можете прикреплять файлы к сообщениям
Вы не можете скачивать файлы