Ошибка

(Progressive Metal) The Black Mages - Дискография (2003-2008 г.), FLAC (tracks), lossless

Ответить на тему
 
Автор Сообщение

Hobbit38

Пол: Пол:Муж

Стаж: 3 года 6 месяцев

Сообщений: 203

Россия
Рейтинг

post 22-Июн-2017 14:05 0[+]

[Цитировать] 


The Black Mages - Дискография
Жанр: Progressive Metal | Страна: Япония | Год выпуска:2003-2008

Аудиокодек: FLAC (.flac) | Тип рипа: tracks | Битрейт аудио: lossless

Продолжительность: 02:43:08 | Полиграфия: Присутствует

Год выпуска диска: Feb 19, 2003
Страна-производитель диска: Japan
Издатель (лейбл): DigiCube
Номер каталога: SSCX-10080
Продолжительность: 00:51:28



Tracklist

01. Battle Scene (Final Fantasy I)
02. Clash On The Big Bridge (Final Fantasy V)
03. Force Your Way (Final Fantasy VIII)
04. Battle, Scene II (Final Fantasy II)
05. Decisive Battle (Final Fantasy VI)
06. Battle Theme (Final Fantasy VI)
07. J-E-N-O-V-A (Final Fantasy VII)
08. Those Who Fight Further (Final Fantasy VII)
09. Dancing Mad (Final Fantasy VI)
10. Fight With Seymour (Final Fantasy X)


 
Exact Audio Copy V0.99 prebeta 5 from 4. May 2009

EAC extraction logfile from 12. January 2011, 19:27

The Black Mages / The Black Mages

Used drive : LITE-ON DVDRW SHW-160P6S Adapter: 3 ID: 0

Read mode : Secure
Utilize accurate stream : Yes
Defeat audio cache : Yes
Make use of C2 pointers : No

Read offset correction : 6
Overread into Lead-In and Lead-Out : No
Fill up missing offset samples with silence : Yes
Delete leading and trailing silent blocks : No
Null samples used in CRC calculations : Yes
Used interface : Native Win32 interface for Win NT & 2000
Gap handling : Appended to previous track

Used output format : User Defined Encoder
Selected bitrate : 1024 kBit/s
Quality : High
Add ID3 tag : No
Command line compressor : C:\Program Files\Exact Audio Copy\Flac1.2.1b\flac.exe
Additional command line options : -V -8 -T "artist=%a" -T "title=%t" -T "album=%g" -T "date=%y" -T "tracknumber=%n" -T "genre=%m" %s

TOC of the extracted CD

Track | Start | Length | Start sector | End sector
---------------------------------------------------------
1 | 0:00.00 | 4:19.65 | 0 | 19489
2 | 4:19.65 | 4:16.70 | 19490 | 38759
3 | 8:36.60 | 3:51.15 | 38760 | 56099
4 | 12:28.00 | 3:52.12 | 56100 | 73511
5 | 16:20.12 | 4:02.55 | 73512 | 91716
6 | 20:22.67 | 3:21.58 | 91717 | 106849
7 | 23:44.50 | 6:08.65 | 106850 | 134514
8 | 29:53.40 | 4:25.10 | 134515 | 154399
9 | 34:18.50 | 12:04.70 | 154400 | 208769
10 | 46:23.45 | 5:05.25 | 208770 | 231669

Track 1

Filename M:\My Music\My Music\EAC\The Black Mages\01 Battle Scene (Final Fantasy I).wav

Pre-gap length 0:00:02.00

Peak level 97.2 %
Track quality 100.0 %
Test CRC E931FA96
Copy CRC E931FA96
Accurately ripped (confidence 12) [4E7269A3]
Copy OK

Track 2

Filename M:\My Music\My Music\EAC\The Black Mages\02 Clash on the Big Bridge (Final Fantasy V).wav

Peak level 97.2 %
Track quality 100.0 %
Test CRC 210FAADC
Copy CRC 210FAADC
Accurately ripped (confidence 12) [E743EC43]
Copy OK

Track 3

Filename M:\My Music\My Music\EAC\The Black Mages\03 Force Your Way (Final Fantasy VIII).wav

Peak level 97.2 %
Track quality 100.0 %
Test CRC CEDB1D4E
Copy CRC CEDB1D4E
Accurately ripped (confidence 12) [9D3DA991]
Copy OK

Track 4

Filename M:\My Music\My Music\EAC\The Black Mages\04 Battle, Scene II (Final Fantasy II).wav

Peak level 97.2 %
Track quality 100.0 %
Test CRC D6FA765B
Copy CRC D6FA765B
Accurately ripped (confidence 12) [EDF8AFCE]
Copy OK

Track 5

Filename M:\My Music\My Music\EAC\The Black Mages\05 The Decisive Battle (Final Fantasy VI).wav

Peak level 97.2 %
Track quality 99.9 %
Test CRC 157B21C2
Copy CRC 157B21C2
Accurately ripped (confidence 12) [01374050]
Copy OK

Track 6

Filename M:\My Music\My Music\EAC\The Black Mages\06 Battle Theme (Final Fantasy VI).wav

Pre-gap length 0:00:01.06

Peak level 97.2 %
Track quality 100.0 %
Test CRC 0C764C55
Copy CRC 0C764C55
Accurately ripped (confidence 12) [329C3CFF]
Copy OK

Track 7

Filename M:\My Music\My Music\EAC\The Black Mages\07 J-E-N-O-V-A (Final Fantasy VII).wav

Peak level 97.2 %
Track quality 100.0 %
Test CRC 960E38A5
Copy CRC 960E38A5
Accurately ripped (confidence 12) [BD3FF108]
Copy OK

Track 8

Filename M:\My Music\My Music\EAC\The Black Mages\08 Those Who Fight Further (Final Fantasy VII).wav

Peak level 97.2 %
Track quality 100.0 %
Test CRC 112EBB5E
Copy CRC 112EBB5E
Accurately ripped (confidence 12) [C105952B]
Copy OK

Track 9

Filename M:\My Music\My Music\EAC\The Black Mages\09 Dancing Mad (Final Fantasy VI).wav

Pre-gap length 0:00:02.10

Peak level 97.2 %
Track quality 100.0 %
Test CRC DBFF647C
Copy CRC DBFF647C
Accurately ripped (confidence 12) [9467B114]
Copy OK

Track 10

Filename M:\My Music\My Music\EAC\The Black Mages\10 Fight With Seymour (Final Fantasy X).wav

Pre-gap length 0:00:01.04

Peak level 97.2 %
Track quality 100.0 %
Test CRC CF8288EA
Copy CRC CF8288EA
Accurately ripped (confidence 12) [3308C943]
Copy OK

All tracks accurately ripped

No errors occurred

End of status report

Год выпуска диска: Dec 22, 2004
Страна-производитель диска: Japan
Издатель (лейбл): Universal J (distributed by Universal Music K.K.)
Номер каталога: UPCH-1377
Продолжительность: 00:50:55



Tracklist

01. The Rocking Grounds (Final Fantasy III)
02. Zeromus (Final Fantasy IV)
03. Vamo' Alla Flamenco (Final Fantasy IX)
04. Hunter's Chance (Final Fantasy IX)
05. Otherworld (Final Fantasy X)
06. Matoya's Cave (Final Fantasy I)
07. The Man With The Machine Gun (Final Fantasy VIII)
08. Maybe I'm A Lion (Final Fantasy VIII)
09. Battle With The Four Fiends (Final Fantasy IV)
10. The Skies Above (Final Fantasy X)
11. Blue Blast - Winning The Rainbow


 
Exact Audio Copy V0.99 prebeta 5 from 4. May 2009

EAC extraction logfile from 12. January 2011, 20:31

THE BLACK MAGES / THE BLACK MAGES II The Skies Above

Used drive : LITE-ON DVDRW SHW-160P6S Adapter: 3 ID: 0

Read mode : Secure
Utilize accurate stream : Yes
Defeat audio cache : Yes
Make use of C2 pointers : No

Read offset correction : 6
Overread into Lead-In and Lead-Out : No
Fill up missing offset samples with silence : Yes
Delete leading and trailing silent blocks : No
Null samples used in CRC calculations : Yes
Used interface : Native Win32 interface for Win NT & 2000
Gap handling : Appended to previous track

Used output format : User Defined Encoder
Selected bitrate : 1024 kBit/s
Quality : High
Add ID3 tag : No
Command line compressor : C:\Program Files\Exact Audio Copy\Flac1.2.1b\flac.exe
Additional command line options : -V -8 -T "artist=%a" -T "title=%t" -T "album=%g" -T "date=%y" -T "tracknumber=%n" -T "genre=%m" %s

TOC of the extracted CD

Track | Start | Length | Start sector | End sector
---------------------------------------------------------
1 | 0:00.00 | 3:56.37 | 0 | 17736
2 | 3:56.37 | 3:51.68 | 17737 | 35129
3 | 7:48.30 | 4:25.10 | 35130 | 55014
4 | 12:13.40 | 4:44.65 | 55015 | 76379
5 | 16:58.30 | 3:14.57 | 76380 | 90986
6 | 20:13.12 | 4:43.73 | 90987 | 112284
7 | 24:57.10 | 4:16.70 | 112285 | 131554
8 | 29:14.05 | 5:34.67 | 131555 | 156671
9 | 34:48.72 | 3:58.40 | 156672 | 174561
10 | 38:47.37 | 7:18.65 | 174562 | 207476
11 | 46:06.27 | 4:49.18 | 207477 | 229169

Track 1

Filename M:\My Music\My Music\EAC\THE BLACK MAGES II The Skies Above\01 The Rocking Grounds (FINAL FANTASY III).wav

Pre-gap length 0:00:02.00

Peak level 97.8 %
Track quality 100.0 %
Test CRC F5EAE6D5
Copy CRC F5EAE6D5
Accurately ripped (confidence 16) [211DE779]
Copy OK

Track 2

Filename M:\My Music\My Music\EAC\THE BLACK MAGES II The Skies Above\02 Zeromus (FINAL FANTASY IV).wav

Pre-gap length 0:00:01.06

Peak level 97.8 %
Track quality 100.0 %
Test CRC 3F67393D
Copy CRC 3F67393D
Accurately ripped (confidence 17) [2C470FAE]
Copy OK

Track 3

Filename M:\My Music\My Music\EAC\THE BLACK MAGES II The Skies Above\03 Vamo' Alla Flamenco (FINAL FANTASY IX).wav

Pre-gap length 0:00:02.80

Peak level 97.8 %
Track quality 100.0 %
Test CRC AEFAC34D
Copy CRC AEFAC34D
Accurately ripped (confidence 17) [2F657DFF]
Copy OK

Track 4

Filename M:\My Music\My Music\EAC\THE BLACK MAGES II The Skies Above\04 Hunter's Chance (FINAL FANTASY IX).wav

Pre-gap length 0:00:02.76

Peak level 97.8 %
Track quality 100.0 %
Test CRC D10DE855
Copy CRC D10DE855
Accurately ripped (confidence 16) [45778A35]
Copy OK

Track 5

Filename M:\My Music\My Music\EAC\THE BLACK MAGES II The Skies Above\05 Otherworld (FINAL FANTASY X).wav

Pre-gap length 0:00:00.66

Peak level 97.8 %
Track quality 100.0 %
Test CRC AEFC2ECF
Copy CRC AEFC2ECF
Accurately ripped (confidence 16) [B3C08F9C]
Copy OK

Track 6

Filename M:\My Music\My Music\EAC\THE BLACK MAGES II The Skies Above\06 Matoya's Cave (FINAL FANTASY I).wav

Pre-gap length 0:00:03.22

Peak level 97.8 %
Track quality 100.0 %
Test CRC A88B0EA5
Copy CRC A88B0EA5
Accurately ripped (confidence 17) [0345E511]
Copy OK

Track 7

Filename M:\My Music\My Music\EAC\THE BLACK MAGES II The Skies Above\07 The Man with the Machine Gun (FINAL FANTASY VIII).wav

Pre-gap length 0:00:02.69

Peak level 97.8 %
Track quality 100.0 %
Test CRC CE497738
Copy CRC CE497738
Accurately ripped (confidence 17) [F685A408]
Copy OK

Track 8

Filename M:\My Music\My Music\EAC\THE BLACK MAGES II The Skies Above\08 Maybe I'm a Lion (FINAL FANTASY VIII).wav

Pre-gap length 0:00:01.69

Peak level 97.8 %
Track quality 100.0 %
Test CRC 16B935F4
Copy CRC 16B935F4
Accurately ripped (confidence 17) [51D6042D]
Copy OK

Track 9

Filename M:\My Music\My Music\EAC\THE BLACK MAGES II The Skies Above\09 Battle with the four Friends (FINAL FANTASY IV).wav

Peak level 97.8 %
Track quality 100.0 %
Test CRC F757C5D1
Copy CRC F757C5D1
Accurately ripped (confidence 16) [60F765F3]
Copy OK

Track 10

Filename M:\My Music\My Music\EAC\THE BLACK MAGES II The Skies Above\10 The Skies Above (FINAL FANTASY X).wav

Pre-gap length 0:00:02.73

Peak level 97.8 %
Track quality 100.0 %
Test CRC B2188C99
Copy CRC B2188C99
Accurately ripped (confidence 17) [70717EDE]
Copy OK

Track 11

Filename M:\My Music\My Music\EAC\THE BLACK MAGES II The Skies Above\11 Blue Blast - Winning the Rainbow.wav

Pre-gap length 0:00:04.76

Peak level 97.8 %
Track quality 99.9 %
Test CRC 42FF6742
Copy CRC 42FF6742
Accurately ripped (confidence 14) [E8BDB0CA]
Copy OK

All tracks accurately ripped

No errors occurred

End of status report

Год выпуска диска: Mar 19, 2008
Страна-производитель диска: Japan
Издатель (лейбл): Dog Ear Records (distributed by Sony Music Distribution)
Номер каталога: DERP-10002
Продолжительность: 01:00:44



Tracklist

01. Opening - Bombing Mission from FINAL FANTASY VII
02. Neo EXDEATH from FINAL FANTASY V "The Final Battle"
03. The Extreme from FINAL FANTASY VIII
04. Assault of the Silver Dragon from FINAL FANTASY IX
05. KURAYAMINOKUMO from FINAL FANTASY III "This is the Last Battle"
06. Distant Worlds from FINAL FANTASY XI
07. Premonition from FINAL FANTASY VIII
08. Grand Cross from FINAL FANTASY IX "Final Battle"
09. Darkness and Starlight from FINAL FANTASY VI "Opera ~ Maria and Draco"
10. LIFE ~ in memory of KEITEN ~


 
EAC extraction logfile from 25. July 2008, 0:56 for CD
The Black Mages / The Black Mages III: Darkness and Starlight

Used drive : SONY DVD RW DRU-840A Adapter: 3 ID: 1
Read mode : Secure with NO C2, accurate stream, NO disable cache
Read offset correction : 6
Overread into Lead-In and Lead-Out : No

Used output format : C:\Program Files\Exact Audio Copy\flac.exe (User Defined Encoder)
192 kBit/s
Additional command line options : -V -8 -T "artist=%a" -T "title=%t" -T "album=%g" -T "date=%y" -T "tracknumber=%n" -T "genre=%m" %s

Other options :
Fill up missing offset samples with silence : Yes
Delete leading and trailing silent blocks : No
Installed external ASPI interface

Track 1
Filename C:\Documents and Settings\xjasonx\Desktop\APS rips\The Black Mages - 2008 - The Black Mages III- Darkness and Starlight\01 - Opening - Bombing Mission (Final Fantasy VII).wav

Pre-gap length 0:00:02.00

Peak level 100.0 %
Track quality 100.0 %
Test CRC 16B4B655
Copy CRC 16B4B655
Copy OK

Track 2
Filename C:\Documents and Settings\xjasonx\Desktop\APS rips\The Black Mages - 2008 - The Black Mages III- Darkness and Starlight\02 - Neo EXDEATH (Final Fantasy V).wav

Peak level 100.0 %
Track quality 100.0 %
Test CRC 66BF597C
Copy CRC 66BF597C
Copy OK

Track 3
Filename C:\Documents and Settings\xjasonx\Desktop\APS rips\The Black Mages - 2008 - The Black Mages III- Darkness and Starlight\03 - The Extreme (Final Fantasy VIII).wav

Peak level 100.0 %
Track quality 100.0 %
Test CRC 3076EF8A
Copy CRC 3076EF8A
Copy OK

Track 4
Filename C:\Documents and Settings\xjasonx\Desktop\APS rips\The Black Mages - 2008 - The Black Mages III- Darkness and Starlight\04 - Assault of the Silver Dragons (Final Fantasy IX).wav

Peak level 100.0 %
Track quality 100.0 %
Test CRC C5B55991
Copy CRC C5B55991
Copy OK

Track 5
Filename C:\Documents and Settings\xjasonx\Desktop\APS rips\The Black Mages - 2008 - The Black Mages III- Darkness and Starlight\05 - KURAYAMINOKUMO (Final Fantasy III).wav

Peak level 100.0 %
Track quality 100.0 %
Test CRC 573F87F5
Copy CRC 573F87F5
Copy OK

Track 6
Filename C:\Documents and Settings\xjasonx\Desktop\APS rips\The Black Mages - 2008 - The Black Mages III- Darkness and Starlight\06 - Distant Worlds (Final Fantasy XI).wav

Peak level 100.0 %
Track quality 99.9 %
Test CRC 3DD572F9
Copy CRC 3DD572F9
Copy OK

Track 7
Filename C:\Documents and Settings\xjasonx\Desktop\APS rips\The Black Mages - 2008 - The Black Mages III- Darkness and Starlight\07 - Premonition (Final Fantasy VIII).wav

Peak level 100.0 %
Track quality 100.0 %
Test CRC 401C64CC
Copy CRC 401C64CC
Copy OK

Track 8
Filename C:\Documents and Settings\xjasonx\Desktop\APS rips\The Black Mages - 2008 - The Black Mages III- Darkness and Starlight\08 - Grand Cross (Final Fantasy IX).wav

Peak level 100.0 %
Track quality 100.0 %
Test CRC A96FA10C
Copy CRC A96FA10C
Copy OK

Track 9
Filename C:\Documents and Settings\xjasonx\Desktop\APS rips\The Black Mages - 2008 - The Black Mages III- Darkness and Starlight\09 - Darkness and Starlight (Final Fantasy VI).wav

Peak level 100.0 %
Track quality 100.0 %
Test CRC 739BAEE0
Copy CRC 739BAEE0
Copy OK

Track 10
Filename C:\Documents and Settings\xjasonx\Desktop\APS rips\The Black Mages - 2008 - The Black Mages III- Darkness and Starlight\10 - Life ~ in memory of KEITEN ~ (original composition).wav

Peak level 90.7 %
Track quality 100.0 %
Test CRC 10195F5E
Copy CRC 10195F5E
Copy OK

No errors occured

End of status report


Группа The Black Mages переигрывает музыку из Final Fantasy в стиле прог-метал. Основана самим Нобуо Уэматсу – легендарным композитором серии.
Двое композиторов из Square Enix, компании-разработчика Final Fantasy, Kenichiro Fukui и Tsuyoshi Sekito записали несколько аранжировок на музыку из этой серии и показали их автору – Нобуо Уэмацу. Постепенно сложилось решение сформировать рок-группу (оно далось нелегко, поскольку все трое к тому моменту были уже не молоды). Первый альбом был записан в формате трио. Поскольку Уэмацу хотелось выступать живьём, для концертов состав был расширен за счёт ещё троих сотрудников Square Enix.

The Black Mages (Чёрный маг) – класс персонажа во многих частях Final Fantasy. Название было предложено одним из сотрудников Square Enix, и музыканты решили его сделать ангоязычным, потому что, по их мнению, по-японски оно "не звучало".

Поскольку права на название принадлежат компании, группа не может играть каверы на игры других производителей.

Группа объявила о прекращении деятельности 7 августа 2010 г. Вероятные причины – отсутствие у участников свободного времени для репетиций, проблемы с авторскими правами. Сам Нобуо Уэмацу продолжает играть рок-аранжировки своей музыки, теперь с группой Earthbound Papas.
Nobuo Uematsu - клавишные,
Kenichiro Fukui – клавишные,
Tsuyoshi Sekito – гитара,
Michio Okamiya – гитара,
Keiji Kawamori – бас,
Arata Hanyuda – ударные.

info [Профиль]  [ЛС] 

skyestarlet

Пол: Пол:Муж

Стаж: 4 года 8 месяцев

Сообщений: 45

Россия
Рейтинг

post 27-Сен-2017 23:05 (спустя 3 месяца 5 дней) [-]0[+]

[Цитировать] 

релиз огниво! спасибо
info [Профиль]  [ЛС] 
Показать сообщения:    
Ответить на тему

Текущее время: 23-Ноя 19:11

Часовой пояс: GMT + 4



Вы не можете начинать темы
Вы не можете отвечать на сообщения
Вы не можете редактировать свои сообщения
Вы не можете удалять свои сообщения
Вы не можете голосовать в опросах
Вы не можете прикреплять файлы к сообщениям
Вы не можете скачивать файлы