Ошибка

Форма голоса / Eiga Koe no Katachi / A Silent Voice / The Shape of Voice [Movie] [2016] [повседневность, драма, романтика, школа, сёнен] [BDRip] [720p] [Любительский (JAP+SUB)]

Ответить на тему
 
Автор Сообщение

TotSamiySoer

Пол: Пол:Муж

Стаж: 3 года

Сообщений: 298

Россия
Рейтинг

post 12-Июн-2017 00:50 1[+]

[Цитировать] 

Форма голоса / Eiga Koe no Katachi / A Silent Voice / The Shape of Voice

Год выпуска: 2016
Страна: Япония
Жанр: повседневность, драма, романтика, школа, сёнен
Тип: Фильм
Продолжительность: 130 мин.
Студия: Animation Do, Kyoto Animation
Режиссер: Ямада Наоко
Озвучание: двухголосое (муж./жен.): Soer, MezIdA [DeadLine Studio]
Субтитры: PigusPigeon [DeadLine Studio]
Описание:
Подобно миру взрослых, мир детей не терпит различий, выделяющих кого-то на фоне других, коих принято считать «нормальными». Этот мир жесток, поскольку его обитатели, в отличие от обитателей мира взрослых, еще не успели научиться скрывать мерзкие мысли за напускной улыбкой. Многие вещи им непонятны, более того — неведомы. Дети прямолинейны. И поэтому очень жестоки.
Однако все дети когда-нибудь вырастают. И оглядываясь назад, во времена школьной рутины, некоторым из них становится стыдно за свою юность.
Сложно представить, сколько лет должно пройти, пока до примерного задиры и разгильдяя дойдет, каким глупцом он был, когда веселья ради издевался над инвалидом. Кто-то об этом даже не вспомнит. А кто-то вроде Шои возненавидит себя крепкой ненавистью. В младшей школе он умудрился превратить жизнь одноклассницы по имени Шоко в ад. Только потому, что та была глухая, не как все. И теперь, несколько лет спустя, хоть и запоздало, но мальчишка понял: чтобы сказать нечто важное тому, кто не может тебя услышать, вовсе не обязательно использовать голос.
Информация о видео:

Качество: BDRip | Формат: .mkv | Рип: Beatrice-Raws
Видео: AVC, 1280x692, 4223 kbps, 23.976 fps [10 bit]
Звук (Rus(int)): аас, 192 kbps, 48.0 KHz, 2.0 ch | [2VO]
Звук (Japanese): аас, 192 kbps, 48.0 KHz, 2.0 ch | Original
Субтитры (Russian): ass, встроенные | Надписи
Субтитры (Russian): ass, встроенные | Субтитры
Хардсаб: отсутствует
General
Unique ID : 175277973681809089484528868930409839513 (0x83DD4F4FBE344E5FBDCDFEFE8981BB99)
Complete name : D:\Загрузки\DeadLine\[DLS] Eiga Koe no Katachi [Soer & MezIdA]\[DeadLine] Eiga Koe no Katachi [Soer & MezIdA] [720p BDRip].mkv
Format : Matroska
Format version : Version 4 / Version 2
File size : 4.18 GiB
Duration : 2h 10mn
Overall bit rate : 4 598 Kbps
Encoded date : UTC 2017-06-10 19:35:54
Writing application : mkvmerge v7.6.0 ('Garden of Dreams') 64bit built on Feb 8 2015 13:04:34
Writing library : libebml v1.3.1 + libmatroska v1.4.2

Video
ID : 1
Format : AVC
Format/Info : Advanced Video Codec
Format profile : High 10@L5
Format settings, CABAC : Yes
Format settings, ReFrames : 9 frames
Codec ID : V_MPEG4/ISO/AVC
Duration : 2h 9mn
Bit rate : 4 223 Kbps
Width : 1 280 pixels
Height : 692 pixels
Display aspect ratio : 1.85:1
Frame rate mode : Constant
Frame rate : 23.976 (24000/1001) fps
Color space : YUV
Chroma subsampling : 4:2:0
Bit depth : 10 bits
Scan type : Progressive
Bits/(Pixel*Frame) : 0.199
Stream size : 3.83 GiB (92%)
Title : BDrip by Jensen
Writing library : x264 core 148 r2597M e86f3a1 (DJATOM's build)
Encoding settings : cabac=1 / ref=9 / deblock=1:1:-1 / analyse=0x3:0x113 / me=umh / subme=9 / psy=1 / fade_compensate=0.00 / psy_rd=1.00:0.00 / mixed_ref=1 / me_range=32 / chroma_me=1 / trellis=2 / 8x8dct=1 / cqm=0 / deadzone=21,11 / fast_pskip=1 / chroma_qp_offset=-2 / threads=22 / lookahead_threads=5 / sliced_threads=0 / nr=0 / decimate=1 / interlaced=0 / bluray_compat=0 / constrained_intra=0 / bframes=11 / b_pyramid=2 / b_adapt=2 / b_bias=0 / direct=1 / weightb=1 / open_gop=0 / weightp=2 / keyint=240 / keyint_min=23 / scenecut=40 / intra_refresh=0 / rc=crf / mbtree=0 / crf=14.0000 / qcomp=0.72 / qpmin=0 / qpmax=81 / qpstep=4 / ip_ratio=1.40 / pb_ratio=1.30 / aq=1:0.85
Language : Japanese
Default : Yes
Forced : No
Color range : Limited
Color primaries : BT.709
Transfer characteristics : BT.709
Matrix coefficients : BT.709

Audio #1
ID : 2
Format : AC-3
Format/Info : Audio Coding 3
Mode extension : CM (complete main)
Format settings, Endianness : Big
Codec ID : A_AC3
Duration : 2h 10mn
Bit rate mode : Constant
Bit rate : 192 Kbps
Channel(s) : 2 channels
Channel positions : Front: L R
Sampling rate : 48.0 KHz
Frame rate : 31.250 fps (1536 spf)
Compression mode : Lossy
Stream size : 179 MiB (4%)
Title : [Soer & MezIdA] [Deadline Studio]
Language : Russian
Default : Yes
Forced : Yes

Audio #2
ID : 3
Format : AC-3
Format/Info : Audio Coding 3
Mode extension : CM (complete main)
Format settings, Endianness : Big
Codec ID : A_AC3
Duration : 2h 10mn
Bit rate mode : Constant
Bit rate : 192 Kbps
Channel(s) : 2 channels
Channel positions : Front: L R
Sampling rate : 48.0 KHz
Frame rate : 31.250 fps (1536 spf)
Compression mode : Lossy
Stream size : 179 MiB (4%)
Title : Original
Language : Japanese
Default : No
Forced : No

Text #1
ID : 4
Format : ASS
Codec ID : S_TEXT/ASS
Codec ID/Info : Advanced Sub Station Alpha
Duration : 2h 5mn
Bit rate : 139 bps
Count of elements : 1152
Compression mode : Lossless
Stream size : 128 KiB (0%)
Title : Надписи
Language : Russian
Default : Yes
Forced : Yes

Text #2
ID : 5
Format : ASS
Codec ID : S_TEXT/ASS
Codec ID/Info : Advanced Sub Station Alpha
Duration : 2h 3mn
Bit rate : 107 bps
Count of elements : 1812
Compression mode : Lossless
Stream size : 97.1 KiB (0%)
Title : Полные субтитры
Language : Russian
Default : No
Forced : No

Menu
00:00:00.000 : en:Beginning
00:13:10.080 : en:Ballad of the monster
00:22:55.374 : en:Reunion
00:34:50.338 : en:Reason for the meeting
00:44:34.171 : en:Little sister
00:53:08.143 : en:Sahara and Ueno
01:03:58.709 : en:Ponytail
01:15:37.282 : en:Self-hatred
01:30:03.189 : en:What should I do?
01:44:33.600 : en:Don't cry, Nishimiya
01:56:25.812 : en:The shape of voice
02:05:56.048 : en:Ending
http://tapochek.net/viewtopic.php?t=201129 - альтернативная озвучка
info [Профиль]  [ЛС] 

TotSamiySoer

Пол: Пол:Муж

Стаж: 3 года

Сообщений: 298

Россия
Рейтинг

post 12-Июн-2017 00:51 (спустя 1 минута) [-]0[+]

[Цитировать] 

Добавлен: фильм
info [Профиль]  [ЛС] 

dante3732

Пол: Пол:Муж

Стаж: 5 лет 10 месяцев

Сообщений: 157

Россия
Рейтинг

post 12-Июн-2017 14:14 (спустя 13 часов) [-]2[+]

[Цитировать] 

Клёвое аниме!
info [Профиль]  [ЛС] 

Ergo Proxy

Пол: Пол:Муж

Стаж: 5 лет 1 месяц

Сообщений: 61

Россия
Рейтинг

post 12-Июн-2017 14:21 (спустя 7 минут) [-]2[+]

[Цитировать] 

Посмотрел это аниме чуток ранее, но с озвучкой от стороннего ресурса.
Это не Синкай, и не Миядзаки, но смотрится очень даже неплохо.
С учетом того, что поднимается достаточно острая проблема современной адаптации ограниченных детей, аниме может показаться затянутым на первый взгляд, но это не так.
Рисовка на мой взгляд обычная, но очень красивая. Мои глаза отдыхали просто.
Смотрел данное произведение после "Сада изящных слов", и был очень очень доволен.

Если коротко, аниме осталось в копилке, и думаю пересмотрю его где-то через годик. Пожалуй так. Всем приятного просмотра.
info [Профиль]  [ЛС] 

Jamato

Пол: Пол:Муж

Стаж: 7 лет 9 месяцев

Сообщений: 815

Украина
Рейтинг

post 12-Июн-2017 15:17 (спустя 55 минут) [-]3[+]

[Цитировать] 

Отличная вещь, хотя очень грустная. Затрагивает многие социальные проблемы.

_________________
Экономлю энергию и деньги на С.С.С.Р.
Сигаретах.Спиртном.Сексе.Радости...(с)闇倭
info [Профиль]  [ЛС] 
Показать сообщения:    
Ответить на тему

Текущее время: 19-Ноя 20:17

Часовой пояс: GMT + 4



Вы не можете начинать темы
Вы не можете отвечать на сообщения
Вы не можете редактировать свои сообщения
Вы не можете удалять свои сообщения
Вы не можете голосовать в опросах
Вы не можете прикреплять файлы к сообщениям
Вы не можете скачивать файлы