Ошибка

(Score, Arrangement) Игра Престолов / Game of Thrones Soundtrack Collection (by Ramin Djawadi) - 2011-2017 г., FLAC (tracks), lossless

Ответить на тему
 
Автор Сообщение

Hobbit38

Пол: Пол:Муж

Стаж: 3 года 2 месяца

Сообщений: 85

Россия
Рейтинг

post 11-Июн-2017 01:54 0[+]

[Цитировать] 


Game of Thrones Soundtrack Collection
Жанр: Score, Arrangement | Год выпуска диска: 2011-2017

Композитор: Ramin Djawadi

Аудио кодек: FLAC (.flac | Тип рипа: tracks | Битрейт аудио: lossless

Продолжительность: 07:35:51 | Полиграфия: частично

Композитор: Ramin Djawadi
Год выпуска: 2011
Продолжительность: 01:06:10
01. Main Title (01:46)
02. North of the Wall (03:48)
03. Goodbye Brother (03:07)
04. The Kingsroad (02:06)
05. The King's Arrival (03:34)
06. Love in the Eyes (04:00)
07. A Raven from King's Landing (01:17)
08. The Wall (02:00)
09. Things I Do for Love (01:52)
10. A Golden Crown (01:38)
11. Winter is Coming (02:42)
12. A Bird Without Feathers (02:02)
13. Await the King's Justice (02:01)
14. You'll be Queen One Day (01:36)
15. The Assassin's Dagger (01:19)
16. To Vaes Dothrak (01:29)
17. Jon's Honor (02:36)
18. Black of Hair (01:41)
19. You Win Or You Die (01:57)
20. Small Pack of Wolves (01:57)
21. Game of Thrones (01:18)
22. Kill Them All (02:36)
23. The Pointy End (03:17)
24. Victory Does Not Make Us Conquerors (01:36)
25. When the Sun Rises in the West (02:40)
26. King of the North (01:28)
27. The Night's Watch (01:45)
28. Fire and Blood (04:30)
29. Finale (02:31)
 
Exact Audio Copy V1.0 beta 2 from 29. April 2011
EAC extraction logfile from 4. July 2011, 18:14
Ramin Djawadi / Game Of Thrones
Used drive : PLEXTOR DVDR PX-755A Adapter: 3 ID: 0
Read mode : Secure
Utilize accurate stream : Yes
Defeat audio cache : Yes
Make use of C2 pointers : No
Read offset correction : 30
Overread into Lead-In and Lead-Out : No
Fill up missing offset samples with silence : Yes
Delete leading and trailing silent blocks : No
Null samples used in CRC calculations : Yes
Used interface : Native Win32 interface for Win NT & 2000
Gap handling : Appended to previous track
Used output format : User Defined Encoder
Selected bitrate : 320 kBit/s
Quality : High
Add ID3 tag : Yes
Command line compressor : C:\Program Files (x86)\Exact Audio Copy\Flac\flac.exe
Additional command line options : -V -8 -T "artist=%artist%" -T "title=%title%" -T "album=%albumtitle%" -T "date=%year%" -T "tracknumber=%tracknr%" -T "genre=%genre%" %source%
TOC of the extracted CD
Track | Start | Length | Start sector | End sector
---------------------------------------------------------
1 | 0:01.23 | 1:46.21 | 98 | 8068
2 | 1:47.44 | 3:48.32 | 8069 | 25200
3 | 5:36.01 | 3:07.21 | 25201 | 39246
4 | 8:43.22 | 2:06.04 | 39247 | 48700
5 | 10:49.26 | 3:33.74 | 48701 | 64749
6 | 14:23.25 | 4:00.37 | 64750 | 82786
7 | 18:23.62 | 1:16.57 | 82787 | 88543
8 | 19:40.44 | 2:00.17 | 88544 | 97560
9 | 21:40.61 | 1:52.01 | 97561 | 105961
10 | 23:32.62 | 1:38.32 | 105962 | 113343
11 | 25:11.19 | 2:41.58 | 113344 | 125476
12 | 27:53.02 | 2:01.63 | 125477 | 134614
13 | 29:54.65 | 2:00.63 | 134615 | 143677
14 | 31:55.53 | 1:35.54 | 143678 | 150856
15 | 33:31.32 | 1:19.21 | 150857 | 156802
16 | 34:50.53 | 1:28.65 | 156803 | 163467
17 | 36:19.43 | 2:35.53 | 163468 | 175145
18 | 38:55.21 | 1:40.46 | 175146 | 182691
19 | 40:35.67 | 1:57.01 | 182692 | 191467
20 | 42:32.68 | 1:57.13 | 191468 | 200255
21 | 44:30.06 | 1:18.22 | 200256 | 206127
22 | 45:48.28 | 2:35.65 | 206128 | 217817
23 | 48:24.18 | 3:17.03 | 217818 | 232595
24 | 51:41.21 | 1:36.23 | 232596 | 239818
25 | 53:17.44 | 2:40.19 | 239819 | 251837
26 | 55:57.63 | 1:28.12 | 251838 | 258449
27 | 57:26.00 | 1:44.58 | 258450 | 266307
28 | 59:10.58 | 4:30.16 | 266308 | 286573
29 | 63:40.74 | 2:31.11 | 286574 | 297909
Track 1
Filename C:\EACrips\01 Main Title.wav
Pre-gap length 0:00:03.30
Peak level 96.6 %
Extraction speed 4.1 X
Track quality 100.0 %
Test CRC 17120130
Copy CRC 17120130
Copy OK
Track 2
Filename C:\EACrips\02 North Of The Wall.wav
Pre-gap length 0:00:00.32
Peak level 98.8 %
Extraction speed 4.3 X
Track quality 99.9 %
Test CRC F145FF30
Copy CRC F145FF30
Copy OK
Track 3
Filename C:\EACrips\03 Goodbye Brother.wav
Peak level 52.2 %
Extraction speed 5.3 X
Track quality 100.0 %
Test CRC AB062300
Copy CRC AB062300
Copy OK
Track 4
Filename C:\EACrips\04 The Kingsroad.wav
Peak level 96.6 %
Extraction speed 5.3 X
Track quality 100.0 %
Test CRC 1B585355
Copy CRC 1B585355
Copy OK
Track 5
Filename C:\EACrips\05 The King's Arrival.wav
Pre-gap length 0:00:00.29
Peak level 96.6 %
Extraction speed 6.0 X
Track quality 100.0 %
Test CRC D66BBC7C
Copy CRC D66BBC7C
Copy OK
Track 6
Filename C:\EACrips\06 Love In The Eyes.wav
Pre-gap length 0:00:00.04
Peak level 96.6 %
Extraction speed 6.5 X
Track quality 100.0 %
Test CRC 04181BC3
Copy CRC 04181BC3
Copy OK
Track 7
Filename C:\EACrips\07 A Raven From King's Landing.wav
Pre-gap length 0:00:00.49
Peak level 71.8 %
Extraction speed 5.2 X
Track quality 100.0 %
Test CRC 389E1238
Copy CRC 389E1238
Copy OK
Track 8
Filename C:\EACrips\08 The Wall.wav
Pre-gap length 0:00:00.36
Peak level 96.6 %
Extraction speed 6.0 X
Track quality 100.0 %
Test CRC A87FA027
Copy CRC A87FA027
Copy OK
Track 9
Filename C:\EACrips\09 Things I Do For Love.wav
Pre-gap length 0:00:01.64
Peak level 66.3 %
Extraction speed 6.1 X
Track quality 100.0 %
Test CRC 60824C62
Copy CRC 60824C62
Copy OK
Track 10
Filename C:\EACrips\10 A Golden Crown.wav
Pre-gap length 0:00:00.04
Peak level 57.1 %
Extraction speed 6.0 X
Track quality 100.0 %
Test CRC F0ACF7A6
Copy CRC F0ACF7A6
Copy OK
Track 11
Filename C:\EACrips\11 Winter Is Coming.wav
Pre-gap length 0:00:00.30
Peak level 96.6 %
Extraction speed 6.9 X
Track quality 100.0 %
Test CRC 99672213
Copy CRC 99672213
Copy OK
Track 12
Filename C:\EACrips\12 A Bird Without Feathers.wav
Pre-gap length 0:00:00.25
Peak level 48.4 %
Extraction speed 4.8 X
Track quality 99.9 %
Test CRC 030382DF
Copy CRC 030382DF
Copy OK
Track 13
Filename C:\EACrips\13 Await The King's Justice.wav
Pre-gap length 0:00:00.02
Peak level 96.6 %
Extraction speed 4.9 X
Track quality 99.9 %
Test CRC 74559FCC
Copy CRC 74559FCC
Copy OK
Track 14
Filename C:\EACrips\14 You'll Be Queen One Day.wav
Pre-gap length 0:00:00.50
Peak level 64.0 %
Extraction speed 6.3 X
Track quality 100.0 %
Test CRC 6E50E4F2
Copy CRC 6E50E4F2
Copy OK
Track 15
Filename C:\EACrips\15 The Assassin's Dagger.wav
Peak level 96.6 %
Extraction speed 5.9 X
Track quality 100.0 %
Test CRC 9AEE4E40
Copy CRC 9AEE4E40
Copy OK
Track 16
Filename C:\EACrips\16 To Vaes Dothrak.wav
Pre-gap length 0:00:00.72
Peak level 96.6 %
Extraction speed 6.1 X
Track quality 100.0 %
Test CRC 1E289A54
Copy CRC 1E289A54
Copy OK
Track 17
Filename C:\EACrips\17 Jon's Honor.wav
Pre-gap length 0:00:00.12
Peak level 98.3 %
Extraction speed 5.6 X
Track quality 99.9 %
Test CRC DEF2D2D4
Copy CRC DEF2D2D4
Copy OK
Track 18
Filename C:\EACrips\18 Black Of Hair.wav
Pre-gap length 0:00:00.66
Peak level 96.6 %
Extraction speed 6.2 X
Track quality 100.0 %
Test CRC 798F51F7
Copy CRC 798F51F7
Copy OK
Track 19
Filename C:\EACrips\19 You Win Or You Die.wav
Pre-gap length 0:00:00.62
Peak level 89.3 %
Extraction speed 6.6 X
Track quality 100.0 %
Test CRC 0936C8DC
Copy CRC 0936C8DC
Copy OK
Track 20
Filename C:\EACrips\20 Small Pack Of Wolves.wav
Pre-gap length 0:00:00.52
Peak level 96.6 %
Extraction speed 5.1 X
Track quality 99.9 %
Test CRC 81FF54DE
Copy CRC 81FF54DE
Copy OK
Track 21
Filename C:\EACrips\21 Game Of Thrones.wav
Pre-gap length 0:00:00.24
Peak level 96.6 %
Extraction speed 5.9 X
Track quality 100.0 %
Test CRC 33C08DAB
Copy CRC 33C08DAB
Copy OK
Track 22
Filename C:\EACrips\22 Kill Them All.wav
Pre-gap length 0:00:00.53
Peak level 59.5 %
Extraction speed 7.1 X
Track quality 100.0 %
Test CRC 300328D6
Copy CRC 300328D6
Copy OK
Track 23
Filename C:\EACrips\23 The Pointy End.wav
Pre-gap length 0:00:01.34
Peak level 96.9 %
Extraction speed 7.4 X
Track quality 100.0 %
Test CRC 013525A7
Copy CRC 013525A7
Copy OK
Track 24
Filename C:\EACrips\24 Victory Does Not Make Us Conquerors.wav
Pre-gap length 0:00:00.89
Peak level 59.7 %
Extraction speed 6.2 X
Track quality 100.0 %
Test CRC 0FB001A4
Copy CRC 0FB001A4
Copy OK
Track 25
Filename C:\EACrips\25 When The Sun Rises In The West.wav
Pre-gap length 0:00:01.26
Peak level 90.4 %
Extraction speed 7.0 X
Track quality 100.0 %
Test CRC 058AB6A3
Copy CRC 058AB6A3
Copy OK
Track 26
Filename C:\EACrips\26 King Of The North.wav
Pre-gap length 0:00:00.26
Peak level 96.6 %
Extraction speed 6.1 X
Track quality 100.0 %
Test CRC 31B4351B
Copy CRC 31B4351B
Copy OK
Track 27
Filename C:\EACrips\27 The Night's Watch.wav
Pre-gap length 0:00:00.09
Peak level 98.4 %
Extraction speed 6.5 X
Track quality 100.0 %
Test CRC 0A3EA4F5
Copy CRC 0A3EA4F5
Copy OK
Track 28
Filename C:\EACrips\28 Fire And Blood.wav
Pre-gap length 0:00:00.34
Peak level 99.6 %
Extraction speed 6.8 X
Track quality 99.9 %
Test CRC AF2C7693
Copy CRC AF2C7693
Copy OK
Track 29
Filename C:\EACrips\29 Finale.wav
Peak level 96.6 %
Extraction speed 7.1 X
Track quality 100.0 %
Test CRC 19364837
Copy CRC 19364837
Copy OK
No errors occurred
End of status report
Композитор: Ramin Djawadi
Год выпуска: 2012
Производитель диска: P&O, Germany
Издатель (лейбл): Varese Sarabande
Номер по каталогу: VSD-7148
Продолжительность: 00:56:56
01. Main Title (01:47)
02. The Throne is Mine (03:16)
03. What is Dead May Never Die (02:07)
04. Warrior of Light (03:04)
05. Valar Morghulis (03:00)
06. Winterfell (02:43)
07. Qarth (02:12)
08. Wildfire (03:40)
09. I Am Hers, She is Mine (02:18)
10. Pyat Pree (02:13)
11. Don’t Die with a Clean Sword (03:23)
12. We Are the Watchers On the Wall (02:38)
13. Pay the Iron Price (02:33)
14. One More Drink Before the War (02:06)
15. House of the Undying (05:03)
16. Stand and Fight (02:05)
17. The Old Gods and the New (02:39)
18. Mother of Dragons (02:35)
19. I Will Keep You Safe (02:18)
20. The Rains of Castomere (02:24)
21. Three Blasts (02:40)
 
Exact Audio Copy V1.0 beta 3 from 29. August 2011
EAC extraction logfile from 12. June 2012, 17:00
Ramin Djawadi / Game Of Thrones: Season 2
Used drive : TSSTcorpCD/DVDW SH-S182M Adapter: 0 ID: 0
Read mode : Secure
Utilize accurate stream : Yes
Defeat audio cache : Yes
Make use of C2 pointers : No
Read offset correction : 6
Overread into Lead-In and Lead-Out : No
Fill up missing offset samples with silence : Yes
Delete leading and trailing silent blocks : No
Null samples used in CRC calculations : Yes
Used interface : Native Win32 interface for Win NT & 2000
Gap handling : Appended to previous track
Used output format : User Defined Encoder
Selected bitrate : 1024 kBit/s
Quality : High
Add ID3 tag : No
Command line compressor : C:\Program Files\Exact Audio Copy\Flac\flac.exe
Additional command line options : -8 -V -T "ARTIST=%artist%" -T "TITLE=%title%" -T "ALBUM=%albumtitle%" -T "DATE=%year%"
-T "TRACKNUMBER=%tracknr%" -T "GENRE=%genre%" -T "PERFORMER=%albuminterpret%" -T "COMPOSER=%composer%" %source% -o %dest%
TOC of the extracted CD
Track | Start | Length | Start sector | End sector
---------------------------------------------------------
1 | 0:00.00 | 1:47.17 | 0 | 8041
2 | 1:47.17 | 3:16.60 | 8042 | 22801
3 | 5:04.02 | 2:07.59 | 22802 | 32385
4 | 7:11.61 | 3:04.04 | 32386 | 46189
5 | 10:15.65 | 3:00.06 | 46190 | 59695
6 | 13:15.71 | 2:43.55 | 59696 | 71975
7 | 15:59.51 | 2:12.72 | 71976 | 81947
8 | 18:12.48 | 3:40.33 | 81948 | 98480
9 | 21:53.06 | 2:18.16 | 98481 | 108846
10 | 24:11.22 | 2:13.20 | 108847 | 118841
11 | 26:24.42 | 3:23.42 | 118842 | 134108
12 | 29:48.09 | 2:38.31 | 134109 | 145989
13 | 32:26.40 | 2:33.54 | 145990 | 157518
14 | 35:00.19 | 2:06.44 | 157519 | 167012
15 | 37:06.63 | 5:03.73 | 167013 | 189810
16 | 42:10.61 | 2:05.52 | 189811 | 199237
17 | 44:16.38 | 2:39.61 | 199238 | 211223
18 | 46:56.24 | 2:35.54 | 211224 | 222902
19 | 49:32.03 | 2:18.33 | 222903 | 233285
20 | 51:50.36 | 2:24.19 | 233286 | 244104
21 | 54:14.55 | 2:40.54 | 244105 | 256158
Track 1
Filename C:\Music\01 - Ramin Djawadi - Main Title.wav
Pre-gap length 0:00:02.00
Peak level 94.4 %
Extraction speed 3.0 X
Track quality 99.9 %
Test CRC 9B3B9DEC
Copy CRC 9B3B9DEC
Track not present in AccurateRip database
Copy OK
Track 2
Filename C:\Music\02 - Ramin Djawadi - The Throne Is Mine.wav
Pre-gap length 0:00:01.00
Peak level 94.4 %
Extraction speed 4.5 X
Track quality 100.0 %
Test CRC 3EE19745
Copy CRC 3EE19745
Track not present in AccurateRip database
Copy OK
Track 3
Filename C:\Music\03 - Ramin Djawadi - What Is Dead May Never Die.wav
Pre-gap length 0:00:01.00
Peak level 100.0 %
Extraction speed 3.6 X
Track quality 99.9 %
Test CRC 8927FBDC
Copy CRC 8927FBDC
Track not present in AccurateRip database
Copy OK
Track 4
Filename C:\Music\04 - Ramin Djawadi - Warrior Of Light.wav
Pre-gap length 0:00:01.00
Peak level 95.7 %
Extraction speed 5.0 X
Track quality 100.0 %
Test CRC CF9D39F7
Copy CRC CF9D39F7
Track not present in AccurateRip database
Copy OK
Track 5
Filename C:\Music\05 - Ramin Djawadi - Valar Morghulis.wav
Pre-gap length 0:00:01.00
Peak level 94.4 %
Extraction speed 5.3 X
Track quality 100.0 %
Test CRC 80754B93
Copy CRC 80754B93
Track not present in AccurateRip database
Copy OK
Track 6
Filename C:\Music\06 - Ramin Djawadi - Winterfell.wav
Pre-gap length 0:00:01.00
Peak level 94.4 %
Extraction speed 5.4 X
Track quality 100.0 %
Test CRC 38E887C7
Copy CRC 38E887C7
Track not present in AccurateRip database
Copy OK
Track 7
Filename C:\Music\07 - Ramin Djawadi - Qarth.wav
Pre-gap length 0:00:01.00
Peak level 94.4 %
Extraction speed 5.4 X
Track quality 100.0 %
Test CRC 61A5ECAC
Copy CRC 61A5ECAC
Track not present in AccurateRip database
Copy OK
Track 8
Filename C:\Music\08 - Ramin Djawadi - Wildfire.wav
Pre-gap length 0:00:01.00
Peak level 95.4 %
Extraction speed 5.3 X
Track quality 99.9 %
Test CRC AD0386B9
Copy CRC AD0386B9
Track not present in AccurateRip database
Copy OK
Track 9
Filename C:\Music\09 - Ramin Djawadi - I Am Hers, She Is Mine.wav
Pre-gap length 0:00:01.00
Peak level 75.1 %
Extraction speed 5.8 X
Track quality 100.0 %
Test CRC EC2ABC9F
Copy CRC EC2ABC9F
Track not present in AccurateRip database
Copy OK
Track 10
Filename C:\Music\10 - Ramin Djawadi - Pyat Pree.wav
Pre-gap length 0:00:01.00
Peak level 94.4 %
Extraction speed 5.9 X
Track quality 100.0 %
Test CRC C9308D54
Copy CRC C9308D54
Track not present in AccurateRip database
Copy OK
Track 11
Filename C:\Music\11 - Ramin Djawadi - Don’t Die With A Clean Sword.wav
Pre-gap length 0:00:01.00
Peak level 94.4 %
Extraction speed 6.6 X
Track quality 100.0 %
Test CRC 354C2C5D
Copy CRC 354C2C5D
Track not present in AccurateRip database
Copy OK
Track 12
Filename C:\Music\12 - Ramin Djawadi - We Are The Watchers On The Wall.wav
Pre-gap length 0:00:01.00
Peak level 97.6 %
Extraction speed 6.6 X
Track quality 100.0 %
Test CRC 4358ADBA
Copy CRC 4358ADBA
Track not present in AccurateRip database
Copy OK
Track 13
Filename C:\Music\13 - Ramin Djawadi - Pay The Iron Price.wav
Pre-gap length 0:00:01.00
Peak level 99.5 %
Extraction speed 5.5 X
Track quality 99.9 %
Test CRC C4EF3AAB
Copy CRC C4EF3AAB
Track not present in AccurateRip database
Copy OK
Track 14
Filename C:\Music\14 - Ramin Djawadi - One More Drink Before The War.wav
Pre-gap length 0:00:01.00
Peak level 94.4 %
Extraction speed 6.5 X
Track quality 100.0 %
Test CRC 80E0DE35
Copy CRC 80E0DE35
Track not present in AccurateRip database
Copy OK
Track 15
Filename C:\Music\15 - Ramin Djawadi - House Of The Undying.wav
Pre-gap length 0:00:01.00
Peak level 91.1 %
Extraction speed 7.7 X
Track quality 100.0 %
Test CRC 8EE3E93F
Copy CRC 8EE3E93F
Track not present in AccurateRip database
Copy OK
Track 16
Filename C:\Music\16 - Ramin Djawadi - Stand And Fight.wav
Pre-gap length 0:00:01.00
Peak level 94.4 %
Extraction speed 6.9 X
Track quality 100.0 %
Test CRC 99EC13FE
Copy CRC 99EC13FE
Track not present in AccurateRip database
Copy OK
Track 17
Filename C:\Music\17 - Ramin Djawadi - The Old Gods And The New.wav
Pre-gap length 0:00:01.00
Peak level 69.0 %
Extraction speed 7.3 X
Track quality 100.0 %
Test CRC 5F8D69DF
Copy CRC 5F8D69DF
Track not present in AccurateRip database
Copy OK
Track 18
Filename C:\Music\18 - Ramin Djawadi - Mother Of Dragons.wav
Pre-gap length 0:00:01.00
Peak level 94.7 %
Extraction speed 6.3 X
Track quality 99.9 %
Test CRC 8CBFB165
Copy CRC 8CBFB165
Track not present in AccurateRip database
Copy OK
Track 19
Filename C:\Music\19 - Ramin Djawadi - I Will Keep You Safe.wav
Pre-gap length 0:00:00.74
Peak level 94.4 %
Extraction speed 6.1 X
Track quality 99.9 %
Test CRC 4362F311
Copy CRC 4362F311
Track not present in AccurateRip database
Copy OK
Track 20
Filename C:\Music\20 - The National - The Rains Of Castomere.wav
Pre-gap length 0:00:01.00
Peak level 54.2 %
Extraction speed 7.6 X
Track quality 100.0 %
Test CRC 93C0D49E
Copy CRC 93C0D49E
Track not present in AccurateRip database
Copy OK
Track 21
Filename C:\Music\21 - Ramin Djawadi - Three Blasts.wav
Pre-gap length 0:00:01.00
Peak level 98.4 %
Extraction speed 7.7 X
Track quality 100.0 %
Test CRC 5433B3BE
Copy CRC 5433B3BE
Track not present in AccurateRip database
Copy OK
None of the tracks are present in the AccurateRip database
No errors occurred
End of status report
==== Log checksum A0C8B7746C5057A0DBEC3F3FD6B016523A309D008264D9A965C35598CEDB1716 ====
Композитор: Ramin Djawadi
Год выпуска: 2013
Продолжительность: 00:53:20
01. Main Title (01:44)
02. A Lannister Always Pays His Debts (02:50)
03. Dracarys (02:53)
04. I Paid the Iron Price (03:15)
05. Chaos is a Ladder (02:58)
06. Dark Wings, Dark Words (02:47)
07. You Know Nothing (03:19)
08. Wall of Ice (03:19)
09. Kingslayer (02:11)
10. I Have to Go North (01:23)
11. White Walkers (03:20)
12. It's Always Summer Under the Sea (Shireen's Song) (01:17)
13. Reek (02:41)
14. The Bear and the Maiden Fair (02:56)
15. The Night Is Dark (02:56)
16. The Lannisters Send Their Regards (05:44)
17. Heir to Winterfell (02:14)
18. Mhysa (03:54)
19. For the Realm (01:31)
 
Exact Audio Copy V1.0 beta 3 from 29. August 2011
EAC extraction logfile from 11. July 2013, 18:19
Ramin Djawadi / Game of Thrones (Season 3 OST)
Used drive : SONY BD RW BWU-500S Adapter: 0 ID: 0
Read mode : Secure
Utilize accurate stream : Yes
Defeat audio cache : Yes
Make use of C2 pointers : No
Read offset correction : 6
Overread into Lead-In and Lead-Out : No
Fill up missing offset samples with silence : Yes
Delete leading and trailing silent blocks : No
Null samples used in CRC calculations : Yes
Used interface : Native Win32 interface for Win NT & 2000
Gap handling : Appended to previous track
Used output format : User Defined Encoder
Selected bitrate : 1024 kBit/s
Quality : High
Add ID3 tag : No
Command line compressor : C:\Program Files (x86)\Exact Audio Copy\FLAC\FLAC.EXE
Additional command line options : -8 -V -T "artist=%artist%" -T "title=%title%" -T "album=%albumtitle%" -T "date=%year%" -T "tracknumber=%tracknr%" -T "genre=%genre%" %source%
TOC of the extracted CD
Track | Start | Length | Start sector | End sector
---------------------------------------------------------
1 | 0:00.00 | 1:44.20 | 0 | 7819
2 | 1:44.20 | 2:50.42 | 7820 | 20611
3 | 4:34.62 | 2:53.29 | 20612 | 33615
4 | 7:28.16 | 3:15.41 | 33616 | 48281
5 | 10:43.57 | 2:58.25 | 48282 | 61656
6 | 13:42.07 | 2:47.68 | 61657 | 74249
7 | 16:30.00 | 3:19.67 | 74250 | 89241
8 | 19:49.67 | 3:19.55 | 89242 | 104221
9 | 23:09.47 | 2:11.02 | 104222 | 114048
10 | 25:20.49 | 1:23.01 | 114049 | 120274
11 | 26:43.50 | 3:20.51 | 120275 | 135325
12 | 30:04.26 | 1:17.71 | 135326 | 141171
13 | 31:22.22 | 2:41.60 | 141172 | 153306
14 | 34:04.07 | 2:56.01 | 153307 | 166507
15 | 37:00.08 | 2:56.17 | 166508 | 179724
16 | 39:56.25 | 5:44.02 | 179725 | 205526
17 | 45:40.27 | 2:14.14 | 205527 | 215590
18 | 47:54.41 | 3:54.70 | 215591 | 233210
19 | 51:49.36 | 1:31.07 | 233211 | 240042
Track 1
Filename D:\Ramin Djawadi - Game of Thrones (Season 3 OST)\01 - Main Title.wav
Pre-gap length 0:00:02.00
Peak level 97.7 %
Extraction speed 1.1 X
Track quality 99.8 %
Test CRC BCC783C3
Copy CRC BCC783C3
Track not present in AccurateRip database
Copy OK
Track 2
Filename D:\Ramin Djawadi - Game of Thrones (Season 3 OST)\02 - A Lannister Always Pays his Debts.wav
Peak level 97.7 %
Extraction speed 2.2 X
Track quality 100.0 %
Test CRC 740E4357
Copy CRC 740E4357
Track not present in AccurateRip database
Copy OK
Track 3
Filename D:\Ramin Djawadi - Game of Thrones (Season 3 OST)\03 - Dracarys.wav
Peak level 97.7 %
Extraction speed 2.3 X
Track quality 100.0 %
Test CRC C8062ABB
Copy CRC C8062ABB
Track not present in AccurateRip database
Copy OK
Track 4
Filename D:\Ramin Djawadi - Game of Thrones (Season 3 OST)\04 - I Paid the Iron Price.wav
Peak level 93.7 %
Extraction speed 1.8 X
Track quality 99.9 %
Test CRC 75DD5FA3
Copy CRC 75DD5FA3
Track not present in AccurateRip database
Copy OK
Track 5
Filename D:\Ramin Djawadi - Game of Thrones (Season 3 OST)\05 - Chaos is a Ladder.wav
Peak level 97.7 %
Extraction speed 2.6 X
Track quality 100.0 %
Test CRC 6151071F
Copy CRC 6151071F
Track not present in AccurateRip database
Copy OK
Track 6
Filename D:\Ramin Djawadi - Game of Thrones (Season 3 OST)\06 - Dark Wings, Dark Words.wav
Peak level 94.2 %
Extraction speed 2.7 X
Track quality 100.0 %
Test CRC E78D6033
Copy CRC E78D6033
Track not present in AccurateRip database
Copy OK
Track 7
Filename D:\Ramin Djawadi - Game of Thrones (Season 3 OST)\07 - You Know Nothing.wav
Peak level 88.3 %
Extraction speed 2.9 X
Track quality 100.0 %
Test CRC FD6920F0
Copy CRC FD6920F0
Track not present in AccurateRip database
Copy OK
Track 8
Filename D:\Ramin Djawadi - Game of Thrones (Season 3 OST)\08 - Wall of Ice.wav
Peak level 97.7 %
Extraction speed 3.0 X
Track quality 100.0 %
Test CRC A0F56781
Copy CRC A0F56781
Track not present in AccurateRip database
Copy OK
Track 9
Filename D:\Ramin Djawadi - Game of Thrones (Season 3 OST)\09 - Kingslayer.wav
Peak level 60.3 %
Extraction speed 2.9 X
Track quality 100.0 %
Test CRC 2F12CEB6
Copy CRC 2F12CEB6
Track not present in AccurateRip database
Copy OK
Track 10
Filename D:\Ramin Djawadi - Game of Thrones (Season 3 OST)\10 - I Have to go North.wav
Peak level 87.6 %
Extraction speed 1.4 X
Track quality 99.8 %
Test CRC EBD63197
Copy CRC EBD63197
Track not present in AccurateRip database
Copy OK
Track 11
Filename D:\Ramin Djawadi - Game of Thrones (Season 3 OST)\11 - White Walkers.wav
Peak level 97.7 %
Extraction speed 3.3 X
Track quality 100.0 %
Test CRC 2F999EDC
Copy CRC 2F999EDC
Track not present in AccurateRip database
Copy OK
Track 12
Filename D:\Ramin Djawadi - Game of Thrones (Season 3 OST)\12 - It's Always Summer Under the Sea (Shireen's Song).wav
Peak level 21.6 %
Extraction speed 2.7 X
Track quality 100.0 %
Test CRC A460CE12
Copy CRC A460CE12
Track not present in AccurateRip database
Copy OK
Track 13
Filename D:\Ramin Djawadi - Game of Thrones (Season 3 OST)\13 - Reek.wav
Peak level 97.7 %
Extraction speed 3.3 X
Track quality 100.0 %
Test CRC 5D9472BB
Copy CRC 5D9472BB
Track not present in AccurateRip database
Copy OK
Track 14
Filename D:\Ramin Djawadi - Game of Thrones (Season 3 OST)\14 - The Bear and the Maiden Fair.wav
Peak level 97.7 %
Extraction speed 3.4 X
Track quality 100.0 %
Test CRC 2B2D4366
Copy CRC 2B2D4366
Track not present in AccurateRip database
Copy OK
Track 15
Filename D:\Ramin Djawadi - Game of Thrones (Season 3 OST)\15 - The Night is Dark.wav
Peak level 46.2 %
Extraction speed 3.6 X
Track quality 100.0 %
Test CRC D0E67AFE
Copy CRC D0E67AFE
Track not present in AccurateRip database
Copy OK
Track 16
Filename D:\Ramin Djawadi - Game of Thrones (Season 3 OST)\16 - The Lannisters Send Their Regards.wav
Peak level 97.7 %
Extraction speed 4.0 X
Track quality 100.0 %
Test CRC AFA99D6A
Copy CRC AFA99D6A
Track not present in AccurateRip database
Copy OK
Track 17
Filename D:\Ramin Djawadi - Game of Thrones (Season 3 OST)\17 - Heir to Winterfell.wav
Peak level 29.1 %
Extraction speed 3.6 X
Track quality 100.0 %
Test CRC 923D84FC
Copy CRC 923D84FC
Track not present in AccurateRip database
Copy OK
Track 18
Filename D:\Ramin Djawadi - Game of Thrones (Season 3 OST)\18 - Mhysa.wav
Peak level 97.7 %
Extraction speed 4.0 X
Track quality 100.0 %
Test CRC 3A55BCAC
Copy CRC 3A55BCAC
Track not present in AccurateRip database
Copy OK
Track 19
Filename D:\Ramin Djawadi - Game of Thrones (Season 3 OST)\19 - For the Realm.wav
Peak level 55.2 %
Extraction speed 3.4 X
Track quality 100.0 %
Test CRC 8CB4099A
Copy CRC 8CB4099A
Track not present in AccurateRip database
Copy OK
None of the tracks are present in the AccurateRip database
No errors occurred
End of status report
==== Log checksum 1EF8172100BB5E8FA54386D49FCF278730AB86B924F99555C9E89390E732463F ====
Композитор: Ramin Djawadi
Год выпуска: 2014
Продолжительность: 01:00:49
01. Main Titles (01:43)
02. The Rains of Castamere (02:42)
03. Breaker of Chains (04:05)
04. Watchers On the Wall (02:11)
05. I’m Sorry For Today (02:09)
06. Thenns (01:43)
07. Mereen (02:53)
08. First of His Name (03:52)
09. The Biggest Fire the North Has Ever Seen (01:56)
10. Three Eyed Raven (03:58)
11. Two Swords (01:50)
12. Oathkeeper (04:31)
13. You Are No Son of Mine (04:29)
14. The North Remembers (02:33)
15. Let’s Kill Some Crows (03:37)
16. Craster’s Keep (02:06)
17. The Real North (02:03)
18. Forgive Me (02:31)
19. He Is Lost (03:37)
20. I Only See What Matters (01:25)
21. Take Charge of Your Life (02:05)
22. The Children (02:41)
 
Exact Audio Copy V1.0 beta 3 from 29. August 2011
EAC extraction logfile from 27. June 2014, 18:25
Ramin Djawadi / Game of Thrones: Season 4 (Music From The HBO Series)
Used drive : HL-DT-STBD-RE BH10LS38 Adapter: 2 ID: 0
Read mode : Secure
Utilize accurate stream : Yes
Defeat audio cache : Yes
Make use of C2 pointers : No
Read offset correction : 667
Overread into Lead-In and Lead-Out : No
Fill up missing offset samples with silence : Yes
Delete leading and trailing silent blocks : No
Null samples used in CRC calculations : Yes
Used interface : Native Win32 interface for Win NT & 2000
Gap handling : Appended to previous track
Used output format : User Defined Encoder
Selected bitrate : 768 kBit/s
Quality : High
Add ID3 tag : No
Command line compressor : C:\Program Files (x86)\Exact Audio Copy\FLAC\FLAC.EXE
Additional command line options : -8 -V -T "ARTIST=%artist%" -T "TITLE=%title%" -T "ALBUM=%albumtitle%" -T "DATE=%year%" -T "TRACKNUMBER=%tracknr%" -T "GENRE=%genre%" -T "PERFORMER=%albuminterpret%" -T "COMPOSER=%composer%" %haslyrics%--tag-from-file=LYRICS="%lyricsfile%"%haslyrics% -T "ALBUMARTIST=%albumartist%" -T "ALBUM ARTIST=%albumartist%" -T "DISCNUMBER=%cdnumber%" -T "TOTALDISCS=%totalcds%" -T "TOTALTRACKS=%numtracks%" -T "COMMENT=%comment%" %source% -o %dest%
TOC of the extracted CD
Track | Start | Length | Start sector | End sector
---------------------------------------------------------
1 | 0:00.00 | 1:43.44 | 0 | 7768
2 | 1:43.44 | 2:42.24 | 7769 | 19942
3 | 4:25.68 | 4:05.18 | 19943 | 38335
4 | 8:31.11 | 2:11.12 | 38336 | 48172
5 | 10:42.23 | 2:09.00 | 48173 | 57847
6 | 12:51.23 | 1:43.10 | 57848 | 65582
7 | 14:34.33 | 2:53.67 | 65583 | 78624
8 | 17:28.25 | 3:52.23 | 78625 | 96047
9 | 21:20.48 | 1:56.29 | 96048 | 104776
10 | 23:17.02 | 3:58.63 | 104777 | 122689
11 | 27:15.65 | 1:49.74 | 122690 | 130938
12 | 29:05.64 | 4:31.01 | 130939 | 151264
13 | 33:36.65 | 4:29.15 | 151265 | 171454
14 | 38:06.05 | 2:33.65 | 171455 | 182994
15 | 40:39.70 | 3:36.72 | 182995 | 199266
16 | 44:16.67 | 2:06.37 | 199267 | 208753
17 | 46:23.29 | 2:03.41 | 208754 | 218019
18 | 48:26.70 | 2:31.18 | 218020 | 229362
19 | 50:58.13 | 3:37.23 | 229363 | 245660
20 | 54:35.36 | 1:25.29 | 245661 | 252064
21 | 56:00.65 | 2:05.66 | 252065 | 261505
22 | 58:06.56 | 2:41.19 | 261506 | 273599
Track 1
Filename C:\Rips\01 - Main Titles.wav
Pre-gap length 0:00:02.00
Peak level 97.7 %
Extraction speed 0.8 X
Track quality 99.8 %
Test CRC 5DB0950E
Copy CRC 5DB0950E
Track not present in AccurateRip database
Copy OK
Track 2
Filename C:\Rips\02 - The Rains of Castamere (performed by Sigur Rós).wav
Peak level 53.0 %
Extraction speed 1.0 X
Track quality 99.9 %
Test CRC 664C7D45
Copy CRC 664C7D45
Track not present in AccurateRip database
Copy OK
Track 3
Filename C:\Rips\03 - Breaker of Chains.wav
Peak level 97.7 %
Extraction speed 1.4 X
Track quality 100.0 %
Test CRC F3E93867
Copy CRC F3E93867
Track not present in AccurateRip database
Copy OK
Track 4
Filename C:\Rips\04 - Watchers on the Wall.wav
Peak level 97.7 %
Extraction speed 1.1 X
Track quality 99.9 %
Test CRC F36ED2D3
Copy CRC F36ED2D3
Track not present in AccurateRip database
Copy OK
Track 5
Filename C:\Rips\05 - I'm Sorry for Today.wav
Peak level 44.4 %
Extraction speed 1.4 X
Track quality 100.0 %
Test CRC 6B66D065
Copy CRC 6B66D065
Track not present in AccurateRip database
Copy OK
Track 6
Filename C:\Rips\06 - Thenns.wav
Peak level 98.8 %
Extraction speed 1.4 X
Track quality 100.0 %
Test CRC 301312F7
Copy CRC 301312F7
Track not present in AccurateRip database
Copy OK
Track 7
Filename C:\Rips\07 - Mereen.wav
Peak level 94.3 %
Extraction speed 1.6 X
Track quality 100.0 %
Test CRC 737C8D1E
Copy CRC 737C8D1E
Track not present in AccurateRip database
Copy OK
Track 8
Filename C:\Rips\08 - First of His Name.wav
Peak level 98.8 %
Extraction speed 1.8 X
Track quality 100.0 %
Test CRC A63C7A78
Copy CRC A63C7A78
Track not present in AccurateRip database
Copy OK
Track 9
Filename C:\Rips\09 - The Biggest Fire the North Has Ever Seen.wav
Peak level 97.7 %
Extraction speed 1.6 X
Track quality 100.0 %
Test CRC 3FE50615
Copy CRC 3FE50615
Track not present in AccurateRip database
Copy OK
Track 10
Filename C:\Rips\10 - Three Eyed Raven.wav
Peak level 50.1 %
Extraction speed 1.9 X
Track quality 100.0 %
Test CRC 2C28D2F4
Copy CRC 2C28D2F4
Track not present in AccurateRip database
Copy OK
Track 11
Filename C:\Rips\11 - Two Swords.wav
Peak level 97.7 %
Extraction speed 1.7 X
Track quality 100.0 %
Test CRC 708970BE
Copy CRC 708970BE
Track not present in AccurateRip database
Copy OK
Track 12
Filename C:\Rips\12 - Oathkeeper.wav
Peak level 97.7 %
Extraction speed 2.1 X
Track quality 100.0 %
Test CRC 2D5EA289
Copy CRC 2D5EA289
Track not present in AccurateRip database
Copy OK
Track 13
Filename C:\Rips\13 - You Are No Son of Mine.wav
Peak level 79.6 %
Extraction speed 2.2 X
Track quality 100.0 %
Test CRC 2F635F5C
Copy CRC 2F635F5C
Track not present in AccurateRip database
Copy OK
Track 14
Filename C:\Rips\14 - The North Remembers.wav
Peak level 42.0 %
Extraction speed 2.1 X
Track quality 100.0 %
Test CRC BBDFE512
Copy CRC BBDFE512
Track not present in AccurateRip database
Copy OK
Track 15
Filename C:\Rips\15 - Let's Kill Some Crows.wav
Peak level 98.8 %
Extraction speed 2.3 X
Track quality 100.0 %
Test CRC B0A30865
Copy CRC B0A30865
Track not present in AccurateRip database
Copy OK
Track 16
Filename C:\Rips\16 - Craster's Keep.wav
Peak level 70.2 %
Extraction speed 1.7 X
Track quality 99.9 %
Test CRC 7426C196
Copy CRC 7426C196
Track not present in AccurateRip database
Copy OK
Track 17
Filename C:\Rips\17 - The Real North.wav
Peak level 65.2 %
Extraction speed 2.1 X
Track quality 100.0 %
Test CRC FD2546C4
Copy CRC FD2546C4
Track not present in AccurateRip database
Copy OK
Track 18
Filename C:\Rips\18 - Forgive Me.wav
Peak level 30.1 %
Extraction speed 2.3 X
Track quality 100.0 %
Test CRC 7F8EEB8B
Copy CRC 7F8EEB8B
Track not present in AccurateRip database
Copy OK
Track 19
Filename C:\Rips\19 - He Is Lost.wav
Peak level 98.8 %
Extraction speed 2.5 X
Track quality 100.0 %
Test CRC FB677ABD
Copy CRC FB677ABD
Track not present in AccurateRip database
Copy OK
Track 20
Filename C:\Rips\20 - I Only See What Matters.wav
Peak level 54.4 %
Extraction speed 2.0 X
Track quality 100.0 %
Test CRC 0C316F86
Copy CRC 0C316F86
Track not present in AccurateRip database
Copy OK
Track 21
Filename C:\Rips\21 - Take Charge of Your Life.wav
Peak level 17.8 %
Extraction speed 2.3 X
Track quality 100.0 %
Test CRC 628F539F
Copy CRC 628F539F
Track not present in AccurateRip database
Copy OK
Track 22
Filename C:\Rips\22 - The Children.wav
Peak level 97.8 %
Extraction speed 2.4 X
Track quality 100.0 %
Test CRC AFC497E2
Copy CRC AFC497E2
Track not present in AccurateRip database
Copy OK
None of the tracks are present in the AccurateRip database
No errors occurred
End of status report
==== Log checksum E014DAB5638F5F4BE39A161AAF988E6503C775F7ED994646766E59748A07D757 ====
Композитор: Ramin Djawadi
Год выпуска: 2015
Продолжительность: 00:58:47
01. Main Titles (01:45)
02. Blood of the Dragon (01:33)
03. House of Black and White (05:08)
04. Jaws of the Viper (02:31)
05. Hardhome, Pt. 1 (05:07)
06. Hardhome, Pt. 2 (04:32)
07. Mother's Mercy (02:15)
08. Kill the Boy (02:07)
09. Dance of Dragons (03:09)
10. Kneel for No Man (04:45)
11. High Sparrow (03:23)
12. Before the Old Gods (02:38)
13. Atonement (02:54)
14. I Dreamt I Was Old (02:17)
15. The Wars to Come (04:48)
16. Forgive Me (03:18)
17. Son of the Harpy (05:18)
18. Throne for the Game (01:20)
 
Exact Audio Copy V1.0 beta 3 from 29. August 2011
EAC extraction logfile from 4. July 2015, 14:03
Ramin Djawadi / Game of Thrones: Season 5
Used drive : HL-DT-STBD-RE BH10LS38 Adapter: 0 ID: 0
Read mode : Secure
Utilize accurate stream : Yes
Defeat audio cache : Yes
Make use of C2 pointers : No
Read offset correction : 667
Overread into Lead-In and Lead-Out : No
Fill up missing offset samples with silence : Yes
Delete leading and trailing silent blocks : No
Null samples used in CRC calculations : Yes
Used interface : Native Win32 interface for Win NT & 2000
Gap handling : Appended to previous track
Used output format : User Defined Encoder
Selected bitrate : 768 kBit/s
Quality : High
Add ID3 tag : No
Command line compressor : C:\Program Files (x86)\Exact Audio Copy\FLAC\FLAC.EXE
Additional command line options : -8 -V -T "ARTIST=%artist%" -T "TITLE=%title%" -T "ALBUM=%albumtitle%" -T "DATE=%year%" -T "TRACKNUMBER=%tracknr%" -T "GENRE=%genre%" -T "PERFORMER=%albuminterpret%" -T "COMPOSER=%composer%" %haslyrics%--tag-from-file=LYRICS="%lyricsfile%"%haslyrics% -T "ALBUMARTIST=%albumartist%" -T "ALBUM ARTIST=%albumartist%" -T "DISCNUMBER=%cdnumber%" -T "TOTALDISCS=%totalcds%" -T "TOTALTRACKS=%numtracks%" -T "COMMENT=%comment%" %source% -o %dest%
TOC of the extracted CD
Track | Start | Length | Start sector | End sector
---------------------------------------------------------
1 | 0:00.00 | 1:45.13 | 0 | 7887
2 | 1:45.13 | 1:33.08 | 7888 | 14870
3 | 3:18.21 | 5:08.35 | 14871 | 38005
4 | 8:26.56 | 2:31.31 | 38006 | 49361
5 | 10:58.12 | 5:06.56 | 49362 | 72367
6 | 16:04.68 | 4:31.58 | 72368 | 92750
7 | 20:36.51 | 2:14.52 | 92751 | 102852
8 | 22:51.28 | 2:07.28 | 102853 | 112405
9 | 24:58.56 | 3:08.38 | 112406 | 126543
10 | 28:07.19 | 4:45.00 | 126544 | 147918
11 | 32:52.19 | 3:23.00 | 147919 | 163143
12 | 36:15.19 | 2:37.53 | 163144 | 174971
13 | 38:52.72 | 2:54.08 | 174972 | 188029
14 | 41:47.05 | 2:16.41 | 188030 | 198270
15 | 44:03.46 | 4:48.14 | 198271 | 219884
16 | 48:51.60 | 3:17.40 | 219885 | 234699
17 | 52:09.25 | 5:17.63 | 234700 | 258537
18 | 57:27.13 | 1:20.17 | 258538 | 264554
Track 1
Filename C:\Rips\01 - Main Titles.wav
Pre-gap length 0:00:02.00
Peak level 97.7 %
Extraction speed 0.9 X
Track quality 100.0 %
Test CRC B50EC50C
Copy CRC B50EC50C
Track not present in AccurateRip database
Copy OK
Track 2
Filename C:\Rips\02 - Blood of the Dragon.wav
Peak level 98.8 %
Extraction speed 0.9 X
Track quality 100.0 %
Test CRC CFCB3BA1
Copy CRC CFCB3BA1
Track not present in AccurateRip database
Copy OK
Track 3
Filename C:\Rips\03 - House of Black and White.wav
Peak level 87.5 %
Extraction speed 1.2 X
Track quality 100.0 %
Test CRC 6131FD44
Copy CRC 6131FD44
Track not present in AccurateRip database
Copy OK
Track 4
Filename C:\Rips\04 - Jaws of the Viper.wav
Peak level 85.8 %
Extraction speed 1.0 X
Track quality 99.9 %
Test CRC 0046E904
Copy CRC 0046E904
Track not present in AccurateRip database
Copy OK
Track 5
Filename C:\Rips\05 - Hardhome, Pt. 1.wav
Peak level 97.7 %
Extraction speed 1.3 X
Track quality 99.9 %
Test CRC 1316F65B
Copy CRC 1316F65B
Track not present in AccurateRip database
Copy OK
Track 6
Filename C:\Rips\06 - Hardhome, Pt. 2.wav
Peak level 97.7 %
Extraction speed 1.6 X
Track quality 100.0 %
Test CRC 572B65B2
Copy CRC 572B65B2
Track not present in AccurateRip database
Copy OK
Track 7
Filename C:\Rips\07 - Mother's Mercy.wav
Peak level 69.0 %
Extraction speed 1.4 X
Track quality 100.0 %
Test CRC 3E537FE0
Copy CRC 3E537FE0
Track not present in AccurateRip database
Copy OK
Track 8
Filename C:\Rips\08 - Kill the Boy.wav
Peak level 98.8 %
Extraction speed 1.5 X
Track quality 100.0 %
Test CRC 2E299FFB
Copy CRC 2E299FFB
Track not present in AccurateRip database
Copy OK
Track 9
Filename C:\Rips\09 - Dance of Dragons.wav
Peak level 98.8 %
Extraction speed 1.6 X
Track quality 100.0 %
Test CRC 9734C1E1
Copy CRC 9734C1E1
Track not present in AccurateRip database
Copy OK
Track 10
Filename C:\Rips\10 - Kneel For No Man.wav
Peak level 98.8 %
Extraction speed 1.8 X
Track quality 100.0 %
Test CRC D56BCF03
Copy CRC D56BCF03
Track not present in AccurateRip database
Copy OK
Track 11
Filename C:\Rips\11 - High Sparrow.wav
Peak level 97.7 %
Extraction speed 1.8 X
Track quality 100.0 %
Test CRC 1D2F20EB
Copy CRC 1D2F20EB
Track not present in AccurateRip database
Copy OK
Track 12
Filename C:\Rips\12 - Before the Old Gods.wav
Peak level 48.2 %
Extraction speed 1.5 X
Track quality 99.9 %
Test CRC 83745086
Copy CRC 83745086
Track not present in AccurateRip database
Copy OK
Track 13
Filename C:\Rips\13 - Atonement.wav
Peak level 97.7 %
Extraction speed 1.8 X
Track quality 100.0 %
Test CRC 96DAF731
Copy CRC 96DAF731
Track not present in AccurateRip database
Copy OK
Track 14
Filename C:\Rips\14 - I Dreamt I Was Old.wav
Peak level 72.0 %
Extraction speed 1.8 X
Track quality 100.0 %
Test CRC 845B29F6
Copy CRC 845B29F6
Track not present in AccurateRip database
Copy OK
Track 15
Filename C:\Rips\15 - The Wars To Come.wav
Peak level 98.8 %
Extraction speed 1.9 X
Track quality 99.9 %
Test CRC 25AE03A9
Copy CRC 25AE03A9
Track not present in AccurateRip database
Copy OK
Track 16
Filename C:\Rips\16 - Forgive Me.wav
Peak level 97.7 %
Extraction speed 1.8 X
Track quality 99.9 %
Test CRC 03D3B4CE
Copy CRC 03D3B4CE
Track not present in AccurateRip database
Copy OK
Track 17
Filename C:\Rips\17 - Son of the Harpy.wav
Peak level 98.8 %
Extraction speed 2.3 X
Track quality 100.0 %
Test CRC 420D2AFF
Copy CRC 420D2AFF
Track not present in AccurateRip database
Copy OK
Track 18
Filename C:\Rips\18 - Throne For the Game (feat. Bradley Hanan Carter).wav
Peak level 50.7 %
Extraction speed 1.7 X
Track quality 100.0 %
Test CRC 4E2EE178
Copy CRC 4E2EE178
Track not present in AccurateRip database
Copy OK
None of the tracks are present in the AccurateRip database
No errors occurred
End of status report
==== Log checksum 6F78D1732611099A33EB3516DF09D8685CB275AECB6B3EDE139CFE8E1D94B138 ====
Композитор: Ramin Djawadi
Год выпуска: 2016
Продолжительность: 01:30:34
01. Main Titles (01:51)
02. Blood of My Blood (03:35)
03. Light of the Seven (09:49)
04. Needle (02:56)
05. Coronation (01:46)
06. Feed the Hounds (03:08)
07. My Watch Has Ended (02:53)
08. The Red Woman (03:17)
09. Hold the Door (07:21)
10. Khaleesi (03:05)
11. Maester (02:52)
12. A Painless Death (03:22)
13. Reign (03:16)
14. Let's Play a Game (05:51)
15. Bastard (05:05)
16. Trust Each Other (03:09)
17. Winter Has Come (03:14)
18. Hear Me Roar (02:16)
19. The Winds of Winter (03:29)
20. Lord of Light (04:16)
21. Service of the Gods (02:48)
22. I Need You by My Side (02:36)
23. The Tower (02:33)
24. Unbowed, Unbent, Unbroken (01:44)
25. I Choose Violence (01:48)
26. Hodor (02:24)
 
AUDIOCHECKER v2.0 beta (build 457) - by Dester - opdester@freemail.hu
~~~~~~~~~~~~~~~~~~~~~~~~~~~~~~~~~~
-=== НЕ РЕДАКТИРУЙТЕ ЭТОТ ФАЙЛ! ===-
Путь: ...\Ramin Djawadi - Game of Thrones - Season 6 (2016) [FLAC]
01 -=- 01. Main Titles.flac -=- CDDA (99%)
02 -=- 02. Blood of My Blood.flac -=- CDDA (100%)
03 -=- 03. Light of the Seven.flac -=- CDDA (100%)
04 -=- 04. Needle.flac -=- CDDA (100%)
05 -=- 05. Coronation.flac -=- CDDA (100%)
06 -=- 06. Feed the Hounds.flac -=- CDDA (99%)
07 -=- 07. My Watch Has Ended.flac -=- CDDA (100%)
08 -=- 08. The Red Woman.flac -=- CDDA (100%)
09 -=- 09. Hold the Door.flac -=- CDDA (100%)
10 -=- 10. Khaleesi.flac -=- CDDA (100%)
11 -=- 11. Maester.flac -=- CDDA (100%)
12 -=- 12. A Painless Death.flac -=- CDDA (99%)
13 -=- 13. Reign.flac -=- CDDA (100%)
14 -=- 14. Let's Play a Game.flac -=- CDDA (100%)
15 -=- 15. Bastard.flac -=- CDDA (100%)
16 -=- 16. Trust Each Other.flac -=- CDDA (100%)
17 -=- 17. Winter Has Come.flac -=- CDDA (100%)
18 -=- 18. Hear Me Roar.flac -=- CDDA (100%)
19 -=- 19. The Winds of Winter.flac -=- CDDA (100%)
20 -=- 20. Lord of Light.flac -=- CDDA (100%)
21 -=- 21. Service of the Gods.flac -=- CDDA (100%)
22 -=- 22. I Need You by My Side.flac -=- CDDA (100%)
23 -=- 23. The Tower.flac -=- CDDA (100%)
24 -=- 24. Unbowed, Unbent, Unbroken.flac -=- CDDA (100%)
25 -=- 25. I Choose Violence.flac -=- CDDA (100%)
26 -=- 26. Hodor.flac -=- CDDA (100%)
Сводка 99,88% CDDA
245479076
Год выпуска: 2017
Композитор: Ramin Djawadi
Исполнитель: The City of Prague Philharmonic Orchestra
Страна-производитель диска: US
Издатель (лейбл): Silva Screen Music
Номер каталога: SILKD6056
Продолжительность: 01:09:11
01. Main Title (01:53)
02. Goodbye Brother (03:06)
03. Finale (From Season 1) (02:36)
04. Warrior of Light (02:58)
05. Winterfell (02:42)
06. Mother of Dragons (02:28)
07. A Lannister Always Pays His Debts (02:44)
08. Dracarys (03:01)
09. Mhysa (04:01)
10. Two Swords (01:47)
11. You Are No Son of Mine (04:30)
12. The Children (02:43)
13. Blood of the Dragon (01:29)
14. Dance of Dragons (03:05)
15. Atonement (02:56)
16. Son of the Harpy (05:12)
17. Light of the Seven (09:52)
18. Khaleesi (03:02)
19. Winter Has Come (03:11)
20. Hear Me Roar (02:29)
21. The Winds of Winter (03:26)
 
Exact Audio Copy V1.3 from 2. September 2016
EAC extraction logfile from 13. April 2017, 17:18
Ramin Djawadi / Unknown Title
Used drive : PLEXTOR CD-R PX-230A Adapter: 1 ID: 0
Read mode : Secure
Utilize accurate stream : Yes
Defeat audio cache : Yes
Make use of C2 pointers : No
Read offset correction : 738
Overread into Lead-In and Lead-Out : No
Fill up missing offset samples with silence : Yes
Delete leading and trailing silent blocks : No
Null samples used in CRC calculations : Yes
Used interface : Native Win32 interface for Win NT & 2000
Gap handling : Appended to previous track
Used output format : User Defined Encoder
Selected bitrate : 1024 kBit/s
Quality : High
Add ID3 tag : No
Command line compressor : C:\Program Files\Exact Audio Copy\Flac\flac.exe
Additional command line options : -6 -V -T "ARTIST=%artist%" -T "TITLE=%title%" -T "ALBUM=%albumtitle%" -T "DATE=%year%" -T "TRACKNUMBER=%tracknr%" -T "GENRE=%genre%" -T "COMMENT=%comment%" -T "ALBUMARTIST=%albuminterpret%" -T "COMPOSER=%composer%" -T "DISCNUMBER=%cdnumber%" -T "TOTALDISCS=%totalcds%" -T "TOTALTRACKS=%numtracks%" %source% -o %dest%
TOC of the extracted CD
Track | Start | Length | Start sector | End sector
---------------------------------------------------------
1 | 0:00.00 | 1:53.05 | 0 | 8479
2 | 1:53.05 | 3:06.28 | 8480 | 22457
3 | 4:59.33 | 2:36.03 | 22458 | 34160
4 | 7:35.36 | 2:58.37 | 34161 | 47547
5 | 10:33.73 | 2:42.23 | 47548 | 59720
6 | 13:16.21 | 2:27.62 | 59721 | 70807
7 | 15:44.08 | 2:44.37 | 70808 | 83144
8 | 18:28.45 | 3:00.74 | 83145 | 96718
9 | 21:29.44 | 4:00.47 | 96719 | 114765
10 | 25:30.16 | 1:47.26 | 114766 | 122816
11 | 27:17.42 | 4:29.72 | 122817 | 143063
12 | 31:47.39 | 2:42.47 | 143064 | 155260
13 | 34:30.11 | 1:29.17 | 155261 | 161952
14 | 35:59.28 | 3:05.10 | 161953 | 175837
15 | 39:04.38 | 2:56.23 | 175838 | 189060
16 | 42:00.61 | 5:12.06 | 189061 | 212466
17 | 47:12.67 | 9:52.30 | 212467 | 256896
18 | 57:05.22 | 3:01.57 | 256897 | 270528
19 | 60:07.04 | 3:10.69 | 270529 | 284847
20 | 63:17.73 | 2:28.59 | 284848 | 296006
21 | 65:46.57 | 3:26.06 | 296007 | 311462
Track 1
Filename C:\Ripped by Filex\01 - Main Title.wav
Pre-gap length 0:00:02.00
Peak level 90.1 %
Extraction speed 4.8 X
Track quality 100.0 %
Test CRC C2A4E45C
Copy CRC C2A4E45C
Track not present in AccurateRip database
Copy OK
Track 2
Filename C:\Ripped by Filex\02 - Goodbye Brother.wav
Peak level 90.1 %
Extraction speed 5.5 X
Track quality 100.0 %
Test CRC 94DEFC0D
Copy CRC 94DEFC0D
Track not present in AccurateRip database
Copy OK
Track 3
Filename C:\Ripped by Filex\03 - Finale (From Season 1).wav
Peak level 90.1 %
Extraction speed 5.0 X
Track quality 99.9 %
Test CRC 83BAF2D6
Copy CRC 83BAF2D6
Track not present in AccurateRip database
Copy OK
Track 4
Filename C:\Ripped by Filex\04 - Warrior of Light.wav
Peak level 90.1 %
Extraction speed 6.2 X
Track quality 100.0 %
Test CRC 7A8BF871
Copy CRC 7A8BF871
Track not present in AccurateRip database
Copy OK
Track 5
Filename C:\Ripped by Filex\05 - Winterfell.wav
Peak level 90.1 %
Extraction speed 5.5 X
Track quality 99.9 %
Test CRC 07C9069F
Copy CRC 07C9069F
Track not present in AccurateRip database
Copy OK
Track 6
Filename C:\Ripped by Filex\06 - Mother of Dragons.wav
Peak level 90.1 %
Extraction speed 6.4 X
Track quality 100.0 %
Test CRC 630D86C8
Copy CRC 630D86C8
Track not present in AccurateRip database
Copy OK
Track 7
Filename C:\Ripped by Filex\07 - A Lannister Always Pays His Debts.wav
Peak level 90.1 %
Extraction speed 6.8 X
Track quality 100.0 %
Test CRC ABF5CB2E
Copy CRC ABF5CB2E
Track not present in AccurateRip database
Copy OK
Track 8
Filename C:\Ripped by Filex\08 - Dracarys.wav
Peak level 90.1 %
Extraction speed 7.1 X
Track quality 100.0 %
Test CRC 14C465F7
Copy CRC 14C465F7
Track not present in AccurateRip database
Copy OK
Track 9
Filename C:\Ripped by Filex\09 - Mhysa.wav
Peak level 90.1 %
Extraction speed 7.5 X
Track quality 100.0 %
Test CRC A8697321
Copy CRC A8697321
Track not present in AccurateRip database
Copy OK
Track 10
Filename C:\Ripped by Filex\10 - Two Swords.wav
Peak level 90.1 %
Extraction speed 7.0 X
Track quality 100.0 %
Test CRC 90AD8E39
Copy CRC 90AD8E39
Track not present in AccurateRip database
Copy OK
Track 11
Filename C:\Ripped by Filex\11 - You Are No Son of Mine.wav
Peak level 90.1 %
Extraction speed 8.1 X
Track quality 100.0 %
Test CRC 6FE22E8F
Copy CRC 6FE22E8F
Track not present in AccurateRip database
Copy OK
Track 12
Filename C:\Ripped by Filex\12 - The Children.wav
Peak level 90.1 %
Extraction speed 8.0 X
Track quality 100.0 %
Test CRC E99B4291
Copy CRC E99B4291
Track not present in AccurateRip database
Copy OK
Track 13
Filename C:\Ripped by Filex\13 - Blood of the Dragon.wav
Peak level 90.1 %
Extraction speed 7.5 X
Track quality 100.0 %
Test CRC 5C599B89
Copy CRC 5C599B89
Track not present in AccurateRip database
Copy OK
Track 14
Filename C:\Ripped by Filex\14 - Dance of Dragons.wav
Peak level 90.1 %
Extraction speed 8.3 X
Track quality 100.0 %
Test CRC 42A15E2E
Copy CRC 42A15E2E
Track not present in AccurateRip database
Copy OK
Track 15
Filename C:\Ripped by Filex\15 - Atonement.wav
Peak level 90.1 %
Extraction speed 7.3 X
Track quality 99.9 %
Test CRC 44370E91
Copy CRC 44370E91
Track not present in AccurateRip database
Copy OK
Track 16
Filename C:\Ripped by Filex\16 - Son of the Harpy.wav
Peak level 90.1 %
Extraction speed 8.2 X
Track quality 99.9 %
Test CRC 1C60D4BE
Copy CRC 1C60D4BE
Track not present in AccurateRip database
Copy OK
Track 17
Filename C:\Ripped by Filex\17 - Light of the Seven.wav
Peak level 90.1 %
Extraction speed 9.9 X
Track quality 100.0 %
Test CRC 95EE03D8
Copy CRC 95EE03D8
Track not present in AccurateRip database
Copy OK
Track 18
Filename C:\Ripped by Filex\18 - Khaleesi.wav
Peak level 90.1 %
Extraction speed 9.3 X
Track quality 100.0 %
Test CRC AD2414A4
Copy CRC AD2414A4
Track not present in AccurateRip database
Copy OK
Track 19
Filename C:\Ripped by Filex\19 - Winter Has Come.wav
Peak level 90.1 %
Extraction speed 8.5 X
Track quality 99.9 %
Test CRC D48E2953
Copy CRC D48E2953
Track not present in AccurateRip database
Copy OK
Track 20
Filename C:\Ripped by Filex\20 - Hear Me Roar.wav
Peak level 90.1 %
Extraction speed 9.0 X
Track quality 100.0 %
Test CRC DC9E59CF
Copy CRC DC9E59CF
Track not present in AccurateRip database
Copy OK
Track 21
Filename C:\Ripped by Filex\21 - The Winds of Winter.wav
Peak level 90.1 %
Extraction speed 9.6 X
Track quality 100.0 %
Test CRC ACFFF789
Copy CRC ACFFF789
Track not present in AccurateRip database
Copy OK
None of the tracks are present in the AccurateRip database
No errors occurred
End of status report
---- CUETools DB Plugin V2.1.6
[CTDB TOCID: p8oT7wMhm6rkz7JTMl4Rm.HiuIY-] disk not present in database
Submit result: p8oT7wMhm6rkz7JTMl4Rm.HiuIY- has been uploaded
==== Log checksum D913CAA46AE47876AB4846EEAF161E2AE5A810FE91B4AE9C57997DE78F704D47 ====

info [Профиль]  [ЛС] 
Показать сообщения:    
Ответить на тему

Текущее время: 21-Июл 14:51

Часовой пояс: GMT + 4



Вы не можете начинать темы
Вы не можете отвечать на сообщения
Вы не можете редактировать свои сообщения
Вы не можете удалять свои сообщения
Вы не можете голосовать в опросах
Вы не можете прикреплять файлы к сообщениям
Вы не можете скачивать файлы