Ошибка

(Score / Orchestral) Lineage II 7th Anniversary Package Original Soundtrack (by Bill Brown, Jamie Christopherson) - 2011, FLAC (tracks+.cue), lossless

Ответить на тему
 
Автор Сообщение

Hobbit38

Пол: Пол:Муж

Стаж: 3 года 2 месяца

Сообщений: 87

Россия
Рейтинг

post 07-Июн-2017 12:00 0[+]

[Цитировать] 


Lineage II 7th Anniversary Package Original Soundtrack
Жанр: Score / Orchestral | Год выпуска диска: Aug 06, 2011 | Композиторы: Bill Brown, Jamie Christopherson

Страна-производитель диска: Япония | Издатель (лейбл): NC Japan | Номер каталога: LINE2CD-003~4

Аудио кодек: FLAC (.flac) | Тип рипа: tracks+.cue | Битрейт аудио: lossless

Продолжительность: 01:50:57 | Полиграфия: отсутствует


01. After the Storm (3:12)
02. Battlefield at Daybreak (0:34)
03. Island Village (2:04)
04. Ceriel's Theme (0:34)
05. Unicorn's Rest (1:59)
06. Aria's Theme (0:35)
07. Deep Shadows (2:01)
08. Shakdun's Theme (0:38)
09. Gathering Armies (2:11)
10. Harvest Celebration (0:35)
11. Dance at The Festival (2:12)
12. Dwarven Drinking Song (0:37)
13. Caravans Crossing (2:06)
14. Crossroad at Dawn (2:01)
15. Sorrow & Revenge (1:35)
16. Shepard's Flute (2:04)
17. Southern Vineyard (2:07)
18. Merchant Ships from the East (2:08)
19. Lovers Reunited (2:20)
20. Expedition March (2:05)
21. Forest Calling (2:15)
22. Knighting Ceremony (2:09)
23. Heroic Fanfare (0:39)
24. Monster Derby Track (0:35)
25. Ascension of the Lion (0:37)
26. Autumn Festival (0:35)
27. Joy of Harvest (0:39)
28. Singing Island (0:35)
29. Iron Cavalry (0:36)
30. Set the Sails (0:35)
31. Homebound (0:39)
32. Enchanted Dreams (0:37)
33. Sanctuary of Light (0:39)
01. Tree of Life (0:36)
02. Lamentation of the Goddess (0:36)
03. Pledge of Blood (0:36)
04. Forsaken Catacombs (0:34)
05. Haunted Earth (0:34)
06. Spring Awakening (0:39)
07. Lady of the Lake (0:32)
08. Misty Rain (0:43)
09. Valley of Tears (0:36)
10. Ghost Trail (0:34)
11. Hall of Mists (3:10)
12. Temple of the Moon (3:06)
13. Abyssal Gathering (3:07)
14. Ominous Visitors (3:02)
15. Battle at Sundown (1:39)
16. Hail the Victor (1:31)
17. Final Conflict (2:06)
18. March of Heroes (1:33)
19. The Enemy Warlord Appears (1:54)
20. Final Crisis (1:58)
21. The Call of Destiny (2:37)
22. Social Action Collection (12:31)
23. Spell Collection (4:33)
24. S.E. Collection (17:19)
Exact Audio Copy V1.0 beta 3 from 29. August 2011 
EAC extraction logfile from 25. January 2013, 20:37
Bill Brown & Jamie Christopherson / Lineage II Chornicle Ultimate Selection DISC 1
Used drive : HL-DT-STDVDRAM GT20N Adapter: 1 ID: 0
Read mode : Secure
Utilize accurate stream : Yes
Defeat audio cache : Yes
Make use of C2 pointers : No
Read offset correction : 667
Overread into Lead-In and Lead-Out : No
Fill up missing offset samples with silence : Yes
Delete leading and trailing silent blocks : No
Null samples used in CRC calculations : Yes
Used interface : Native Win32 interface for Win NT & 2000
Used output format : Internal WAV Routines
Sample format : 44.100 Hz; 16 Bit; Stereo
TOC of the extracted CD
Track | Start | Length | Start sector | End sector
---------------------------------------------------------
1 | 0:00.00 | 3:11.68 | 0 | 14392
2 | 3:11.68 | 0:33.74 | 14393 | 16941
3 | 3:45.67 | 2:04.18 | 16942 | 26259
4 | 5:50.10 | 0:34.29 | 26260 | 28838
5 | 6:24.39 | 1:59.33 | 28839 | 37796
6 | 8:23.72 | 0:35.18 | 37797 | 40439
7 | 8:59.15 | 2:01.22 | 40440 | 49536
8 | 11:00.37 | 0:37.53 | 49537 | 52364
9 | 11:38.15 | 2:10.70 | 52365 | 62184
10 | 13:49.10 | 0:35.02 | 62185 | 64811
11 | 14:24.12 | 2:11.68 | 64812 | 74704
12 | 16:36.05 | 0:36.67 | 74705 | 77471
13 | 17:12.72 | 2:06.08 | 77472 | 86929
14 | 19:19.05 | 2:01.00 | 86930 | 96004
15 | 21:20.05 | 1:35.15 | 96005 | 103144
16 | 22:55.20 | 2:04.35 | 103145 | 112479
17 | 24:59.55 | 2:07.37 | 112480 | 122041
18 | 27:07.17 | 2:08.27 | 122042 | 131668
19 | 29:15.44 | 2:19.53 | 131669 | 142146
20 | 31:35.22 | 2:04.70 | 142147 | 151516
21 | 33:40.17 | 2:15.15 | 151517 | 161656
22 | 35:55.32 | 2:09.05 | 161657 | 171336
23 | 38:04.37 | 0:38.48 | 171337 | 174234
24 | 38:43.10 | 0:35.35 | 174235 | 176894
25 | 39:18.45 | 0:36.47 | 176895 | 179641
26 | 39:55.17 | 0:35.20 | 179642 | 182286
27 | 40:30.37 | 0:38.70 | 182287 | 185206
28 | 41:09.32 | 0:34.69 | 185207 | 187825
29 | 41:44.26 | 0:36.01 | 187826 | 190526
30 | 42:20.27 | 0:35.15 | 190527 | 193166
31 | 42:55.42 | 0:38.67 | 193167 | 196083
32 | 43:34.34 | 0:36.70 | 196084 | 198853
33 | 44:11.29 | 0:38.46 | 198854 | 201749
Range status and errors
Selected range
Filename F:\doppel9014\LINE2CD-003.wav
Peak level 99.4 %
Extraction speed 1.9 X
Range quality 100.0 %
Copy CRC CB4BDE00
Copy OK
No errors occurred
AccurateRip summary
Track 1 not present in database
Track 2 not present in database
Track 3 not present in database
Track 4 not present in database
Track 5 not present in database
Track 6 not present in database
Track 7 not present in database
Track 8 not present in database
Track 9 not present in database
Track 10 not present in database
Track 11 not present in database
Track 12 not present in database
Track 13 not present in database
Track 14 not present in database
Track 15 not present in database
Track 16 not present in database
Track 17 not present in database
Track 18 not present in database
Track 19 not present in database
Track 20 not present in database
Track 21 not present in database
Track 22 not present in database
Track 23 not present in database
Track 24 not present in database
Track 25 not present in database
Track 26 not present in database
Track 27 not present in database
Track 28 not present in database
Track 29 not present in database
Track 30 not present in database
Track 31 not present in database
Track 32 not present in database
Track 33 not present in database
None of the tracks are present in the AccurateRip database
End of status report
---- CUETools DB Plugin V2.1.3
[CTDB TOCID: qhhb5miecOBjWDuGcJKpjvjR17s-] disk not present in database, Submit result: qhhb5miecOBjWDuGcJKpjvjR17s- has been uploaded
==== Log checksum A6DE9B490B48B9D8053AE31FA184B49F5B259BEA5D34E4F9D9C9CF89D6C374DC ====
Exact Audio Copy V1.0 beta 3 from 29. August 2011 
EAC extraction logfile from 25. January 2013, 21:10
Bill Brown & Jamie Christopherson / Lineage II Chornicle Ultimate Selection DISC 2
Used drive : HL-DT-STDVDRAM GT20N Adapter: 1 ID: 0
Read mode : Secure
Utilize accurate stream : Yes
Defeat audio cache : Yes
Make use of C2 pointers : No
Read offset correction : 667
Overread into Lead-In and Lead-Out : No
Fill up missing offset samples with silence : Yes
Delete leading and trailing silent blocks : No
Null samples used in CRC calculations : Yes
Used interface : Native Win32 interface for Win NT & 2000
Used output format : Internal WAV Routines
Sample format : 44.100 Hz; 16 Bit; Stereo
TOC of the extracted CD
Track | Start | Length | Start sector | End sector
---------------------------------------------------------
1 | 0:00.00 | 0:36.27 | 0 | 2726
2 | 0:36.27 | 0:36.00 | 2727 | 5426
3 | 1:12.27 | 0:36.10 | 5427 | 8136
4 | 1:48.37 | 0:33.50 | 8137 | 10661
5 | 2:22.12 | 0:34.03 | 10662 | 13214
6 | 2:56.15 | 0:39.22 | 13215 | 16161
7 | 3:35.37 | 0:32.24 | 16162 | 18585
8 | 4:07.61 | 0:43.14 | 18586 | 21824
9 | 4:51.00 | 0:36.10 | 21825 | 24534
10 | 5:27.10 | 0:33.55 | 24535 | 27064
11 | 6:00.65 | 3:10.17 | 27065 | 41331
12 | 9:11.07 | 3:06.03 | 41332 | 55284
13 | 12:17.10 | 3:06.72 | 55285 | 69306
14 | 15:24.07 | 3:02.25 | 69307 | 82981
15 | 18:26.32 | 1:38.50 | 82982 | 90381
16 | 20:05.07 | 1:31.03 | 90382 | 97209
17 | 21:36.10 | 2:06.02 | 97210 | 106661
18 | 23:42.12 | 1:33.13 | 106662 | 113649
19 | 25:15.25 | 1:53.65 | 113650 | 122189
20 | 27:09.15 | 1:57.67 | 122190 | 131031
21 | 29:07.07 | 2:37.05 | 131032 | 142811
22 | 31:44.12 | 12:30.73 | 142812 | 199134
23 | 44:15.10 | 4:33.25 | 199135 | 219634
24 | 48:48.35 | 17:18.49 | 219635 | 297533
Range status and errors
Selected range
Filename F:\doppel9014\LINE2CD-004.wav
Peak level 99.4 %
Extraction speed 2.1 X
Range quality 100.0 %
Copy CRC BA23A8F2
Copy OK
No errors occurred
AccurateRip summary
Track 1 not present in database
Track 2 not present in database
Track 3 not present in database
Track 4 not present in database
Track 5 not present in database
Track 6 not present in database
Track 7 not present in database
Track 8 not present in database
Track 9 not present in database
Track 10 not present in database
Track 11 not present in database
Track 12 not present in database
Track 13 not present in database
Track 14 not present in database
Track 15 not present in database
Track 16 not present in database
Track 17 not present in database
Track 18 not present in database
Track 19 not present in database
Track 20 not present in database
Track 21 not present in database
Track 22 not present in database
Track 23 not present in database
Track 24 not present in database
None of the tracks are present in the AccurateRip database
End of status report
---- CUETools DB Plugin V2.1.3
[CTDB TOCID: 8A36iwWnyoZXEFzHnYONSqze9iY-] disk not present in database, Submit result: 8A36iwWnyoZXEFzHnYONSqze9iY- has been uploaded
==== Log checksum 0129778DCF4303E276EEDBB6FD418B7D7995765BA6E125A19DB7B12BFC8A21A4 ====
Красивая оркестровая музыка от композиторов Bill Brown и Jamie Christopherson, которая совершено не раскрывается звуковыми файлами, находящимися в ресурсах игры, но теперь у вас есть возможность оценить их по достоинству! Качество записи не вызывает нареканий.

Аудио диски были выпущены в составе коллекционного издания на 7-летие Lineage 2 в Японии. Издание включало в себя клиент для ПК на DVD и 30-дневную подписку, специальное внутри игровое оружие на выбор, оригами Осадного голема и игровую звуковую дорожку. Некоторые игроки, заполучившие издание, должны были случайным образом получить эксклюзивную броню в игре. Количество таких подарочных коробок было ограничено.

info [Профиль]  [ЛС] 

gavnopolet

Пол: Пол:Муж

Стаж: 4 года 3 месяца

Сообщений: 5

Рейтинг

post 07-Июн-2017 20:52 (спустя 8 часов) [-]0[+]

[Цитировать] 

Спасибо!
в игре и вправду прекрасная музыка Улыбаюсь
info [Профиль]  [ЛС] 
Показать сообщения:    
Ответить на тему

Текущее время: 28-Июл 16:52

Часовой пояс: GMT + 4



Вы не можете начинать темы
Вы не можете отвечать на сообщения
Вы не можете редактировать свои сообщения
Вы не можете удалять свои сообщения
Вы не можете голосовать в опросах
Вы не можете прикреплять файлы к сообщениям
Вы не можете скачивать файлы