Ошибка

(Score, Arrangement) Пираты Карибского Моря / Pirates of the Caribbean Soundtrack Collection (by Hans Zimmer, Klaus Badelt, Rodrigo Y Gabriela, Geoff Zanelli) - 2003-2017 г., FLAC (image+.cue), lossless

Ответить на тему
 
Автор Сообщение

Hobbit38

Пол: Пол:Муж

Стаж: 4 года 2 месяца

Сообщений: 595

Россия
Рейтинг

post 02-Июн-2017 22:18 [-]0[+]

[Цитировать] 


Pirates of the Caribbean Soundtrack Collection
Жанр: Score, Arrangement | Год выпуска диска: 2003-2017

Композитор: Klaus Badelt, Hans Zimmer, Rodrigo Y Gabriela, Geoff Zanelli

Аудио кодек: FLAC (.flac) | Тип рипа: image+.cue | Битрейт аудио: lossless

Продолжительность: 06:32:39

Жанр: Score
Год выпуска: 2003
Композитор: Klaus Badelt
Страна-производитель диска: USA
Издатель (лейбл): Disney Records
Продолжительность: 00:43:37
01. Fog Bound (02:16)
02. The Medallion Calls (01:52)
03. The Black Pearl (02:16)
04. Will and Elizabeth (02:08)
05. Swords Crossed (03:15)
06. Walk The Plank (01:58)
07. Barbossa is Hungry (04:06)
08. Blood Ritual (03:32)
09. Moonlight Serenade (02:08)
10. To The Pirates' Cave! (03:30)
11. Skull and Crossbones (03:23)
12. Bootstrap's Bootstraps (02:38)
13. Underwater March (04:12)
14. One Last Shot (04:46)
15. He's a Pirate (01:30)
 
EAC extraction logfile from 29. January 2006, 23:55 for CD
Klaus Badelt / Pirates Of The Caribbean [Japan]

Used drive : PLEXTOR CD-R PREMIUM Adapter: 0 ID: 1
Read mode : Secure with NO C2, accurate stream, disable cache
Read offset correction : 30
Overread into Lead-In and Lead-Out : No

Used output format : Internal WAV Routines
44.100 Hz; 16 Bit; Stereo

Other options :
Fill up missing offset samples with silence : Yes
Delete leading and trailing silent blocks : No
Installed external ASPI interface

Range status and errors
Selected range
Filename H:\Klaus Badelt - Pirates Of The Caribbean [Japan].wav

Peak level 97.7 %
Range quality 100.0 %
CRC 1BEB1404
Copy OK

No errors occured

End of status report
Жанр: Score
Год выпуска: 2006
Композитор: Hans Zimmer
Страна-производитель диска: USA
Издатель (лейбл): Disney Records
Продолжительность: 00:58:36
01. Jack Sparrow (6:06)
02. The Kraken (6:55)
03. Davy Jones (3:15)
04. I've Got My Eye On You (2:25)
05. Dinner Is Served (1:30)
06. Tia Dalma (3:58)
07. Two Hornpipes (Tortuga) (1:14)
08. A Family Affair (3:34)
09. Wheel Of Fortune (6:46)
10. You Look Good Jack (5:34)
11. Hello Beastie (10:16)
12. He's A Pirate (Tiesto Remix) (7:03)
13. He's A Pirate (Pete n Red's Jolly Roger Radio Edit) (3:14)
14. He's A Pirate (Chris Joss Ship Ahoy Tribal Mix) (4:46)
 
EAC extraction logfile from 4. July 2006, 12:53 for CD
Soundtrack / Pirates of the Caribbean, the: Dead Man's Chest

Used drive : HL-DT-STDVDRRW GWA-4166B Adapter: 0 ID: 0
Read mode : Secure with NO C2, accurate stream, disable cache
Read offset correction : 102
Overread into Lead-In and Lead-Out : No

Used output format : Internal WAV Routines
44.100 Hz; 16 Bit; Stereo

Other options :
Fill up missing offset samples with silence : Yes
Delete leading and trailing silent blocks : No
Installed external ASPI interface

Range status and errors
Selected range
Filename C:\temp\music\Soundtrack - Pirates of the Caribbean, the Dead Man's Chest.wav

Peak level 99.7 %
Range quality 100.0 %
CRC A320CD2B
Copy OK

No errors occured

End of status report
Жанр: Score
Год выпуска: 2007
Композитор: Hans Zimmer
Страна-производитель диска: USA
Издатель (лейбл): Disney Records
Продолжительность: 00:55:57
01. Hoist the Colours (01:31)
02. Singapore (03:39)
03. At Wit's End (08:05)
04. Multiple Jacks (03:49)
05. Up Is Down (02:41)
06. I See Dead People in Boats (07:08)
07. The Brethren Court (02:20)
08. Parlay (02:10)
09. Calypso (03:02)
10. What Shall We Die For (02:02)
11. I Don't Think Now Is the Best Time (10:45)
12. One Day (04:01)
13. Drink Up Me Hearties (04:31)
 
EAC extraction logfile from 23. May 2007, 9:28 for CD
Hans Zimmer / Pirates Of The Caribbean - At World's End

Used drive : PLEXTOR CD-R PREMIUM Adapter: 5 ID: 1
Read mode : Secure with NO C2, accurate stream, disable cache
Read offset correction : 30
Overread into Lead-In and Lead-Out : Yes

Used output format : Internal WAV Routines
44.100 Hz; 16 Bit; Stereo

Other options :
Fill up missing offset samples with silence : Yes
Delete leading and trailing silent blocks : No
Installed external ASPI interface

Range status and errors
Selected range
Filename G:\~~##~~SCORES~~##~~\Hans Zimmer - Pirates Of The Caribbean - At World's End.wav

Peak level 99.8 %
Range quality 99.9 %
CRC F1842922
Copy OK

No errors occured

End of status report
Жанр: Score
Год выпуска: 2007
Композитор: Hans Zimmer, except: "Hoist The Colours Suite" by Hans Zimmer, Gore Verbinski, Ted Elliott & Terry Rossio; "He's A Pirate" by Klaus Badelt
Страна-производитель диска: USA
Издатель (лейбл): Disney Records
Продолжительность: 01:16:56
01. Pirates, Day One, 4:56 AM (03:45)
Original Hans Zimmer Theme - The Curse of the Black Pearl
02. Marry Me (11:36)
Score Suite from At World's End
03. The Heart of Davy Jones (03:13)
Score Suite from Dead Man's Chest
04. Lord Cutler Beckett (08:46)
Theme from Dead Man's Chest, Score Suite from At World's End
05. Jack's Theme Bare Bones Demo (04:03)
Hans Zimmer Piano Demo from Dead Man's Chest
06. Hoist the Colours Suite (05:42)
Score Suite from At World's End
07. The Pirate Lord of Singapore (05:57)
Score Suite from At World's End
08. Just Good Business (05:54)
Score Suite from At World's End
09. He's a Pirate (03:10)
Pete n' Red's Jolly Roger Mix
10. He's a Pirate (04:36)
Friscia & Lamboy Tribal Treasure Mix
11. He's a Pirate (04:37)
Pelo Verde Mix
12. He's a Pirate (04:03)
Chris Joss Ship Ahoy Tribal Mix
13. Jack's Suite (03:34)
Paul Oakenfold Mix
14. Jack's Suite (03:46)
The Crystal Method Mix
15. Pirates Live Forever (03:50)
Ryeland Allison Mix
 
Exact Audio Copy V0.99 prebeta 5 from 4. May 2009
EAC extraction logfile from 14. October 2010, 4:05
Various / Pirates of the Caribbean: Remixed & Unreleased
Used drive : SlimtypeDVDRW SSM-8515S Adapter: 1 ID: 0
Read mode : Secure
Utilize accurate stream : Yes
Defeat audio cache : Yes
Make use of C2 pointers : No
Read offset correction : 594
Overread into Lead-In and Lead-Out : No
Fill up missing offset samples with silence : Yes
Delete leading and trailing silent blocks : No
Null samples used in CRC calculations : Yes
Used interface : Native Win32 interface for Win NT & 2000
Gap handling : Appended to previous track
Used output format : User Defined Encoder
Selected bitrate : 768 kBit/s
Quality : High
Add ID3 tag : No
Command line compressor : C:\Program Files\Exact Audio Copy\FLAC\FLAC.EXE
Additional command line options : -6 -V -T "ARTIST=%a" -T "TITLE=%t" -T "ALBUM=%g" -T "DATE=%y" -T "TRACKNUMBER=%n" -T "GENRE=%m" -T "COMMENT=%e" %s -o %d
TOC of the extracted CD
Track | Start | Length | Start sector | End sector
---------------------------------------------------------
1 | 0:00.00 | 3:46.20 | 0 | 16969
2 | 3:46.20 | 11:37.28 | 16970 | 69272
3 | 15:23.48 | 3:14.05 | 69273 | 83827
4 | 18:37.53 | 8:47.33 | 83828 | 123385
5 | 27:25.11 | 4:05.00 | 123386 | 141760
6 | 31:30.11 | 5:43.45 | 141761 | 167530
7 | 37:13.56 | 5:58.20 | 167531 | 194400
8 | 43:12.01 | 5:56.12 | 194401 | 221112
9 | 49:08.13 | 3:12.73 | 221113 | 235585
10 | 52:21.11 | 4:38.30 | 235586 | 256465
11 | 56:59.41 | 4:39.50 | 256466 | 277440
12 | 61:39.16 | 4:03.05 | 277441 | 295670
13 | 65:42.21 | 3:34.73 | 295671 | 311793
14 | 69:17.19 | 3:48.17 | 311794 | 328910
15 | 73:05.36 | 3:50.48 | 328911 | 346208
Track 1
Filename F:\FLAC\Pirates Box CD4\01. Pirates, Day One, 4-56AM.wav
Pre-gap length 0:00:02.00
Peak level 95.4 %
Track quality 100.0 %
Test CRC BBB88FD4
Copy CRC BBB88FD4
Accurately ripped (confidence 18) [34F3CC47]
Copy OK
Track 2
Filename F:\FLAC\Pirates Box CD4\02. Marry Me.wav
Peak level 93.4 %
Track quality 100.0 %
Test CRC DA53E11A
Copy CRC DA53E11A
Accurately ripped (confidence 17) [4EB41105]
Copy OK
Track 3
Filename F:\FLAC\Pirates Box CD4\03. The Heart of Davy Jones.wav
Peak level 85.7 %
Track quality 100.0 %
Test CRC EB43C6D5
Copy CRC EB43C6D5
Accurately ripped (confidence 18) [642E13EF]
Copy OK
Track 4
Filename F:\FLAC\Pirates Box CD4\04. Lord Cutler Beckett.wav
Peak level 95.4 %
Track quality 100.0 %
Test CRC 068472FD
Copy CRC 068472FD
Accurately ripped (confidence 18) [56424934]
Copy OK
Track 5
Filename F:\FLAC\Pirates Box CD4\05. Jack's Theme Bare Bones Demo.wav
Peak level 66.9 %
Track quality 100.0 %
Test CRC 39226463
Copy CRC 39226463
Accurately ripped (confidence 18) [ACC40394]
Copy OK
Track 6
Filename F:\FLAC\Pirates Box CD4\06. Hoist the Colours Suite.wav
Peak level 95.4 %
Track quality 100.0 %
Test CRC C60A4D12
Copy CRC C60A4D12
Accurately ripped (confidence 18) [E3D72F09]
Copy OK
Track 7
Filename F:\FLAC\Pirates Box CD4\07. The Pirate Lord of Singapore.wav
Peak level 95.3 %
Track quality 99.9 %
Test CRC CF45FE8F
Copy CRC CF45FE8F
Accurately ripped (confidence 18) [5C19146A]
Copy OK
Track 8
Filename F:\FLAC\Pirates Box CD4\08. Just Good Business.wav
Peak level 92.2 %
Track quality 100.0 %
Test CRC 8F67CBE9
Copy CRC 8F67CBE9
Accurately ripped (confidence 18) [9D16D70F]
Copy OK
Track 9
Filename F:\FLAC\Pirates Box CD4\09. He's a Pirate (Pete n' Red's Jolly Roger Mix).wav
Peak level 63.7 %
Track quality 100.0 %
Test CRC E20D2362
Copy CRC E20D2362
Accurately ripped (confidence 17) [909EDC4D]
Copy OK
Track 10
Filename F:\FLAC\Pirates Box CD4\10. He's a Pirate (Friscia & Lamboy Tribal Treasure Mix).wav
Peak level 95.4 %
Track quality 100.0 %
Test CRC 1361AA4A
Copy CRC 1361AA4A
Accurately ripped (confidence 17) [990ED847]
Copy OK
Track 11
Filename F:\FLAC\Pirates Box CD4\11. He's a Pirate (Pelo Verde Mix).wav
Peak level 63.7 %
Track quality 100.0 %
Test CRC F3F8CFF3
Copy CRC F3F8CFF3
Accurately ripped (confidence 17) [85662D94]
Copy OK
Track 12
Filename F:\FLAC\Pirates Box CD4\12. He's a Pirate (Chris Joss Ship Ahoy Tribal Mix).wav
Peak level 63.7 %
Track quality 99.9 %
Test CRC 1620BE52
Copy CRC 1620BE52
Accurately ripped (confidence 17) [336EA1E0]
Copy OK
Track 13
Filename F:\FLAC\Pirates Box CD4\13. Jack's Suite (Paul Oakenfold Mix).wav
Peak level 67.5 %
Track quality 100.0 %
Test CRC 688765EB
Copy CRC 688765EB
Accurately ripped (confidence 17) [7FC99039]
Copy OK
Track 14
Filename F:\FLAC\Pirates Box CD4\14. Jack's Suite (The Crystal Method Mix).wav
Peak level 75.7 %
Track quality 100.0 %
Test CRC 3DB5DB3D
Copy CRC 3DB5DB3D
Accurately ripped (confidence 17) [3480EEBD]
Copy OK
Track 15
Filename F:\FLAC\Pirates Box CD4\15. Pirates Live Forever (Ryeland Allison Mix).wav
Peak level 92.2 %
Track quality 100.0 %
Test CRC 01C8CA04
Copy CRC 01C8CA04
Accurately ripped (confidence 18) [DBAD6AC9]
Copy OK
All tracks accurately ripped
No errors occurred
End of status report
Жанр: Score
Год выпуска: 2011
Композитор: Hans Zimmer with Rodrigo Y Gabriela
Страна-производитель диска: USA
Издатель (лейбл): Disney Records
Продолжительность: 01:17:48
01. Hans Zimmer - Guilty of Being Innocent of Being Jack Sparrow (1:44)
02. Hans Zimmer - Angelica (Feat. Rodrigo Y Gabriela) (4:17)
03. Hans Zimmer - Mutiny (2:49)
04. Rodrigo Y Gabriela - The Pirate That Should Not Be (3:56)
05. Hans Zimmer - Mermaids (8:05)
06. Rodrigo Y Gabriela - South of Heaven's Chanting Mermaids (5:49)
07. Hans Zimmer - Palm Tree Escape (Feat. Rodrigo Y Gabriela) (3:06)
08. Hans Zimmer - Blackbeard (5:05)
09. Rodrigo Y Gabriela - Angry and Dead Again (5:34)
10. Hans Zimmer - On Stranger Tides (2:44)
11. Hans Zimmer - End Credits (2:00)
12. Hans Zimmer - Guilty of Being Innocent of Being Jack Sparrow (Remixed by DJ Earworm) (2:46)
13. Rodrigo Y Gabriela - Angelica (Grant Us Peace Remix) (Remixed by Ki:Theory) (3:09)
14. Rodrigo Y Gabriela - The Pirate That Should Not Be (Remixed by Photek) (6:26)
15. Hans Zimmer - Blackbeard (Remixed by Super Mash Bros & Thieves) (5:27)
16. Rodrigo Y Gabriela - South of Heaven's Chanting Mermaids (Remixed by Paper Diamond) (3:33)
17. Rodrigo Y Gabriela - Palm Tree Escape (Remixed by Adam Freeland) (5:28)
18. Rodrigo Y Gabriela - Angry and Dead Again (Remixed by Static Revenger) (5:50)
 
X Lossless Decoder version 20110515 (133.1)
XLD extraction logfile from 2011-05-17 21:48:30 -0500
Various Artists / Pirates Of The Caribbean: On Stranger Tides
Used drive : MATSHITA DVD-R UJ-868 (revision KB19)
Ripper mode : CDParanoia III 10.2
Disable audio cache : OK for the drive with a cache less than 2750KiB
Make use of C2 pointers : NO
Read offset correction : 102
Max retry count : 100
Gap status : Analyzed, Appended
TOC of the extracted CD
Track | Start | Length | Start sector | End sector
---------------------------------------------------------
1 | 00:01:40 | 01:42:40 | 115 | 7804
2 | 01:44:05 | 04:17:36 | 7805 | 27115
3 | 06:01:41 | 02:48:68 | 27116 | 39783
4 | 08:50:34 | 03:55:64 | 39784 | 57472
5 | 12:46:23 | 08:05:04 | 57473 | 93851
6 | 20:51:27 | 05:48:46 | 93852 | 119997
7 | 26:39:73 | 03:06:18 | 119998 | 133965
8 | 29:46:16 | 05:05:36 | 133966 | 156876
9 | 34:51:52 | 05:33:52 | 156877 | 181903
10 | 40:25:29 | 02:44:31 | 181904 | 194234
11 | 43:09:60 | 01:59:70 | 194235 | 203229
12 | 45:09:55 | 02:45:66 | 203230 | 215670
13 | 47:55:46 | 03:08:62 | 215671 | 229832
14 | 51:04:33 | 06:26:10 | 229833 | 258792
15 | 57:30:43 | 05:26:69 | 258793 | 283311
16 | 62:57:37 | 03:32:63 | 283312 | 299274
17 | 66:30:25 | 05:27:74 | 299275 | 323873
18 | 71:58:24 | 05:49:51 | 323874 | 350099
AccurateRip Summary
Disc not found in AccurateRip DB.
All Tracks
Album gain : -4.95 dB
Peak : 0.992188
Statistics
Read error : 0
Skipped (treated as error) : 0
Edge jitter error (maybe fixed) : 0
Atom jitter error (maybe fixed) : 0
Drift error (maybe fixed) : 0
Dropped bytes error (maybe fixed) : 0
Duplicated bytes error (maybe fixed) : 0
Track 01
Filename : /Users/dtesta/Desktop/tempMusic/Music/Compilations - 2011 - Pirates Of The Caribbean: On Stranger Tides [FLAC]/01 Guilty Of Being Innocent Of Being Jack Sparrow.flac
Pre-gap length : 00:03:40
Track gain : -3.77 dB
Peak : 0.991211
CRC32 hash (test run) : 7722E6D7
CRC32 hash : 7722E6D7
CRC32 hash (skip zero) : 5AA12CC4
AccurateRip signature : 10C4A540
->Track not present in AccurateRip database.
Statistics
Read error : 0
Skipped (treated as error) : 0
Edge jitter error (maybe fixed) : 0
Atom jitter error (maybe fixed) : 0
Drift error (maybe fixed) : 0
Dropped bytes error (maybe fixed) : 0
Duplicated bytes error (maybe fixed) : 0
Inconsistency in error sectors : 0
Track 02
Filename : /Users/dtesta/Desktop/tempMusic/Music/Compilations - 2011 - Pirates Of The Caribbean: On Stranger Tides [FLAC]/02 Angelica (Featuring Rodrigo Y Gabriela).flac
Pre-gap length : 00:02:01
Track gain : -1.89 dB
Peak : 0.787415
CRC32 hash (test run) : EAE2146E
CRC32 hash : EAE2146E
CRC32 hash (skip zero) : 42BF14D4
AccurateRip signature : FBB3E504
->Track not present in AccurateRip database.
Statistics
Read error : 0
Skipped (treated as error) : 0
Edge jitter error (maybe fixed) : 0
Atom jitter error (maybe fixed) : 0
Drift error (maybe fixed) : 0
Dropped bytes error (maybe fixed) : 0
Duplicated bytes error (maybe fixed) : 0
Inconsistency in error sectors : 0
Track 03
Filename : /Users/dtesta/Desktop/tempMusic/Music/Compilations - 2011 - Pirates Of The Caribbean: On Stranger Tides [FLAC]/03 Mutiny.flac
Pre-gap length : 00:02:00
Track gain : -6.67 dB
Peak : 0.966125
CRC32 hash (test run) : 70F05FDE
CRC32 hash : 70F05FDE
CRC32 hash (skip zero) : 82103367
AccurateRip signature : 0B44A93E
->Track not present in AccurateRip database.
Statistics
Read error : 0
Skipped (treated as error) : 0
Edge jitter error (maybe fixed) : 0
Atom jitter error (maybe fixed) : 0
Drift error (maybe fixed) : 0
Dropped bytes error (maybe fixed) : 0
Duplicated bytes error (maybe fixed) : 0
Inconsistency in error sectors : 0
Track 04
Filename : /Users/dtesta/Desktop/tempMusic/Music/Compilations - 2011 - Pirates Of The Caribbean: On Stranger Tides [FLAC]/04 The Pirate That Should Not Be.flac
Pre-gap length : 00:01:66
Track gain : -0.85 dB
Peak : 0.545929
CRC32 hash (test run) : 3105ED54
CRC32 hash : 3105ED54
CRC32 hash (skip zero) : 93224CF9
AccurateRip signature : 43CFB9AF
->Track not present in AccurateRip database.
Statistics
Read error : 0
Skipped (treated as error) : 0
Edge jitter error (maybe fixed) : 0
Atom jitter error (maybe fixed) : 0
Drift error (maybe fixed) : 0
Dropped bytes error (maybe fixed) : 0
Duplicated bytes error (maybe fixed) : 0
Inconsistency in error sectors : 0
Track 05
Filename : /Users/dtesta/Desktop/tempMusic/Music/Compilations - 2011 - Pirates Of The Caribbean: On Stranger Tides [FLAC]/05 Mermaids.flac
Pre-gap length : 00:02:17
Track gain : -5.11 dB
Peak : 0.966125
CRC32 hash (test run) : D04F9E58
CRC32 hash : D04F9E58
CRC32 hash (skip zero) : 23924FC8
AccurateRip signature : 688CD8A6
->Track not present in AccurateRip database.
Statistics
Read error : 0
Skipped (treated as error) : 0
Edge jitter error (maybe fixed) : 0
Atom jitter error (maybe fixed) : 0
Drift error (maybe fixed) : 0
Dropped bytes error (maybe fixed) : 0
Duplicated bytes error (maybe fixed) : 0
Inconsistency in error sectors : 0
Track 06
Filename : /Users/dtesta/Desktop/tempMusic/Music/Compilations - 2011 - Pirates Of The Caribbean: On Stranger Tides [FLAC]/06 South Of Heaven's Chanting Mermaids.flac
Pre-gap length : 00:01:43
Track gain : 2.34 dB
Peak : 0.543976
CRC32 hash (test run) : BA7A921D
CRC32 hash : BA7A921D
CRC32 hash (skip zero) : D3AE6A77
AccurateRip signature : 536F74AF
->Track not present in AccurateRip database.
Statistics
Read error : 0
Skipped (treated as error) : 0
Edge jitter error (maybe fixed) : 0
Atom jitter error (maybe fixed) : 0
Drift error (maybe fixed) : 0
Dropped bytes error (maybe fixed) : 0
Duplicated bytes error (maybe fixed) : 0
Inconsistency in error sectors : 0
Track 07
Filename : /Users/dtesta/Desktop/tempMusic/Music/Compilations - 2011 - Pirates Of The Caribbean: On Stranger Tides [FLAC]/07 Palm Tree Escape (Featuring Rodrigo Y Gabriela).flac
Pre-gap length : 00:01:64
Track gain : -7.48 dB
Peak : 0.966125
CRC32 hash (test run) : D92D689E
CRC32 hash : D92D689E
CRC32 hash (skip zero) : 6083D0AE
AccurateRip signature : 95A07A96
->Track not present in AccurateRip database.
Statistics
Read error : 0
Skipped (treated as error) : 0
Edge jitter error (maybe fixed) : 0
Atom jitter error (maybe fixed) : 0
Drift error (maybe fixed) : 0
Dropped bytes error (maybe fixed) : 0
Duplicated bytes error (maybe fixed) : 0
Inconsistency in error sectors : 0
Track 08
Filename : /Users/dtesta/Desktop/tempMusic/Music/Compilations - 2011 - Pirates Of The Caribbean: On Stranger Tides [FLAC]/08 Blackbeard.flac
Pre-gap length : 00:01:57
Track gain : -6.50 dB
Peak : 0.992188
CRC32 hash (test run) : 46693D32
CRC32 hash : 46693D32
CRC32 hash (skip zero) : 50B70099
AccurateRip signature : 8D9B7883
->Track not present in AccurateRip database.
Statistics
Read error : 0
Skipped (treated as error) : 0
Edge jitter error (maybe fixed) : 0
Atom jitter error (maybe fixed) : 0
Drift error (maybe fixed) : 0
Dropped bytes error (maybe fixed) : 0
Duplicated bytes error (maybe fixed) : 0
Inconsistency in error sectors : 0
Track 09
Filename : /Users/dtesta/Desktop/tempMusic/Music/Compilations - 2011 - Pirates Of The Caribbean: On Stranger Tides [FLAC]/09 Angry And Dead Again.flac
Pre-gap length : 00:01:66
Track gain : -0.93 dB
Peak : 0.648041
CRC32 hash (test run) : 4449D38B
CRC32 hash : 4449D38B
CRC32 hash (skip zero) : 8A43822A
AccurateRip signature : 8EE57C4F
->Track not present in AccurateRip database.
Statistics
Read error : 0
Skipped (treated as error) : 0
Edge jitter error (maybe fixed) : 0
Atom jitter error (maybe fixed) : 0
Drift error (maybe fixed) : 0
Dropped bytes error (maybe fixed) : 0
Duplicated bytes error (maybe fixed) : 0
Inconsistency in error sectors : 0
Track 10
Filename : /Users/dtesta/Desktop/tempMusic/Music/Compilations - 2011 - Pirates Of The Caribbean: On Stranger Tides [FLAC]/10 On Stranger Tides.flac
Pre-gap length : 00:01:32
Track gain : -6.88 dB
Peak : 0.973480
CRC32 hash (test run) : 617A7B5F
CRC32 hash : 617A7B5F
CRC32 hash (skip zero) : 39869DB7
AccurateRip signature : B76C114C
->Track not present in AccurateRip database.
Statistics
Read error : 0
Skipped (treated as error) : 0
Edge jitter error (maybe fixed) : 0
Atom jitter error (maybe fixed) : 0
Drift error (maybe fixed) : 0
Dropped bytes error (maybe fixed) : 0
Duplicated bytes error (maybe fixed) : 0
Inconsistency in error sectors : 0
Track 11
Filename : /Users/dtesta/Desktop/tempMusic/Music/Compilations - 2011 - Pirates Of The Caribbean: On Stranger Tides [FLAC]/11 End Credits.flac
Pre-gap length : 00:01:66
Track gain : -7.15 dB
Peak : 0.967712
CRC32 hash (test run) : A277D7B1
CRC32 hash : A277D7B1
CRC32 hash (skip zero) : 148D3D1D
AccurateRip signature : 78A9C0DF
->Track not present in AccurateRip database.
Statistics
Read error : 0
Skipped (treated as error) : 0
Edge jitter error (maybe fixed) : 0
Atom jitter error (maybe fixed) : 0
Drift error (maybe fixed) : 0
Dropped bytes error (maybe fixed) : 0
Duplicated bytes error (maybe fixed) : 0
Inconsistency in error sectors : 0
Track 12
Filename : /Users/dtesta/Desktop/tempMusic/Music/Compilations - 2011 - Pirates Of The Caribbean: On Stranger Tides [FLAC]/12 Guilty Of Being Innocent Of Being Jack Sparrow (Remixed By DJ Earworm).flac
Pre-gap length : 00:02:60
Track gain : -2.07 dB
Peak : 0.911072
CRC32 hash (test run) : E2FA1B2E
CRC32 hash : E2FA1B2E
CRC32 hash (skip zero) : B6A902A3
AccurateRip signature : 0AA72521
->Track not present in AccurateRip database.
Statistics
Read error : 0
Skipped (treated as error) : 0
Edge jitter error (maybe fixed) : 0
Atom jitter error (maybe fixed) : 0
Drift error (maybe fixed) : 0
Dropped bytes error (maybe fixed) : 0
Duplicated bytes error (maybe fixed) : 0
Inconsistency in error sectors : 0
Track 13
Filename : /Users/dtesta/Desktop/tempMusic/Music/Compilations - 2011 - Pirates Of The Caribbean: On Stranger Tides [FLAC]/13 Angelica (Grant Us Peace Remix) (Remixed By Ki:Theory).flac
Track gain : -5.22 dB
Peak : 0.600281
CRC32 hash (test run) : 286AB2F6
CRC32 hash : 286AB2F6
CRC32 hash (skip zero) : EFFA6644
AccurateRip signature : EFCB883F
->Track not present in AccurateRip database.
Statistics
Read error : 0
Skipped (treated as error) : 0
Edge jitter error (maybe fixed) : 0
Atom jitter error (maybe fixed) : 0
Drift error (maybe fixed) : 0
Dropped bytes error (maybe fixed) : 0
Duplicated bytes error (maybe fixed) : 0
Inconsistency in error sectors : 0
Track 14
Filename : /Users/dtesta/Desktop/tempMusic/Music/Compilations - 2011 - Pirates Of The Caribbean: On Stranger Tides [FLAC]/14 The Pirate That Should Not Be (Remixed By Photek).flac
Track gain : -3.65 dB
Peak : 0.966095
CRC32 hash (test run) : 5008B16F
CRC32 hash : 5008B16F
CRC32 hash (skip zero) : 7B1F70F5
AccurateRip signature : FD545274
->Track not present in AccurateRip database.
Statistics
Read error : 0
Skipped (treated as error) : 0
Edge jitter error (maybe fixed) : 0
Atom jitter error (maybe fixed) : 0
Drift error (maybe fixed) : 0
Dropped bytes error (maybe fixed) : 0
Duplicated bytes error (maybe fixed) : 0
Inconsistency in error sectors : 0
Track 15
Filename : /Users/dtesta/Desktop/tempMusic/Music/Compilations - 2011 - Pirates Of The Caribbean: On Stranger Tides [FLAC]/15 Blackbeard (Remixed By Super Mash Bros & Thieves).flac
Track gain : -2.60 dB
Peak : 0.767548
CRC32 hash (test run) : DA4F0D01
CRC32 hash : DA4F0D01
CRC32 hash (skip zero) : 4425D798
AccurateRip signature : 4467A398
->Track not present in AccurateRip database.
Statistics
Read error : 0
Skipped (treated as error) : 0
Edge jitter error (maybe fixed) : 0
Atom jitter error (maybe fixed) : 0
Drift error (maybe fixed) : 0
Dropped bytes error (maybe fixed) : 0
Duplicated bytes error (maybe fixed) : 0
Inconsistency in error sectors : 0
Track 16
Filename : /Users/dtesta/Desktop/tempMusic/Music/Compilations - 2011 - Pirates Of The Caribbean: On Stranger Tides [FLAC]/16 South Of Heaven's Chanting Mermaids (Remixed By Paper Diamond).flac
Pre-gap length : 00:02:23
Track gain : -2.49 dB
Peak : 0.754395
CRC32 hash (test run) : 5CB8642D
CRC32 hash : 5CB8642D
CRC32 hash (skip zero) : 9ED8578C
AccurateRip signature : E2FB5BD0
->Track not present in AccurateRip database.
Statistics
Read error : 0
Skipped (treated as error) : 0
Edge jitter error (maybe fixed) : 0
Atom jitter error (maybe fixed) : 0
Drift error (maybe fixed) : 0
Dropped bytes error (maybe fixed) : 0
Duplicated bytes error (maybe fixed) : 0
Inconsistency in error sectors : 0
Track 17
Filename : /Users/dtesta/Desktop/tempMusic/Music/Compilations - 2011 - Pirates Of The Caribbean: On Stranger Tides [FLAC]/17 Palm Tree Escape (Remixed By Adam Freeland).flac
Track gain : -2.31 dB
Peak : 0.966125
CRC32 hash (test run) : D5323810
CRC32 hash : D5323810
CRC32 hash (skip zero) : 4AE7126B
AccurateRip signature : 54D04DB7
->Track not present in AccurateRip database.
Statistics
Read error : 0
Skipped (treated as error) : 0
Edge jitter error (maybe fixed) : 0
Atom jitter error (maybe fixed) : 0
Drift error (maybe fixed) : 0
Dropped bytes error (maybe fixed) : 0
Duplicated bytes error (maybe fixed) : 0
Inconsistency in error sectors : 0
Track 18
Filename : /Users/dtesta/Desktop/tempMusic/Music/Compilations - 2011 - Pirates Of The Caribbean: On Stranger Tides [FLAC]/18 Angry And Dead Again (Remixed By Static Revenger).flac
Pre-gap length : 00:00:73
Track gain : -3.86 dB
Peak : 0.636658
CRC32 hash (test run) : 67E3BB61
CRC32 hash : 67E3BB61
CRC32 hash (skip zero) : 13104BF8
AccurateRip signature : 72E2E53D
->Track not present in AccurateRip database.
Statistics
Read error : 0
Skipped (treated as error) : 0
Edge jitter error (maybe fixed) : 0
Atom jitter error (maybe fixed) : 0
Drift error (maybe fixed) : 0
Dropped bytes error (maybe fixed) : 0
Duplicated bytes error (maybe fixed) : 0
Inconsistency in error sectors : 0
No errors occurred
End of status report
Жанр: Score
Год выпуска: 2017
Композитор: Geoff Zanelli
Страна-производитель диска: USA
Издатель (лейбл): Walt Disney Records
Продолжительность: 01:11:40
01. Dead Men Tell No Tales
02. Salazar
03. No Woman Has Ever Handled My Herschel
04. You Speak of the Trident
05. The Devil's Triangle
06. Shansa
07. Kill the Filthy Pirate, I'll Wait
08. The Dying Gull
09. El Matador Del Mar
10. Kill the Sparrow
11. She Needs the Sea
12. The Brightest Star in the North
13. I've Come With the Butcher's Bill
14. The Power of the Sea
15. Treasure
16. My Name Is Barbossa
17. Beyond My Beloved Horizon
 
Exact Audio Copy V1.3 from 2. September 2016

EAC extraction logfile from 30. May 2017, 11:39

Geoff Zanelli / Pirates Of The Caribbean: Dead Men Tell No Tales

Used drive : PLEXTOR CD-R PX-230A Adapter: 1 ID: 0

Read mode : Secure
Utilize accurate stream : Yes
Defeat audio cache : Yes
Make use of C2 pointers : No

Read offset correction : 738
Overread into Lead-In and Lead-Out : No
Fill up missing offset samples with silence : Yes
Delete leading and trailing silent blocks : No
Null samples used in CRC calculations : Yes
Used interface : Native Win32 interface for Win NT & 2000
Gap handling : Appended to previous track

Used output format : User Defined Encoder
Selected bitrate : 1024 kBit/s
Quality : High
Add ID3 tag : No
Command line compressor : C:\Program Files\Exact Audio Copy\Flac\flac.exe
Additional command line options : -6 -V -T "ARTIST=%artist%" -T "TITLE=%title%" -T "ALBUM=%albumtitle%" -T "DATE=%year%" -T "TRACKNUMBER=%tracknr%" -T "GENRE=%genre%" -T "COMMENT=%comment%" -T "ALBUMARTIST=%albuminterpret%" -T "COMPOSER=%composer%" -T "DISCNUMBER=%cdnumber%" -T "TOTALDISCS=%totalcds%" -T "TOTALTRACKS=%numtracks%" %source% -o %dest%

TOC of the extracted CD

Track | Start | Length | Start sector | End sector
---------------------------------------------------------
1 | 0:00.00 | 1:51.08 | 0 | 8332
2 | 1:51.08 | 4:27.18 | 8333 | 28375
3 | 6:18.26 | 3:58.52 | 28376 | 46277
4 | 10:17.03 | 1:57.40 | 46278 | 55092
5 | 12:14.43 | 2:44.56 | 55093 | 67448
6 | 14:59.24 | 3:12.16 | 67449 | 81864
7 | 18:11.40 | 4:49.38 | 81865 | 103577
8 | 23:01.03 | 1:01.21 | 103578 | 108173
9 | 24:02.24 | 8:04.54 | 108174 | 144527
10 | 32:07.03 | 6:15.50 | 144528 | 172702
11 | 38:22.53 | 2:32.23 | 172703 | 184125
12 | 40:55.01 | 5:59.51 | 184126 | 211101
13 | 46:54.52 | 6:41.36 | 211102 | 241212
14 | 53:36.13 | 4:07.33 | 241213 | 259770
15 | 57:43.46 | 5:42.57 | 259771 | 285477
16 | 63:26.28 | 5:33.41 | 285478 | 310493
17 | 68:59.69 | 2:40.68 | 310494 | 322561

Track 1

Filename C:\Ripped by Filex\01 - Dead Men Tell No Tales.wav

Pre-gap length 0:00:02.00

Peak level 97.7 %
Extraction speed 5.0 X
Track quality 100.0 %
Test CRC 01FC3DDA
Copy CRC 01FC3DDA
Track not present in AccurateRip database
Copy OK

Track 2

Filename C:\Ripped by Filex\02 - Salazar.wav

Peak level 97.7 %
Extraction speed 5.3 X
Track quality 99.9 %
Test CRC 1D9BCEFA
Copy CRC 1D9BCEFA
Track not present in AccurateRip database
Copy OK

Track 3

Filename C:\Ripped by Filex\03 - No Woman Has Ever Handled My Herschel.wav

Peak level 97.7 %
Extraction speed 5.6 X
Track quality 99.9 %
Test CRC 566623B3
Copy CRC 566623B3
Track not present in AccurateRip database
Copy OK

Track 4

Filename C:\Ripped by Filex\04 - You Speak of the Trident.wav

Peak level 97.7 %
Extraction speed 5.0 X
Track quality 99.9 %
Test CRC 0D584621
Copy CRC 0D584621
Track not present in AccurateRip database
Copy OK

Track 5

Filename C:\Ripped by Filex\05 - The Devil's Triangle.wav

Peak level 97.7 %
Extraction speed 6.4 X
Track quality 100.0 %
Test CRC 8476B9D1
Copy CRC 8476B9D1
Track not present in AccurateRip database
Copy OK

Track 6

Filename C:\Ripped by Filex\06 - Shansa.wav

Peak level 97.7 %
Extraction speed 5.9 X
Track quality 99.9 %
Test CRC 29FC95BA
Copy CRC 29FC95BA
Track not present in AccurateRip database
Copy OK

Track 7

Filename C:\Ripped by Filex\07 - Kill the Filthy Pirate, I'll Wait.wav

Peak level 97.7 %
Extraction speed 6.8 X
Track quality 99.9 %
Test CRC 5F5D6B58
Copy CRC 5F5D6B58
Track not present in AccurateRip database
Copy OK

Track 8

Filename C:\Ripped by Filex\08 - The Dying Gull.wav

Peak level 97.7 %
Extraction speed 6.2 X
Track quality 100.0 %
Test CRC C17F1417
Copy CRC C17F1417
Track not present in AccurateRip database
Copy OK

Track 9

Filename C:\Ripped by Filex\09 - El Matador Del Mar.wav

Peak level 97.7 %
Extraction speed 7.8 X
Track quality 99.9 %
Test CRC C118391F
Copy CRC C118391F
Track not present in AccurateRip database
Copy OK

Track 10

Filename C:\Ripped by Filex\10 - Kill the Sparrow.wav

Peak level 97.7 %
Extraction speed 8.6 X
Track quality 100.0 %
Test CRC FDB2F111
Copy CRC FDB2F111
Track not present in AccurateRip database
Copy OK

Track 11

Filename C:\Ripped by Filex\11 - She Needs the Sea.wav

Peak level 97.7 %
Extraction speed 8.3 X
Track quality 100.0 %
Test CRC B97F9905
Copy CRC B97F9905
Track not present in AccurateRip database
Copy OK

Track 12

Filename C:\Ripped by Filex\12 - The Brightest Star in the North.wav

Peak level 97.7 %
Extraction speed 9.1 X
Track quality 100.0 %
Test CRC 2788CEAD
Copy CRC 2788CEAD
Track not present in AccurateRip database
Copy OK

Track 13

Filename C:\Ripped by Filex\13 - I've Come With the Butcher's Bill.wav

Peak level 97.7 %
Extraction speed 9.4 X
Track quality 100.0 %
Test CRC 15139FAA
Copy CRC 15139FAA
Track not present in AccurateRip database
Copy OK

Track 14

Filename C:\Ripped by Filex\14 - The Power of the Sea.wav

Peak level 97.7 %
Extraction speed 9.1 X
Track quality 100.0 %
Test CRC D7489FC9
Copy CRC D7489FC9
Track not present in AccurateRip database
Copy OK

Track 15

Filename C:\Ripped by Filex\15 - Treasure.wav

Peak level 98.8 %
Extraction speed 9.8 X
Track quality 100.0 %
Test CRC 3E5A6519
Copy CRC 3E5A6519
Track not present in AccurateRip database
Copy OK

Track 16

Filename C:\Ripped by Filex\16 - My Name Is Barbossa.wav

Peak level 97.7 %
Extraction speed 8.4 X
Track quality 100.0 %
Test CRC CDB03F5B
Copy CRC CDB03F5B
Track not present in AccurateRip database
Copy OK

Track 17

Filename C:\Ripped by Filex\17 - Beyond My Beloved Horizon.wav

Peak level 97.7 %
Extraction speed 5.5 X
Track quality 100.0 %
Test CRC 375DB383
Copy CRC 375DB383
Track not present in AccurateRip database
Copy OK

None of the tracks are present in the AccurateRip database

No errors occurred

End of status report

---- CUETools DB Plugin V2.1.6

[CTDB TOCID: nmz.re4_MgHLh8pwt86gCpIe7a4-] found
Submit result: nmz.re4_MgHLh8pwt86gCpIe7a4- has been confirmed
Track | CTDB Status
1 | (10/10) Accurately ripped
2 | (10/10) Accurately ripped
3 | (10/10) Accurately ripped
4 | (10/10) Accurately ripped
5 | (10/10) Accurately ripped
6 | (10/10) Accurately ripped
7 | (10/10) Accurately ripped
8 | (10/10) Accurately ripped
9 | (10/10) Accurately ripped
10 | (10/10) Accurately ripped
11 | (10/10) Accurately ripped
12 | ( 9/10) Accurately ripped
13 | ( 9/10) Accurately ripped
14 | ( 9/10) Accurately ripped
15 | ( 9/10) Accurately ripped
16 | ( 9/10) Accurately ripped
17 | ( 9/10) Accurately ripped

==== Log checksum 1221B7F5A7B13CE832FAF881C7F5B59CC39C33F743BC99846D13C5D914D90150 ====

info [Профиль]  [ЛС] 

Hobbit38

Пол: Пол:Муж

Стаж: 4 года 2 месяца

Сообщений: 595

Россия
Рейтинг

post 02-Сен-2017 20:56 (спустя 2 месяца 29 дней) [-]0[+]

[Цитировать] 

del
info [Профиль]  [ЛС] 

Hobbit38

Пол: Пол:Муж

Стаж: 4 года 2 месяца

Сообщений: 595

Россия
Рейтинг

post 28-Сен-2017 20:10 (спустя 25 дней) [-]0[+]

[Цитировать] 

del
info [Профиль]  [ЛС] 

Hobbit38

Пол: Пол:Муж

Стаж: 4 года 2 месяца

Сообщений: 595

Россия
Рейтинг

post 18-Окт-2017 23:04 (спустя 20 дней) [-]0[+]

[Цитировать] 

Обновление:
  • Замена на tracks.
info [Профиль]  [ЛС] 

Rewern

Пол: Пол:Муж

Стаж: 5 лет 2 месяца

Сообщений: 17

Украина
Рейтинг

post 25-Дек-2017 03:37 (спустя 2 месяца 6 дней) [-]0[+]

[Цитировать] 

Господа, подкиньте дровишек Улыбаюсь Никак докачать не могу Улыбаюсь
info [Профиль]  [ЛС] 

Hobbit38

Пол: Пол:Муж

Стаж: 4 года 2 месяца

Сообщений: 595

Россия
Рейтинг

post 08-Фев-2018 00:16 (спустя 1 месяц 13 дней) [-]0[+]

[Цитировать] 

Обновление:
  • Замена на image+.cue.
info [Профиль]  [ЛС] 

post 22-Фев-2018 00:02 (спустя 13 дней) [-]0[+]

Топик был перенесен из форума Саундтреки к фильмам и мультфильмам (lossless) в форум Архив (Саундтреки)

The Buzzhorn
 
Показать сообщения:    
Ответить на тему

Текущее время: 16-Июл 02:41

Часовой пояс: GMT + 4



Вы не можете начинать темы
Вы не можете отвечать на сообщения
Вы не можете редактировать свои сообщения
Вы не можете удалять свои сообщения
Вы не можете голосовать в опросах
Вы не можете прикреплять файлы к сообщениям
Вы не можете скачивать файлы