Ошибка
Загрузка...

(Score) Diablo Soundtrack Collection (by Matt Uelmen, Russell Brower, Derek Duke, Glenn Stafford & Others) - 2000-2014 г., FLAC (tracks), lossless

Ответить на тему
 
Автор Сообщение

Hobbit38

Пол: Пол:Муж

Стаж: 3 года 5 месяцев

Сообщений: 165

Россия
Рейтинг

post 25-Май-2017 13:22 1[+]

[Цитировать] 


Diablo Soundtrack Collection
Жанр: Score | Страна: USA | Год выпуска: 2000-2014

Издатель (лейбл): Azeroth Music | Композиторы: Various Artists (см. спойлеры)

Аудиокодек: FLAC (.flac) | Тип рипа: tracks | Битрейт аудио: lossless

Продолжительность: 06:22:48

Композитор: Matt Uelmen
Год выпуска: Jun 30, 2000
Страна-производитель диска: USA
Издатель (лейбл): Azeroth Music
Продолжительность: 01:01:13

01. Wilderness
02. Rogue
03. Sisters
04. Spider
05. Jungle
06. Zakarum
07. Desert
08. Toru
09. Sanctuary
10. Crypt
11. Tombs
12. Monastery
13. Cave
14. Mesa
15. Leoric
16. Coda
17. Roger and Me
Exact Audio Copy V0.99 prebeta 5 from 4. May 2009
Отчёт EAC об извлечении, выполненном 20. сентября 2012, 17:16
Matt Uelmen / Diablo II
Дисковод: ASUS DRW-24B3ST Adapter: 1 ID: 0
Режим чтения : Достоверность
Использование точного потока : Да
Отключение кэша аудио : Да
Использование указателей C2 : Нет
Коррекция смещения при чтении : 6
Способность читать области Lead-in и Lead-out : Нет
Заполнение пропущенных сэмплов тишиной : Да
Удаление блоков с тишиной в начале и конце : Нет
При вычислениях CRC использовались нулевые сэмплы : Да
Интерфейс : Встроенный Win32-интерфейс для Win NT/2000
Выходной формат : Внутренние WAV-операции
Формат сэмплов : 44.100 Гц; 16 бит; стерео
TOC извлечённого CD
Трек | Старт | Длительность | Начальный сектор | Конечный сектор
---------------------------------------------------------------------
1 | 0:00.00 | 7:58.59 | 0 | 35908
2 | 7:58.59 | 2:58.39 | 35909 | 49297
3 | 10:57.23 | 1:45.32 | 49298 | 57204
4 | 12:42.55 | 5:19.62 | 57205 | 81191
5 | 18:02.42 | 2:24.32 | 81192 | 92023
6 | 20:26.74 | 2:56.51 | 92024 | 105274
7 | 23:23.50 | 3:38.20 | 105275 | 121644
8 | 27:01.70 | 2:57.33 | 121645 | 134952
9 | 29:59.28 | 4:08.31 | 134953 | 153583
10 | 34:07.59 | 3:31.32 | 153584 | 169440
11 | 37:39.16 | 5:17.00 | 169441 | 193215
12 | 42:56.16 | 5:56.11 | 193216 | 219926
13 | 48:52.27 | 3:50.60 | 219927 | 237236
14 | 52:43.12 | 3:26.12 | 237237 | 252698
15 | 56:09.24 | 3:06.36 | 252699 | 266684
16 | 59:15.60 | 0:56.45 | 266685 | 270929
17 | 60:12.30 | 1:03.11 | 270930 | 275665
Характеристики диапазона извлечения и сообщения об ошибках
Выбранный диапазон
Имя файла E:\Matt Uelmen - Diablo II.wav
Пиковый уровень 99.4 %
Качество диапазона 100.0 %
CRC теста C2000D2D
CRC копии C2000D2D
Копирование... OK
Ошибок не произошло
AccurateRip: сводка
Трек 1 точное извлечение (доверие 21) [785426D0]
Трек 2 точное извлечение (доверие 21) [9FFA284B]
Трек 3 точное извлечение (доверие 21) [86D26A81]
Трек 4 точное извлечение (доверие 21) [A3E282CB]
Трек 5 точное извлечение (доверие 21) [6B53404A]
Трек 6 точное извлечение (доверие 21) [43FAF880]
Трек 7 точное извлечение (доверие 21) [8F7D547B]
Трек 8 точное извлечение (доверие 21) [345F9734]
Трек 9 точное извлечение (доверие 21) [FDD9CCA1]
Трек 10 точное извлечение (доверие 21) [776D569E]
Трек 11 точное извлечение (доверие 21) [E57F0F38]
Трек 12 точное извлечение (доверие 21) [518A023F]
Трек 13 точное извлечение (доверие 21) [4429B3EC]
Трек 14 точное извлечение (доверие 21) [32AFC7D4]
Трек 15 точное извлечение (доверие 21) [94199B14]
Трек 16 точное извлечение (доверие 21) [37141A08]
Трек 17 точное извлечение (доверие 21) [B3D44A9C]
Все треки извлечены точно
Конец отчёта
Композитор: Matt Uelmen
Год выпуска: Jun 29, 2001
Страна-производитель диска: USA
Издатель (лейбл): Blizzard Entertainment
Продолжительность: 00:22:48

01. Fortress 4:46
02. Halls 3:32
03. The Ancients 4:06
04. Siege 5:42
05. Ice 4:40
Exact Audio Copy V0.99 prebeta 4 from 23. January 2008
EAC extraction logfile from 4. February 2009, 19:02
Matt Uelmen / Diablo II Expansion Set Soundtrack
Used drive : PIONEER DVD-RW DVR-212 Adapter: 1 ID: 0
Read mode : Secure
Utilize accurate stream : Yes
Defeat audio cache : Yes
Make use of C2 pointers : No
Read offset correction : 48
Overread into Lead-In and Lead-Out : No
Fill up missing offset samples with silence : Yes
Delete leading and trailing silent blocks : No
Null samples used in CRC calculations : Yes
Used interface : Native Win32 interface for Win NT & 2000
Used output format : User Defined Encoder
Selected bitrate : 128 kBit/s
Quality : High
Add ID3 tag : Yes
Command line compressor : C:\Archivos de programa\FLAC\flac.exe
Additional command line options : --best -V -T "date=%y" -T "genre=%m" %s
TOC of the extracted CD
Track | Start | Length | Start sector | End sector
---------------------------------------------------------
1 | 0:00.00 | 4:46.25 | 0 | 21474
2 | 4:46.25 | 3:32.32 | 21475 | 37406
3 | 8:18.57 | 4:06.27 | 37407 | 55883
4 | 12:25.09 | 5:42.46 | 55884 | 81579
5 | 18:07.55 | 4:40.66 | 81580 | 102645
Range status and errors
Selected range
Filename C:\Lossless\Matt Uelmen - Diablo II Expansion Set Soundtrack.wav
Peak level 100.0 %
Range quality 100.0 %
Test CRC 1C7937E8
Copy CRC 1C7937E8
Copy OK
No errors occurred
AccurateRip summary
Track 1 not present in database
Track 2 not present in database
Track 3 not present in database
Track 4 not present in database
Track 5 not present in database
None of the tracks are present in the AccurateRip database
End of status report
Композитор: Matt Uelmen
Год выпуска: Oct 21, 2011
Страна-производитель диска: USA
Издатель (лейбл): Azeroth Music
Продолжительность: 01:17:23

01. Diablo Intro 01:43
02. Tristram 07:41
03. Dungeon 04:23
04. Catacombs 05:59
05. Caves 04:56
06. Hell 04:08
07. Ancients 01:47
08. Fortress 04:49
09. Ice Caves 04:39
10. Siege 06:47
11. Maggot 02:22
12. Harem 03:45
13. Temple 04:33
14. Sewer 03:57
15. Docks 02:07
16. Halls 03:30
17. Kurast 05:12
18. Lord (Diablo III Concept Music) 03:32
19. Hydra (Diablo III Concept Music) 01:34
Exact Audio Copy V1.0 beta 3 from 29. August 2011
EAC extraction logfile from 6. December 2011, 11:55
Matt Uelmen / The Music of Diablo 1996-2011 - Diablo 15 Year Anniversary
Used drive : Optiarc DVD-ROM DDU1675S Adapter: 3 ID: 0
Read mode : Secure
Utilize accurate stream : Yes
Defeat audio cache : Yes
Make use of C2 pointers : No
Read offset correction : 6
Overread into Lead-In and Lead-Out : No
Fill up missing offset samples with silence : Yes
Delete leading and trailing silent blocks : No
Null samples used in CRC calculations : Yes
Used interface : Native Win32 interface for Win NT & 2000
Gap handling : Appended to previous track
Used output format : User Defined Encoder
Selected bitrate : 896 kBit/s
Quality : High
Add ID3 tag : No
Command line compressor : C:\Programme\Exact Audio Copy\FLAC\FLAC.EXE
Additional command line options : -6 -V -T "ARTIST=%artist%" -T "TITLE=%title%" -T "ALBUM=%albumtitle%" -T "DATE=%year%" -T "TRACKNUMBER=%tracknr%" -T "GENRE=%genre%" -T "COMMENT=%comment%" %hascover%--picture="%coverfile%"%hascover% %source% -o %dest%
TOC of the extracted CD
Track | Start | Length | Start sector | End sector
---------------------------------------------------------
1 | 0:00.00 | 1:43.73 | 0 | 7797
2 | 1:43.73 | 7:41.30 | 7798 | 42402
3 | 9:25.28 | 4:23.07 | 42403 | 62134
4 | 13:48.35 | 5:49.46 | 62135 | 88355
5 | 19:38.06 | 4:56.49 | 88356 | 110604
6 | 24:34.55 | 4:08.00 | 110605 | 129204
7 | 28:42.55 | 1:47.23 | 129205 | 137252
8 | 30:30.03 | 4:49.66 | 137253 | 158993
9 | 35:19.69 | 4:39.03 | 158994 | 179921
10 | 39:58.72 | 6:47.43 | 179922 | 210489
11 | 46:46.40 | 2:22.57 | 210490 | 221196
12 | 49:09.22 | 3:45.08 | 221197 | 238079
13 | 52:54.30 | 4:33.06 | 238080 | 258560
14 | 57:27.36 | 3:57.42 | 258561 | 276377
15 | 61:25.03 | 2:07.68 | 276378 | 285970
16 | 63:32.71 | 3:30.60 | 285971 | 301780
17 | 67:03.56 | 5:12.23 | 301781 | 325203
18 | 72:16.04 | 3:32.36 | 325204 | 341139
19 | 75:48.40 | 1:34.52 | 341140 | 348241
Track 1
Filename J:\Ongaku\Video Game\Blizzard\Diablo\[FLAC] [2001.10.21] The Music of Diablo 1996-2011 - Diablo 15 Year Anniversary\01 - Diablo Intro.wav
Pre-gap length 0:00:02.00
Peak level 98.8 %
Extraction speed 3.2 X
Track quality 100.0 %
Test CRC FEF08276
Copy CRC FEF08276
Track not present in AccurateRip database
Copy OK
Track 2
Filename J:\Ongaku\Video Game\Blizzard\Diablo\[FLAC] [2001.10.21] The Music of Diablo 1996-2011 - Diablo 15 Year Anniversary\02 - Tristram.wav
Peak level 78.8 %
Extraction speed 4.4 X
Track quality 100.0 %
Test CRC 5DCA6716
Copy CRC 5DCA6716
Track not present in AccurateRip database
Copy OK
Track 3
Filename J:\Ongaku\Video Game\Blizzard\Diablo\[FLAC] [2001.10.21] The Music of Diablo 1996-2011 - Diablo 15 Year Anniversary\03 - Dungeon.wav
Peak level 98.8 %
Extraction speed 4.7 X
Track quality 100.0 %
Test CRC 308C1DEE
Copy CRC 308C1DEE
Track not present in AccurateRip database
Copy OK
Track 4
Filename J:\Ongaku\Video Game\Blizzard\Diablo\[FLAC] [2001.10.21] The Music of Diablo 1996-2011 - Diablo 15 Year Anniversary\04 - Catacombs.wav
Peak level 83.2 %
Extraction speed 4.4 X
Track quality 99.9 %
Test CRC 46591A22
Copy CRC 46591A22
Track not present in AccurateRip database
Copy OK
Track 5
Filename J:\Ongaku\Video Game\Blizzard\Diablo\[FLAC] [2001.10.21] The Music of Diablo 1996-2011 - Diablo 15 Year Anniversary\05 - Caves.wav
Peak level 98.8 %
Extraction speed 4.6 X
Track quality 100.0 %
Test CRC EB56000C
Copy CRC EB56000C
Track not present in AccurateRip database
Copy OK
Track 6
Filename J:\Ongaku\Video Game\Blizzard\Diablo\[FLAC] [2001.10.21] The Music of Diablo 1996-2011 - Diablo 15 Year Anniversary\06 - Hell.wav
Peak level 83.6 %
Extraction speed 3.3 X
Track quality 99.9 %
Test CRC A8F5603B
Copy CRC A8F5603B
Track not present in AccurateRip database
Copy OK
Track 7
Filename J:\Ongaku\Video Game\Blizzard\Diablo\[FLAC] [2001.10.21] The Music of Diablo 1996-2011 - Diablo 15 Year Anniversary\07 - Ancients (Lord of Destruction Intro).wav
Peak level 96.8 %
Extraction speed 3.0 X
Track quality 100.0 %
Test CRC 318B0442
Copy CRC 318B0442
Track not present in AccurateRip database
Copy OK
Track 8
Filename J:\Ongaku\Video Game\Blizzard\Diablo\[FLAC] [2001.10.21] The Music of Diablo 1996-2011 - Diablo 15 Year Anniversary\08 - Fortress.wav
Peak level 98.8 %
Extraction speed 3.9 X
Track quality 100.0 %
Test CRC EC20839E
Copy CRC EC20839E
Track not present in AccurateRip database
Copy OK
Track 9
Filename J:\Ongaku\Video Game\Blizzard\Diablo\[FLAC] [2001.10.21] The Music of Diablo 1996-2011 - Diablo 15 Year Anniversary\09 - Ice Caves.wav
Peak level 98.8 %
Extraction speed 4.1 X
Track quality 100.0 %
Test CRC 6DC76C02
Copy CRC 6DC76C02
Track not present in AccurateRip database
Copy OK
Track 10
Filename J:\Ongaku\Video Game\Blizzard\Diablo\[FLAC] [2001.10.21] The Music of Diablo 1996-2011 - Diablo 15 Year Anniversary\10 - Siege.wav
Peak level 98.8 %
Extraction speed 4.3 X
Track quality 100.0 %
Test CRC 148FAABD
Copy CRC 148FAABD
Track not present in AccurateRip database
Copy OK
Track 11
Filename J:\Ongaku\Video Game\Blizzard\Diablo\[FLAC] [2001.10.21] The Music of Diablo 1996-2011 - Diablo 15 Year Anniversary\11 - Maggot.wav
Peak level 71.1 %
Extraction speed 3.4 X
Track quality 99.9 %
Test CRC E8B9CC33
Copy CRC E8B9CC33
Track not present in AccurateRip database
Copy OK
Track 12
Filename J:\Ongaku\Video Game\Blizzard\Diablo\[FLAC] [2001.10.21] The Music of Diablo 1996-2011 - Diablo 15 Year Anniversary\12 - Harem.wav
Peak level 76.7 %
Extraction speed 3.7 X
Track quality 99.9 %
Test CRC 41DA8786
Copy CRC 41DA8786
Track not present in AccurateRip database
Copy OK
Track 13
Filename J:\Ongaku\Video Game\Blizzard\Diablo\[FLAC] [2001.10.21] The Music of Diablo 1996-2011 - Diablo 15 Year Anniversary\13 - Temple.wav
Peak level 84.7 %
Extraction speed 3.7 X
Track quality 100.0 %
Test CRC A465B700
Copy CRC A465B700
Track not present in AccurateRip database
Copy OK
Track 14
Filename J:\Ongaku\Video Game\Blizzard\Diablo\[FLAC] [2001.10.21] The Music of Diablo 1996-2011 - Diablo 15 Year Anniversary\14 - Sewer.wav
Peak level 92.2 %
Extraction speed 4.7 X
Track quality 100.0 %
Test CRC AA96C6B1
Copy CRC AA96C6B1
Track not present in AccurateRip database
Copy OK
Track 15
Filename J:\Ongaku\Video Game\Blizzard\Diablo\[FLAC] [2001.10.21] The Music of Diablo 1996-2011 - Diablo 15 Year Anniversary\15 - Docks.wav
Peak level 76.9 %
Extraction speed 4.1 X
Track quality 100.0 %
Test CRC ED0EE911
Copy CRC ED0EE911
Track not present in AccurateRip database
Copy OK
Track 16
Filename J:\Ongaku\Video Game\Blizzard\Diablo\[FLAC] [2001.10.21] The Music of Diablo 1996-2011 - Diablo 15 Year Anniversary\16 - Halls.wav
Peak level 98.8 %
Extraction speed 3.6 X
Track quality 99.9 %
Test CRC 8528DBD7
Copy CRC 8528DBD7
Track not present in AccurateRip database
Copy OK
Track 17
Filename J:\Ongaku\Video Game\Blizzard\Diablo\[FLAC] [2001.10.21] The Music of Diablo 1996-2011 - Diablo 15 Year Anniversary\17 - Kurast.wav
Peak level 84.2 %
Extraction speed 4.6 X
Track quality 100.0 %
Test CRC E4242289
Copy CRC E4242289
Track not present in AccurateRip database
Copy OK
Track 18
Filename J:\Ongaku\Video Game\Blizzard\Diablo\[FLAC] [2001.10.21] The Music of Diablo 1996-2011 - Diablo 15 Year Anniversary\18 - Lord (Diablo III Concept Music).wav
Peak level 98.2 %
Extraction speed 3.8 X
Track quality 99.9 %
Test CRC 9BF24923
Copy CRC 9BF24923
Track not present in AccurateRip database
Copy OK
Track 19
Filename J:\Ongaku\Video Game\Blizzard\Diablo\[FLAC] [2001.10.21] The Music of Diablo 1996-2011 - Diablo 15 Year Anniversary\19 - Hydra (Diablo III Concept Music).wav
Peak level 98.4 %
Extraction speed 3.3 X
Track quality 100.0 %
Test CRC D2956E52
Copy CRC D2956E52
Track not present in AccurateRip database
Copy OK
None of the tracks are present in the AccurateRip database
No errors occurred
End of status report
---- CUETools DB Plugin V2.1.3
[CTDB TOCID: 7JFsgJdGRA5vXnsb66eVvn58q0U-] found, Submit result: 7JFsgJdGRA5vXnsb66eVvn58q0U- has been confirmed
[71512819] (4/4) Accurately ripped
==== Log checksum B1D557AC5DF53BD1E651CD52B93F3CA0D661A4AEEED6BBE235B8577EC25FCE80 ====
Моей первой игрой от Blizzard была первая часть Diablo. Меня с самого начала поразил потрясающий, необычный и крайне эффективный подход Мэтта Ульмена к звуковому сопровождению. Оно являлось неотъемлемой частью атмосферы игры. У меня тогда появилось чувство, что я прикасаюсь к чему-то очень значимому, своего рода вехе в мире развлечений, и что эта игра оставит яркий след в сердцах игроков по всему миру.

В 2008-м году, на конференции Blizzard Worldwide Invitational в Париже, музыка из Diablo в очередной раз утвердилась в роли классики. Blizzard обошлись без вступительных речей, пиротехники и спецэффектов, просто на сцену вышел музыкант с двенадцатиструнной гитарой и в кроваво-красном свете софитов сыграл пару аккордов из темы Тристрама. И все прекрасно поняли, что Зло возвращается.

После анонса игры всем, кто работал над музыкой для Diablo III, было предельно ясно, как высоки ожидания игроков. Да что там, мы и сами ждали от себя чего-то выдающегося! Своим тоном и стилем музыка должна была соответствовать духу предыдущих игр серии, но также необходимо было привнести в нее разнообразие. Мы хотели красочно подчеркнуть повороты сюжета и сделать путешествие игрока по миру Санктуария увлекательным и впечатляющим.

Таким образом, вы начнете игру под знакомые звуки гитары и эклектичных гамм, сдобренных восходящим пентахордом главной музыкальной темы. Но затем музыка в Diablo III принимает все новые оттенки, проводит вас по новым местам, знакомит с новыми персонажами, раскрывает характеры уже знакомых героев. Это лишь часть того, что нам требовалось тщательно продумать, когда мы работали над написанием и записью музыки к третьей части великой игры.

Большинство гитарных партий в «Новом Тристраме» исполнил сам Мэтт Ульмен под аккомпанемент Лоуренса Джубера. Лоуренс ранее был членом группы Пола Маккартни Wings, он долгое время сотрудничал с Blizzard, и именно он был тем самым гитаристом на международной конференции в Париже. При звуках музыки у игроков возникает ощущение, будто они встретили старого приятеля. В красочном панно из гитар, мандолин, цимбал и классических оркестровых инструментов любой ценитель Diablo сможет «найти» знакомые ноты и почувствует себя в своей тарелке.

Blizzard давно научились использовать в своих играх записи живых музыкальных выступлений, таких человечных, таких удивительно живых и органичных. К созданию музыкального сопровождения привлекаются отдельные музыканты, хоровые ансамбли и целые оркестры. Живая музыка украсила атмосферу всех частей серии Diablo, а кульминацией стали по-вагнеровски мощные пассажи Мэтта Ульмена в Diablo II: Lord of Destruction. За последние годы мы придумали и записали множество часов живой музыки для World of Warcraft и StarCraft II: Wings of Liberty.

Чтобы сделать музыку Diablo III поистине уникальной, записи партий Тихоокеанского симфонического оркестра проходили на его «родной площадке», в концертном зале имени Рене и Генри Сегерстромов на юге штата Калифорния. Нам казалось вполне естественным, что музыку, сопровождающую извечный конфликт, нужно записывать в большом зале без использования усилителей, что полностью соответствует требованиям и традициям живых выступлений. Записанная в таких условиях музыка Diablo III резко контрастирует с более современным кинематографичным звуком StarCraft и оттенками дремучей старины в музыкальном сопровождении Warcraft.

Будут ли наш готический эпос сопровождать голоса звонкого хора? Если один хор — хорошо, то два — лучше? На оба этих вопроса мы ответили утвердительно, и потому именно два хора символизируют две основные стороны Великого противостояния. Мы отправились в Европу в надежде, что музыкальные особенности местных исполнителей позволят нам создать нечто доступное, но отличное от приевшегося «голливудского» звучания. Мы также уделили большое внимание подбору типажей. Пугающе прекрасные и соблазнительные голоса ирландского вокального ансамбля ANUNA прекрасно подошли для встреч с Единым Злом в Преисподней. С другой стороны, за музыкальный образ Небес и Ангирского совета отвечает преимущественно мужской хор London Voices. Запись обоих ансамблей проходила в двух студиях с богатейшей историей, ставших для музыкантов «родными»: дублинской Windmill Lane и знаменитой Abbey Road в Лондоне.

Для всех в Blizzard Entertainment, и особенно для нас, скромных художников смычка и микрофона из отдела звукозаписи, создание музыки к этой игре стало большим наслаждением. Мы искренне надеемся, что это изысканное музыкальное приключение доставит вам не меньше удовольствия. Как говаривал Декард Каин: «Постой и послушай...».

Рассел Брауэр
Главный звукорежиссер и композитор
Blizzard Entertainment
Май 2012 г.
Композиторы: Russell Brower, Derek Duke, Glenn Stafford, Joseph Lawrence, Neal Acree, Laurence Juber, Edo Guidotti
Год выпуска: May 15, 2012
Страна-производитель диска: USA
Издатель (лейбл): Blizzard Entertainment
Продолжительность: 01:17:55

01. And The Heavens Shall Tremble
02. The Eternal Conflict
03. New Tristram
04. Demon Hunter
05. Black Soulstone
06. Azmodan
07. Witch Doctor
08. Tamoe Highlands
09. I Am Justice
10. Barbarian
11. Arreat
12. Leoric
13. Monk
14. Incantation
15. Bastion's Keep
16. Wizard
17. Caldeum
18. Evil Reawakened
19. Garden of Hope
20. Heaven's Gate
21. A Tenuous Hope
22. A New Dawn
23. Leah
Exact Audio Copy V1.0 beta 3 from 29. August 2011
EAC extraction logfile from 11. May 2012, 17:29
Russell Brower / Diablo III Soundtrack
Used drive : PIONEER DVD-RW DVR-217 Adapter: 0 ID: 1
Read mode : Secure
Utilize accurate stream : Yes
Defeat audio cache : Yes
Make use of C2 pointers : No
Read offset correction : 96
Overread into Lead-In and Lead-Out : No
Fill up missing offset samples with silence : Yes
Delete leading and trailing silent blocks : No
Null samples used in CRC calculations : Yes
Used interface : Native Win32 interface for Win NT & 2000
Gap handling : Appended to previous track
Used output format : User Defined Encoder
Selected bitrate : 1024 kBit/s
Quality : High
Add ID3 tag : No
Command line compressor : C:\Program Files (x86)\Exact Audio Copy\Flac\flac.exe
Additional command line options : -8 -V -T "ARTIST=%artist%" -T "TITLE=%title%" -T "ALBUM=%albumtitle%" -T "DATE=%year%" -T "TRACKNUMBER=%tracknr%" -T "GENRE=%genre%" -T "PERFORMER=%albuminterpret%" -T "COMPOSER=%composer%" %haslyrics%--tag-from-file=LYRICS="%lyricsfile%"%haslyrics% -T "ALBUMARTIST=%albumartist%" -T "DISCNUMBER=%cdnumber%" -T "TOTALDISCS=%totalcds%" -T "TOTALTRACKS=%numtracks%" -T "COMMENT=%comment%" %source% -o %dest%
TOC of the extracted CD
Track | Start | Length | Start sector | End sector
---------------------------------------------------------
1 | 0:00.00 | 2:23.44 | 0 | 10768
2 | 2:23.44 | 2:37.11 | 10769 | 22554
3 | 5:00.55 | 5:15.59 | 22555 | 46238
4 | 10:16.39 | 2:58.44 | 46239 | 59632
5 | 13:15.08 | 2:47.38 | 59633 | 72195
6 | 16:02.46 | 1:58.46 | 72196 | 81091
7 | 18:01.17 | 1:17.73 | 81092 | 86939
8 | 19:19.15 | 4:18.28 | 86940 | 106317
9 | 23:37.43 | 1:57.11 | 106318 | 115103
10 | 25:34.54 | 0:57.68 | 115104 | 119446
11 | 26:32.47 | 3:56.31 | 119447 | 137177
12 | 30:29.03 | 8:10.37 | 137178 | 173964
13 | 38:39.40 | 1:27.39 | 173965 | 180528
14 | 40:07.04 | 2:17.58 | 180529 | 190861
15 | 42:24.62 | 7:31.22 | 190862 | 224708
16 | 49:56.09 | 1:17.07 | 224709 | 230490
17 | 51:13.16 | 7:11.15 | 230491 | 262830
18 | 58:24.31 | 3:29.71 | 262831 | 278576
19 | 61:54.27 | 3:25.21 | 278577 | 293972
20 | 65:19.48 | 2:42.41 | 293973 | 306163
21 | 68:02.14 | 4:50.25 | 306164 | 327938
22 | 72:52.39 | 2:26.43 | 327939 | 338931
23 | 75:19.07 | 2:36.15 | 338932 | 350646
Track 1
Filename I:\FLAC\Russell Brower - 2012 - Diablo III Soundtrack\01 - And The Heavens Shall Tremble.wav
Pre-gap length 0:00:02.00
Peak level 97.7 %
Extraction speed 4.3 X
Track quality 100.0 %
Test CRC FBDE4E04
Copy CRC FBDE4E04
Track not present in AccurateRip database
Copy OK
Track 2
Filename I:\FLAC\Russell Brower - 2012 - Diablo III Soundtrack\02 - The Eternal Conflict.wav
Peak level 97.7 %
Extraction speed 4.6 X
Track quality 100.0 %
Test CRC CE620A7B
Copy CRC CE620A7B
Track not present in AccurateRip database
Copy OK
Track 3
Filename I:\FLAC\Russell Brower - 2012 - Diablo III Soundtrack\03 - New Tristram.wav
Peak level 84.3 %
Extraction speed 5.5 X
Track quality 100.0 %
Test CRC 907AFCE4
Copy CRC 907AFCE4
Track not present in AccurateRip database
Copy OK
Track 4
Filename I:\FLAC\Russell Brower - 2012 - Diablo III Soundtrack\04 - Demon Hunter.wav
Peak level 97.6 %
Extraction speed 4.7 X
Track quality 99.9 %
Test CRC 6A0EC15A
Copy CRC 6A0EC15A
Track not present in AccurateRip database
Copy OK
Track 5
Filename I:\FLAC\Russell Brower - 2012 - Diablo III Soundtrack\05 - Black Soulstone.wav
Peak level 97.6 %
Extraction speed 5.6 X
Track quality 100.0 %
Test CRC 84E8C22E
Copy CRC 84E8C22E
Track not present in AccurateRip database
Copy OK
Track 6
Filename I:\FLAC\Russell Brower - 2012 - Diablo III Soundtrack\06 - Azmodan.wav
Peak level 97.7 %
Extraction speed 5.5 X
Track quality 100.0 %
Test CRC 6CE5BC04
Copy CRC 6CE5BC04
Track not present in AccurateRip database
Copy OK
Track 7
Filename I:\FLAC\Russell Brower - 2012 - Diablo III Soundtrack\07 - Witch Doctor.wav
Peak level 97.7 %
Extraction speed 4.9 X
Track quality 100.0 %
Test CRC 57449BDA
Copy CRC 57449BDA
Track not present in AccurateRip database
Copy OK
Track 8
Filename I:\FLAC\Russell Brower - 2012 - Diablo III Soundtrack\08 - Tamoe Highlands.wav
Peak level 97.7 %
Extraction speed 6.6 X
Track quality 100.0 %
Test CRC 0C4E2600
Copy CRC 0C4E2600
Track not present in AccurateRip database
Copy OK
Track 9
Filename I:\FLAC\Russell Brower - 2012 - Diablo III Soundtrack\09 - I Am Justice.wav
Peak level 97.7 %
Extraction speed 5.9 X
Track quality 100.0 %
Test CRC A2DAE3F9
Copy CRC A2DAE3F9
Track not present in AccurateRip database
Copy OK
Track 10
Filename I:\FLAC\Russell Brower - 2012 - Diablo III Soundtrack\10 - Barbarian.wav
Peak level 97.6 %
Extraction speed 4.8 X
Track quality 100.0 %
Test CRC 52167227
Copy CRC 52167227
Track not present in AccurateRip database
Copy OK
Track 11
Filename I:\FLAC\Russell Brower - 2012 - Diablo III Soundtrack\11 - Arreat.wav
Peak level 92.0 %
Extraction speed 6.9 X
Track quality 100.0 %
Test CRC FFA9A2C8
Copy CRC FFA9A2C8
Track not present in AccurateRip database
Copy OK
Track 12
Filename I:\FLAC\Russell Brower - 2012 - Diablo III Soundtrack\12 - Leoric.wav
Peak level 90.5 %
Extraction speed 8.0 X
Track quality 100.0 %
Test CRC F6AA05E5
Copy CRC F6AA05E5
Track not present in AccurateRip database
Copy OK
Track 13
Filename I:\FLAC\Russell Brower - 2012 - Diablo III Soundtrack\13 - Monk.wav
Peak level 97.7 %
Extraction speed 6.1 X
Track quality 100.0 %
Test CRC 8C9D731E
Copy CRC 8C9D731E
Track not present in AccurateRip database
Copy OK
Track 14
Filename I:\FLAC\Russell Brower - 2012 - Diablo III Soundtrack\14 - Incantation.wav
Peak level 90.6 %
Extraction speed 5.7 X
Track quality 99.9 %
Test CRC BFFDB643
Copy CRC BFFDB643
Track not present in AccurateRip database
Copy OK
Track 15
Filename I:\FLAC\Russell Brower - 2012 - Diablo III Soundtrack\15 - Bastion's Keep.wav
Peak level 90.7 %
Extraction speed 8.6 X
Track quality 100.0 %
Test CRC 1537CE49
Copy CRC 1537CE49
Track not present in AccurateRip database
Copy OK
Track 16
Filename I:\FLAC\Russell Brower - 2012 - Diablo III Soundtrack\16 - Wizard.wav
Peak level 97.7 %
Extraction speed 6.4 X
Track quality 100.0 %
Test CRC C30942DC
Copy CRC C30942DC
Track not present in AccurateRip database
Copy OK
Track 17
Filename I:\FLAC\Russell Brower - 2012 - Diablo III Soundtrack\17 - Caldeum.wav
Peak level 97.7 %
Extraction speed 9.1 X
Track quality 100.0 %
Test CRC E433CD9B
Copy CRC E433CD9B
Track not present in AccurateRip database
Copy OK
Track 18
Filename I:\FLAC\Russell Brower - 2012 - Diablo III Soundtrack\18 - Evil Reawakened.wav
Peak level 97.7 %
Extraction speed 8.6 X
Track quality 100.0 %
Test CRC B71F7174
Copy CRC B71F7174
Track not present in AccurateRip database
Copy OK
Track 19
Filename I:\FLAC\Russell Brower - 2012 - Diablo III Soundtrack\19 - Garden Of Hope.wav
Peak level 97.7 %
Extraction speed 8.8 X
Track quality 100.0 %
Test CRC 119C8A74
Copy CRC 119C8A74
Track not present in AccurateRip database
Copy OK
Track 20
Filename I:\FLAC\Russell Brower - 2012 - Diablo III Soundtrack\20 - Heaven's Gate.wav
Peak level 97.7 %
Extraction speed 8.5 X
Track quality 100.0 %
Test CRC 508ADBF3
Copy CRC 508ADBF3
Track not present in AccurateRip database
Copy OK
Track 21
Filename I:\FLAC\Russell Brower - 2012 - Diablo III Soundtrack\21 - A Tenuous Bond.wav
Peak level 89.4 %
Extraction speed 9.5 X
Track quality 100.0 %
Test CRC 324BD179
Copy CRC 324BD179
Track not present in AccurateRip database
Copy OK
Track 22
Filename I:\FLAC\Russell Brower - 2012 - Diablo III Soundtrack\22 - A New Dawn.wav
Peak level 97.7 %
Extraction speed 8.6 X
Track quality 100.0 %
Test CRC 1467BF85
Copy CRC 1467BF85
Track not present in AccurateRip database
Copy OK
Track 23
Filename I:\FLAC\Russell Brower - 2012 - Diablo III Soundtrack\23 - Leah.wav
Peak level 97.7 %
Extraction speed 8.8 X
Track quality 100.0 %
Test CRC 97C28A72
Copy CRC 97C28A72
Track not present in AccurateRip database
Copy OK
None of the tracks are present in the AccurateRip database
No errors occurred
End of status report
---- CUETools DB Plugin V2.1.3
[CTDB TOCID: A6AEZVOmXIG0WLrV2tZCMobffk8-] disk not present in database, Submit result: A6AEZVOmXIG0WLrV2tZCMobffk8- has been uploaded
==== Log checksum D56A63F823871F9083DD3A695F99D5CD1FF115F6F334A059A5396905DC9FBBBC ====
Двадцать лет назад, когда смертные герои одержали верх над Владыкой Разрушения, архангел Тираэль пожертвовал собой, чтобы уничтожить поврежденный камень мироздания. Совсем недавно таинственная комета упала на Новый Тристрам. Мертвые начали подниматься из могил, а мрачные пророчества предрекают скорый конец всего сущего. Но огонек надежды еще не угас, и новые герои готовятся сразиться с безжалостной судьбой. В древних легендах о вечном противостоянии говорится о манящей порче демонов, неумолимом гневе ангелов и храбрости человечества, что становилась все сильнее. Зло возвратилось в мир Санктуария, но даже перед лицом Владыки Ужаса доблестные герои не прекратят борьбу.

Запись

Запоминающаяся знаменитая музыка серии игр Diablo занимает особое место в сердцах всех сотрудников Blizzard Entertainment и многих игроков. Тембр музыки и мелодия в Diablo III изменяются по мере того, как вы странствуете по Санктуарию, спускаетесь в кипящее горнило Преисподней и поднимаетесь к вратам Небес. Мы хотели добиться звучания, неподвластного времени, которое бы воплощало идею вечного противостояния и при этом отличалось бы от музыки других игр компании Blizzard. По этой причине мы решили объединить эклектику гитар и флейт, а еще вплести в канву музыки звучание небольших ансамблей, которые пятнадцать лет назад игроки впервые услышали в окрестностях Тристрама. По мере развития сюжета Diablo III нас ждут мощные оркестровые аранжировки, записанные не в студии, а в настоящем концертном зале. Для записи вокальных партий мы специально привлекли два европейских хора. Их уникальные вокальные данные и богатая тональность позволили музыке игры обрести новое измерение. Мужские голоса британского хора символизировали неумолимую мощь Небес, в то время как утонченная красота ирландского хора придает музыке Преисподней черты песни соблазнительной сирены. В отличие от предыдущих проектов, на этот раз мы записывали вокальные партии небольшими группами исполнителей, чтобы можно было различить отдельные голоса, каждый из которых передает определенный оттенок эмоций. Мы надеемся, что ваше путешествие по миру Diablo III станет в равной степени эпическим и опасным.
Композиторы: Derek Duke, Neal Acree, Joseph Lawrence, Russell Brower, Glenn Stafford, Jason Hayes
Год выпуска: Mar 25, 2014
Страна-производитель диска: USA
Издатель (лейбл): Blizzard Entertainment
Продолжительность: 01:09:55

01. Reaper of Souls [04:11]
02. Crusader [02:15]
03. The Guise of Man [06:15]
04. Westmarch [05:09]
05. Sartor, Grodoloth, Kordoroth... [02:31]
06. Gideon's Row [02:45]
07. In Arius [01:59]
08. Chains of Fate [04:53]
09. Blood for Blood [05:16]
10. Battle Grounds of Eternity [05:57]
11. Abattoir [03:03]
12. Paths of the Drowned [03:27]
13. Sehyen Ehvis [01:52]
14. Urzael [02:04]
15. Ancient Ruins of Dholmour [01:40]
16. Full Circle [01:25]
17. The Wrath of Angels [01:19]
18. Runes [03:48]
19. Skatsimi [03:24]
20. Y'anu Gujava [01:24]
21. Twisted Labyrinth [02:34]
22. A Mortal Heart [02:34]
Exact Audio Copy V1.0 beta 3 from 29. August 2011
EAC extraction logfile from 23. March 2014, 2:26
Blizzard Team / Diablo III : Reaper Of Souls (Original Soundtrack)
Used drive : HL-DT-STBDDVDRW CH10LS28 Adapter: 0 ID: 0
Read mode : Secure
Utilize accurate stream : Yes
Defeat audio cache : Yes
Make use of C2 pointers : No
Read offset correction : 667
Overread into Lead-In and Lead-Out : No
Fill up missing offset samples with silence : Yes
Delete leading and trailing silent blocks : No
Null samples used in CRC calculations : Yes
Used interface : Native Win32 interface for Win NT & 2000
Gap handling : Appended to previous track
Used output format : User Defined Encoder
Selected bitrate : 768 kBit/s
Quality : High
Add ID3 tag : No
Command line compressor : C:\Program Files (x86)\Exact Audio Copy\FLAC\FLAC.EXE
Additional command line options : -6 -V -T "ARTIST=%artist%" -T "TITLE=%title%" -T "ALBUM=%albumtitle%" -T "DATE=%year%"
-T "TRACKNUMBER=%tracknr%" -T "GENRE=%genre%" -T "COMMENT=%comment%" -T "BAND=%albuminterpret%" -T
"ALBUMARTIST=%albuminterpret%" -T "COMPOSER=%composer%" %haslyrics%--tag-from-file=LYRICS="%lyricsfile%"%haslyrics%
-T "DISCNUMBER=%cdnumber%" -T "TOTALDISCS=%totalcds%" -T "TOTALTRACKS=%numtracks%"
%hascover%--picture="%coverfile%"%hascover% %source% -o %dest%
TOC of the extracted CD
Track | Start | Length | Start sector | End sector
---------------------------------------------------------
1 | 0:00.00 | 4:11.50 | 0 | 18874
2 | 4:11.50 | 2:15.09 | 18875 | 29008
3 | 6:26.59 | 6:15.61 | 29009 | 57194
4 | 12:42.45 | 5:09.61 | 57195 | 80430
5 | 17:52.31 | 2:31.19 | 80431 | 91774
6 | 20:23.50 | 2:45.65 | 91775 | 104214
7 | 23:09.40 | 1:59.69 | 104215 | 113208
8 | 25:09.34 | 4:53.34 | 113209 | 135217
9 | 30:02.68 | 5:16.27 | 135218 | 158944
10 | 35:19.20 | 5:57.48 | 158945 | 185767
11 | 41:16.68 | 3:03.00 | 185768 | 199492
12 | 44:19.68 | 3:27.08 | 199493 | 215025
13 | 47:47.01 | 1:52.57 | 215026 | 223482
14 | 49:39.58 | 2:04.09 | 223483 | 232791
15 | 51:43.67 | 1:40.32 | 232792 | 240323
16 | 53:24.24 | 1:25.32 | 240324 | 246730
17 | 54:49.56 | 1:19.10 | 246731 | 252665
18 | 56:08.66 | 3:48.30 | 252666 | 269795
19 | 59:57.21 | 3:24.71 | 269796 | 285166
20 | 63:22.17 | 1:24.44 | 285167 | 291510
21 | 64:46.61 | 2:34.20 | 291511 | 303080
22 | 67:21.06 | 2:34.37 | 303081 | 314667
Track 1
Filename E:\EAC\2014. Diablo III - Reaper Of Souls (Original Soundtrack)\01. Reaper Of Souls.wav
Pre-gap length 0:00:02.00
Peak level 98.5 %
Extraction speed 1.1 X
Track quality 99.9 %
Test CRC 29567AEF
Copy CRC 29567AEF
Track not present in AccurateRip database
Copy OK
Track 2
Filename E:\EAC\2014. Diablo III - Reaper Of Souls (Original Soundtrack)\02. Crusader.wav
Peak level 94.3 %
Extraction speed 1.0 X
Track quality 99.9 %
Test CRC B6B53B53
Copy CRC B6B53B53
Track not present in AccurateRip database
Copy OK
Track 3
Filename E:\EAC\2014. Diablo III - Reaper Of Souls (Original Soundtrack)\03. The Guise Of Man.wav
Peak level 94.4 %
Extraction speed 1.4 X
Track quality 99.9 %
Test CRC 35324647
Copy CRC 35324647
Track not present in AccurateRip database
Copy OK
Track 4
Filename E:\EAC\2014. Diablo III - Reaper Of Souls (Original Soundtrack)\04. Westmarch.wav
Peak level 94.5 %
Extraction speed 1.6 X
Track quality 100.0 %
Test CRC E9CF5467
Copy CRC E9CF5467
Track not present in AccurateRip database
Copy OK
Track 5
Filename E:\EAC\2014. Diablo III - Reaper Of Souls (Original Soundtrack)\05. Sartor, Grodoloth, Kordoroth....wav
Peak level 94.3 %
Extraction speed 1.5 X
Track quality 100.0 %
Test CRC AA81F622
Copy CRC AA81F622
Track not present in AccurateRip database
Copy OK
Track 6
Filename E:\EAC\2014. Diablo III - Reaper Of Souls (Original Soundtrack)\06. Gideon's Row.wav
Peak level 94.3 %
Extraction speed 1.6 X
Track quality 100.0 %
Test CRC 0DA1D9D1
Copy CRC 0DA1D9D1
Track not present in AccurateRip database
Copy OK
Track 7
Filename E:\EAC\2014. Diablo III - Reaper Of Souls (Original Soundtrack)\07. In Arius.wav
Peak level 94.3 %
Extraction speed 1.5 X
Track quality 100.0 %
Test CRC E0D4A351
Copy CRC E0D4A351
Track not present in AccurateRip database
Copy OK
Track 8
Filename E:\EAC\2014. Diablo III - Reaper Of Souls (Original Soundtrack)\08. Chains Of fate.wav
Peak level 96.1 %
Extraction speed 1.7 X
Track quality 99.9 %
Test CRC E46DF919
Copy CRC E46DF919
Track not present in AccurateRip database
Copy OK
Track 9
Filename E:\EAC\2014. Diablo III - Reaper Of Souls (Original Soundtrack)\09. Blood For Blood.wav
Peak level 97.8 %
Extraction speed 1.8 X
Track quality 99.9 %
Test CRC 8E80811D
Copy CRC 8E80811D
Track not present in AccurateRip database
Copy OK
Track 10
Filename E:\EAC\2014. Diablo III - Reaper Of Souls (Original Soundtrack)\10. Battle Grounds Of Eternity.wav
Peak level 96.1 %
Extraction speed 2.2 X
Track quality 100.0 %
Test CRC 28355E04
Copy CRC 28355E04
Track not present in AccurateRip database
Copy OK
Track 11
Filename E:\EAC\2014. Diablo III - Reaper Of Souls (Original Soundtrack)\11. Abattoir.wav
Peak level 94.3 %
Extraction speed 2.0 X
Track quality 100.0 %
Test CRC A2469085
Copy CRC A2469085
Track not present in AccurateRip database
Copy OK
Track 12
Filename E:\EAC\2014. Diablo III - Reaper Of Souls (Original Soundtrack)\12. Paths Of The Drowned.wav
Peak level 88.5 %
Extraction speed 2.1 X
Track quality 100.0 %
Test CRC A30A8A15
Copy CRC A30A8A15
Track not present in AccurateRip database
Copy OK
Track 13
Filename E:\EAC\2014. Diablo III - Reaper Of Souls (Original Soundtrack)\13. Sehyen Ehvis.wav
Peak level 94.3 %
Extraction speed 1.9 X
Track quality 100.0 %
Test CRC 39E7FA17
Copy CRC 39E7FA17
Track not present in AccurateRip database
Copy OK
Track 14
Filename E:\EAC\2014. Diablo III - Reaper Of Souls (Original Soundtrack)\14. Urzael.wav
Peak level 94.3 %
Extraction speed 2.0 X
Track quality 100.0 %
Test CRC CA944B32
Copy CRC CA944B32
Track not present in AccurateRip database
Copy OK
Track 15
Filename E:\EAC\2014. Diablo III - Reaper Of Souls (Original Soundtrack)\15. Ancient Ruins Of Dholmour.wav
Peak level 94.3 %
Extraction speed 1.9 X
Track quality 100.0 %
Test CRC 6D19D110
Copy CRC 6D19D110
Track not present in AccurateRip database
Copy OK
Track 16
Filename E:\EAC\2014. Diablo III - Reaper Of Souls (Original Soundtrack)\16. Full Circle.wav
Peak level 94.3 %
Extraction speed 1.9 X
Track quality 100.0 %
Test CRC 07A999C7
Copy CRC 07A999C7
Track not present in AccurateRip database
Copy OK
Track 17
Filename E:\EAC\2014. Diablo III - Reaper Of Souls (Original Soundtrack)\17. The Wrath Of Angels.wav
Peak level 99.1 %
Extraction speed 1.8 X
Track quality 100.0 %
Test CRC 5CC826B8
Copy CRC 5CC826B8
Track not present in AccurateRip database
Copy OK
Track 18
Filename E:\EAC\2014. Diablo III - Reaper Of Souls (Original Soundtrack)\18. Runes.wav
Peak level 83.9 %
Extraction speed 2.1 X
Track quality 99.9 %
Test CRC 877ACF56
Copy CRC 877ACF56
Track not present in AccurateRip database
Copy OK
Track 19
Filename E:\EAC\2014. Diablo III - Reaper Of Souls (Original Soundtrack)\19. Skatsimi.wav
Peak level 58.5 %
Extraction speed 2.4 X
Track quality 100.0 %
Test CRC A393B2A3
Copy CRC A393B2A3
Track not present in AccurateRip database
Copy OK
Track 20
Filename E:\EAC\2014. Diablo III - Reaper Of Souls (Original Soundtrack)\20. Y'anu Gujava.wav
Peak level 94.3 %
Extraction speed 2.0 X
Track quality 100.0 %
Test CRC 3A874E65
Copy CRC 3A874E65
Track not present in AccurateRip database
Copy OK
Track 21
Filename E:\EAC\2014. Diablo III - Reaper Of Souls (Original Soundtrack)\21. Twisted Labyrinth.wav
Peak level 85.5 %
Extraction speed 2.3 X
Track quality 100.0 %
Test CRC E4CF5AD2
Copy CRC E4CF5AD2
Track not present in AccurateRip database
Copy OK
Track 22
Filename E:\EAC\2014. Diablo III - Reaper Of Souls (Original Soundtrack)\22. A Mortal Heart.wav
Peak level 94.3 %
Extraction speed 2.3 X
Track quality 100.0 %
Test CRC 50AA3702
Copy CRC 50AA3702
Track not present in AccurateRip database
Copy OK
None of the tracks are present in the AccurateRip database
No errors occurred
End of status report
---- CUETools DB Plugin V2.1.3
[CTDB TOCID: eGdDGlQbskZ3dvt7haoN34m5Br8-] disk not present in database, Submit result: eGdDGlQbskZ3dvt7haoN34m5Br8- has been uploaded
Diablo® III: Reaper of Souls™ открывает новую мрачную главу в истории противостояния, в котором решается судьба мира смертных Санктуария. Игрокам предстоит пройти долгий путь от легендарного города Вестмарша до проклятых залов крепости Пандемоний.

Малтаэль, падший архангел Мудрости, покинул Ангирский Совет двадцать лет назад, когда был уничтожен камень мироздания. В In Reaper of Souls Малтаэль возвращается в обличии ангела Смерти и завладевает черным камнем души, в которм заключена сущность Единого Зла. Падший архангел намерен бросить мир в пучину беспросветного хаоса. Доблестным нефалемам надлежит выследить его и помешать исполнению его коварных замыслов.

Мрачные и мелодичные композиции из игры помогут вам освежить в памяти события великой битвы между добром и злом.

Наше музыкальное путешествие началось с записи партии скрипки соло: мы стремились добиться звучания, которое стало бы символом решимости героя, готового исполнить свой долг в дополнении Reaper of Souls. Тихие, плавные фрагменты сменяются решительными патетическими отрывками, которые, в свою очередь, вновь уступают место более гармоничным мелодиям. Вслед за дополнением, сделали шаг вперед и оркестровые композиции Diablo: теперь они были записаны не в концертном зале, а в бывшей церкви. Секции инструментов были расположены вокруг алтаря так же, как и много веков назад, а хор был разделен на две группы, занявшие места у противоположных стен собора. Именно в этой атмосфере под взмахи дирижерской палочки были записаны леденящие душу крещендо и мелодии для боев, совмещающие гармонию и какофонию.

В том, что касается музыкальной грамоты, мы использовали самый современный подход. Это единственный способ исследовать неизведанные музыкальные течения в наши времена. На страницах партитуры символы лишь отдаленно напоминали ноты и скорее походили на руны хорадримов, однако с их помощью нам удалось привнести желаемый элемент хаоса в игру музыкантов. Это было похоже на управляемую алеаторику, гармоничную атональность. Музыканты оркестра, исполнявшего музыку Diablo, поддались влиянию мрачных ревербераций и изменчивых отражений звука: они создали такую музыку, которая буквально пришла из мира нефалема. Музыкальное сопровождение новой главы о вечном противостоянии пронизано как тихими, плавными фрагментами, так и бравурными, когда одновременно задействовались весь оркестр и хор; эта музыка призвана одновременно воодушевлять и вселять страх, манить и отталкивать слушателя. Новые музыкальные композиции отражают темную и светлую стороны человеческой природы, и поэтому в музыке чувствуются как религиозные, так и варварские, языческие нотки. Это самый настоящий гимн противоречию, музыкальное воплощение парадокса.
Композиторы: Neal Acree, Russell Brower, Derek Duke, Edo Guidotti, Jason Hayes, Joseph Lawrence, Glenn Stafford
Год выпуска: Oct 24, 2014
Страна-производитель диска: USA
Издатель (лейбл): Blizzard Entertainment
Продолжительность: 01:13:30

01. Tristram (05:55)
02. Cathedral (05:56)
03. Festering Woods (05:11)
04. Spider Caves (05:55)
05. Halls of Agony (06:25)
06. Sewers (06:17)
07. Bastions Keep (05:40)
08. Rakkis Crossing (05:58)
09. Arreat Crater (05:37)
10. Silver Spire (05:52)
11. Westmarch (06:01)
12. Pandemonium (05:46)
13. The Labyrinth (02:49)
Exact Audio Copy V1.3 from 2. September 2016
EAC extraction logfile from 26. October 2016, 20:53
Derek Duke, Joseph Lawrence & JP Walton / Diablo III: Haunted Sounds of Sanctuary
Used drive : PIONEER BD-RW BDR-209D Adapter: 1 ID: 0
Read mode : Secure
Utilize accurate stream : Yes
Defeat audio cache : Yes
Make use of C2 pointers : No
Read offset correction : 667
Overread into Lead-In and Lead-Out : No
Fill up missing offset samples with silence : Yes
Delete leading and trailing silent blocks : No
Null samples used in CRC calculations : Yes
Used interface : Native Win32 interface for Win NT & 2000
Gap handling : Appended to previous track
Used output format : User Defined Encoder
Selected bitrate : 1024 kBit/s
Quality : High
Add ID3 tag : No
Command line compressor : C:\Program Files (x86)\Exact Audio Copy\FLAC\FLAC.EXE
Additional command line options : -8 -e -V -T "ARTIST=%artist%" -T "TITLE=%title%" -T "ALBUM=%albumtitle%" -T "DATE=%year%" -T "TRACKNUMBER=%tracknr%" -T "GENRE=%genre%" -T "PERFORMER=%albuminterpret%" -T "COMPOSER=%composer%" %haslyrics%--tag-from-file=LYRICS="%lyricsfile%"%haslyrics% -T "ALBUMARTIST=%albumartist%" -T "DISCNUMBER=%cdnumber%" -T "TOTALDISCS=%totalcds%" -T "TOTALTRACKS=%numtracks%" -T "COMMENT=%comment%" %source% -o %dest%
TOC of the extracted CD
Track | Start | Length | Start sector | End sector
---------------------------------------------------------
1 | 0:00.00 | 5:55.65 | 0 | 26689
2 | 5:55.65 | 5:56.71 | 26690 | 53460
3 | 11:52.61 | 5:12.00 | 53461 | 76860
4 | 17:04.61 | 5:55.60 | 76861 | 103545
5 | 23:00.46 | 6:25.55 | 103546 | 132475
6 | 29:26.26 | 6:17.16 | 132476 | 160766
7 | 35:43.42 | 5:40.17 | 160767 | 186283
8 | 41:23.59 | 5:58.53 | 186284 | 213186
9 | 47:22.37 | 5:37.15 | 213187 | 238476
10 | 52:59.52 | 5:52.61 | 238477 | 264937
11 | 58:52.38 | 6:01.29 | 264938 | 292041
12 | 64:53.67 | 5:46.53 | 292042 | 318044
13 | 70:40.45 | 2:49.47 | 318045 | 330766
Track 1
Filename L:\EAC Rips\Derek Duke, Joseph Lawrence & JP Walton - Diablo III- Haunted Sounds of Sanctuary (2014)\01 - Tristram.wav
Pre-gap length 0:00:02.00
Peak level 94.3 %
Extraction speed 4.8 X
Track quality 99.9 %
Test CRC FD80F720
Copy CRC FD80F720
Accurately ripped (confidence 7) [00F6126A] (AR v2)
Copy OK
Track 2
Filename L:\EAC Rips\Derek Duke, Joseph Lawrence & JP Walton - Diablo III- Haunted Sounds of Sanctuary (2014)\02 - Cathedral.wav
Pre-gap length 0:00:00.32
Peak level 94.3 %
Extraction speed 5.8 X
Track quality 100.0 %
Test CRC CDB8E889
Copy CRC CDB8E889
Accurately ripped (confidence 7) [97BE3C66] (AR v2)
Copy OK
Track 3
Filename L:\EAC Rips\Derek Duke, Joseph Lawrence & JP Walton - Diablo III- Haunted Sounds of Sanctuary (2014)\03 - Festering Woods.wav
Pre-gap length 0:00:00.74
Peak level 94.9 %
Extraction speed 6.3 X
Track quality 100.0 %
Test CRC BAF652B9
Copy CRC BAF652B9
Accurately ripped (confidence 7) [DFBECF3F] (AR v2)
Copy OK
Track 4
Filename L:\EAC Rips\Derek Duke, Joseph Lawrence & JP Walton - Diablo III- Haunted Sounds of Sanctuary (2014)\04 - Spider Caves.wav
Pre-gap length 0:00:01.00
Peak level 100.0 %
Extraction speed 6.9 X
Track quality 100.0 %
Test CRC F7BFF147
Copy CRC F7BFF147
Accurately ripped (confidence 7) [C4A646E2] (AR v2)
Copy OK
Track 5
Filename L:\EAC Rips\Derek Duke, Joseph Lawrence & JP Walton - Diablo III- Haunted Sounds of Sanctuary (2014)\05 - Halls of Agony.wav
Pre-gap length 0:00:01.00
Peak level 98.6 %
Extraction speed 6.8 X
Track quality 99.9 %
Test CRC 34E479B8
Copy CRC 34E479B8
Accurately ripped (confidence 7) [FC691269] (AR v2)
Copy OK
Track 6
Filename L:\EAC Rips\Derek Duke, Joseph Lawrence & JP Walton - Diablo III- Haunted Sounds of Sanctuary (2014)\06 - Sewers.wav
Pre-gap length 0:00:01.00
Peak level 100.0 %
Extraction speed 7.9 X
Track quality 100.0 %
Test CRC 3DE5A284
Copy CRC 3DE5A284
Accurately ripped (confidence 7) [EB8D98C3] (AR v2)
Copy OK
Track 7
Filename L:\EAC Rips\Derek Duke, Joseph Lawrence & JP Walton - Diablo III- Haunted Sounds of Sanctuary (2014)\07 - Bastions Keep.wav
Pre-gap length 0:00:01.00
Peak level 99.5 %
Extraction speed 5.3 X
Track quality 99.9 %
Test CRC BEE9775E
Copy CRC BEE9775E
Accurately ripped (confidence 7) [27F823D4] (AR v2)
Copy OK
Track 8
Filename L:\EAC Rips\Derek Duke, Joseph Lawrence & JP Walton - Diablo III- Haunted Sounds of Sanctuary (2014)\08 - Rakkis Crossing.wav
Pre-gap length 0:00:01.00
Peak level 94.3 %
Extraction speed 5.5 X
Track quality 100.0 %
Test CRC F3064832
Copy CRC F3064832
Accurately ripped (confidence 7) [79047C3E] (AR v2)
Copy OK
Track 9
Filename L:\EAC Rips\Derek Duke, Joseph Lawrence & JP Walton - Diablo III- Haunted Sounds of Sanctuary (2014)\09 - Arreat Crater.wav
Pre-gap length 0:00:01.00
Peak level 98.9 %
Extraction speed 5.7 X
Track quality 100.0 %
Test CRC B94CE136
Copy CRC B94CE136
Accurately ripped (confidence 7) [81D09D2A] (AR v2)
Copy OK
Track 10
Filename L:\EAC Rips\Derek Duke, Joseph Lawrence & JP Walton - Diablo III- Haunted Sounds of Sanctuary (2014)\10 - Silver Spire.wav
Pre-gap length 0:00:01.00
Peak level 100.0 %
Extraction speed 5.9 X
Track quality 100.0 %
Test CRC FAA66D4C
Copy CRC FAA66D4C
Accurately ripped (confidence 7) [F0B82864] (AR v2)
Copy OK
Track 11
Filename L:\EAC Rips\Derek Duke, Joseph Lawrence & JP Walton - Diablo III- Haunted Sounds of Sanctuary (2014)\11 - Westmarch.wav
Pre-gap length 0:00:01.38
Peak level 94.3 %
Extraction speed 6.2 X
Track quality 100.0 %
Test CRC 176B45A2
Copy CRC 176B45A2
Accurately ripped (confidence 7) [C1D768A7] (AR v2)
Copy OK
Track 12
Filename L:\EAC Rips\Derek Duke, Joseph Lawrence & JP Walton - Diablo III- Haunted Sounds of Sanctuary (2014)\12 - Pandemonium.wav
Pre-gap length 0:00:01.00
Peak level 94.3 %
Extraction speed 6.3 X
Track quality 100.0 %
Test CRC 74A556E7
Copy CRC 74A556E7
Accurately ripped (confidence 7) [1C26731E] (AR v2)
Copy OK
Track 13
Filename L:\EAC Rips\Derek Duke, Joseph Lawrence & JP Walton - Diablo III- Haunted Sounds of Sanctuary (2014)\13 - Labyrinth.wav
Pre-gap length 0:00:01.00
Peak level 94.3 %
Extraction speed 5.8 X
Track quality 100.0 %
Test CRC ABA8EAB4
Copy CRC ABA8EAB4
Accurately ripped (confidence 7) [7ABD299D] (AR v2)
Copy OK
All tracks accurately ripped
No errors occurred
End of status report
---- CUETools DB Plugin V2.1.6
[CTDB TOCID: 7EECwqE4IX_v_ggaDcRWsh8bhI0-] found
Submit result: 7EECwqE4IX_v_ggaDcRWsh8bhI0- has been confirmed
Track | CTDB Status
1 | (12/12) Accurately ripped
2 | (12/12) Accurately ripped
3 | (12/12) Accurately ripped
4 | (12/12) Accurately ripped
5 | (12/12) Accurately ripped
6 | (12/12) Accurately ripped
7 | (12/12) Accurately ripped
8 | (12/12) Accurately ripped
9 | (12/12) Accurately ripped
10 | (11/12) Accurately ripped
11 | (11/12) Accurately ripped
12 | (12/12) Accurately ripped
13 | (11/12) Accurately ripped
==== Log checksum 9B45D213510524476649A20C693C96525FF6610D7B704E31D7EB0F135EF8E002 ====

info [Профиль]  [ЛС] 

ofrank0

Пол: Пол:Муж

Стаж: 8 лет 1 месяц

Сообщений: 2606

Французские Юж. и Антарктич. Тер-рии
Рейтинг

post 26-Май-2017 13:23 (спустя 1 день) [-]-7[+]

[Цитировать] 

Если кто сомневается в ценности, качайте смело
21.10.2011 The Music of Diablo 1996 - 2011: Diablo 15 Year Anniversary
Мне кажется, это самая ценная часть раздачи, то, что 100% понравится. Остальное больше на любителя, нафига они композитора к третьей части поменяли - загадка. Близы всё экономят, ленивые жопы.

_________________
info [Профиль]  [ЛС] 

Fiend

Пол: Пол:Муж

Стаж: 8 лет 6 месяцев

Сообщений: 147

Украина
Рейтинг

post 26-Май-2017 13:53 (спустя 30 минут) [-]-1[+]

[Цитировать] 

ofrank0 писал(а):

Если кто сомневается в ценности, качайте смело
21.10.2011 The Music of Diablo 1996 - 2011: Diablo 15 Year Anniversary
Мне кажется, это самая ценная часть раздачи, то, что 100% понравится. Остальное больше на любителя, нафига они композитора к третьей части поменяли - загадка. Близы всё экономят, ленивые жопы.
Нет. В 3-й части отличная музыка тоже. Не такая великолепная как в 1-й и 2-й, но и далеко не плохая!
info [Профиль]  [ЛС] 

ofrank0

Пол: Пол:Муж

Стаж: 8 лет 1 месяц

Сообщений: 2606

Французские Юж. и Антарктич. Тер-рии
Рейтинг

post 27-Май-2017 00:05 (спустя 10 часов) [-]-1[+]

[Цитировать] 

Fiend
Кто говорит плохая? Я написал, что не понимаю, зачем менять композитора, когда он делает всё как надо7

_________________
info [Профиль]  [ЛС] 

Hobbit38

Пол: Пол:Муж

Стаж: 3 года 5 месяцев

Сообщений: 165

Россия
Рейтинг

post 01-Июн-2017 02:54 (спустя 5 дней) [-]0[+]

[Цитировать] 

del
info [Профиль]  [ЛС] 

Hobbit38

Пол: Пол:Муж

Стаж: 3 года 5 месяцев

Сообщений: 165

Россия
Рейтинг

post 27-Сен-2017 15:19 (спустя 3 месяца 26 дней) [-]0[+]

[Цитировать] 

del
info [Профиль]  [ЛС] 

Hobbit38

Пол: Пол:Муж

Стаж: 3 года 5 месяцев

Сообщений: 165

Россия
Рейтинг

post 15-Окт-2017 15:09 (спустя 17 дней) [-]0[+]

[Цитировать] 

Обновление:
  • Замена на tracks.
info [Профиль]  [ЛС] 
Показать сообщения:    
Ответить на тему

Текущее время: 23-Окт 11:55

Часовой пояс: GMT + 4



Вы не можете начинать темы
Вы не можете отвечать на сообщения
Вы не можете редактировать свои сообщения
Вы не можете удалять свои сообщения
Вы не можете голосовать в опросах
Вы не можете прикреплять файлы к сообщениям
Вы не можете скачивать файлы