Ошибка

До окончания фрилича осталось:


Лего Фильм: Бэтмен / The LEGO Batman Movie (Крис МакКей) [2017, мультфильм, фэнтези, боевик, комедия, приключения, семейный, WEB-DL 1080p] [iTunes]

Ответить на тему
 
Автор Сообщение

DENZEL519

Пол: Пол:Муж

Стаж: 6 лет 6 месяцев

Сообщений: 1407

СССР
Рейтинг

post 25-Май-2017 08:16 1[+]

[Цитировать] 

Лего Фильм: Бэтмен / The LEGO Batman Movie

Год выпуска: 2017
Страна: США, Дания
Жанр: мультфильм, фэнтези, боевик, комедия, приключения, семейный
Продолжительность: 01:44:28
Перевод: Дублированный [iTunes]
Субтитры: Английские
Режиссер: Крис МакКей
Сценарий: Сет Грэм-Смит, Крис МакКенна, Эрик Соммерс, Джаред Штерн, Джон Уиттингтон, Боб Кейн, Билл Фингер, Джерри Сигел, Джо Шустер
Продюсер: Уилл Аллегра, Мэттью Эштон, Джон Бертон, Райан Хэлприн, Райан Харрис, Рой Ли, Брэд Льюис, Дэн Лин, Фил Лорд, Бенджамин Мельникер, Джон Пауэрс Миддлтон, Кристофер Миллер
Композитор: Лорн Бэлф
Художник: Грант Фрекелтон
Монтаж: Дэвид Берроуз, Джон Вензон, Мэтт Вилла
В ролях: Уилл Арнетт / Will Arnett (Batman Bruce Wayne, озвучка), Майкл Сера / Michael Cera (Robin Dick Grayson, озвучка), Розарио Доусон / Rosario Dawson (Batgirl Barbara Gordon, озвучка), Рэйф Файнс / Ralph Fiennes (Alfred Pennyworth, озвучка), Сири / Siri ('Puter, озвучка), Зак Галифианакис / Zach Galifianakis (Joker, озвучка), Дженни Слейт / Jenny Slate (Harley Quinn, озвучка), Джейсон Манцукас / Jason Mantzoukas (Scarecrow, озвучка), Конан О’Брайен / Conan O'Brien (The Riddler, озвучка), Даг Бенсон / Doug Benson (Bane, озвучка), Билли Ди Уильямс / Billy Dee Williams (Two-Face, озвучка), Зои Кравиц / Zoe Kravitz (Catwoman, озвучка)



Описание: Готэму вновь грозит опасность. И на его стражу становится единственный герой, которого заслуживает этот город - Бэтмен, альтер-эго миллиардера Брюса Уэйна, живущего в своем огромном родовом поместье вместе с дворецким Альфредом. Но в этот раз супергерой вынужден взять в напарники парня по имени Дик Грейсон, которого он, сам того не помня, усыновил на одном из светских приемов. Новоиспеченный Робин составит Бэтмену компанию в борьбе с его заклятым врагом Джокером, сбежавшим из психиатрической больницы «Аркхем», а также Харли Куинн, готовой на самые сумасшедшие злодеяния, чтобы оставить в дураках всю «Лигу Справедливости», включая Бэтгерл.


Качество: WEB-DL 1080p
Формат: MKV
Видео кодек: AVC
Аудио кодек: AC3
Видео: 1912x792 (2.40:1), 23.976 fps, AVC, 4 376 Kbps
Аудио: Аудио #1: AC3, 384 Kbps, 48.0 KHz, 6 ch [Rus]
Аудио #2: AC3, 384 Kbps, 48.0 KHz, 6 ch [Eng]


Код:

General
Unique ID                                : 211156747252196080336198430663261182601 (0x9EDB4F6C7E8865A498A401F8B57A5A89)
Complete name                            : The.LEGO.Batman.The.Movie.2O17.D.WeB-DL.1O8OP.mkv
Format                                   : Matroska
Format version                           : Version 2
File size                                : 3.83 GiB
Duration                                 : 1h 44mn
Overall bit rate                         : 5 249 Kbps
Movie name                               : The.Lego.Batman.The.Movie.2017.1080p.WEB-DL.DD5.1.H264-FGT
Encoded date                             : UTC 2017-05-24 18:17:36
Writing application                      : mkvmerge v8.3.0 ('Over the Horizon') 64bit
Writing library                          : libebml v1.3.1 + libmatroska v1.4.2
DURATION                                 : 01:44:28.128000000
NUMBER_OF_FRAMES                         : 195879
NUMBER_OF_BYTES                          : 300870144
_STATISTICS_WRITING_APP                  : mkvmerge v8.3.0 ('Over the Horizon') 64bit
_STATISTICS_WRITING_DATE_UTC             : 2017-05-24 18:17:36
_STATISTICS_TAGS                         : BPS DURATION NUMBER_OF_FRAMES NUMBER_OF_BYTES
Attachment                               : Yes / Yes / Yes / Yes

Video
ID                                       : 1
Format                                   : AVC
Format/Info                              : Advanced Video Codec
Format profile                           : High@L4.0
Format settings, CABAC                   : Yes
Format settings, ReFrames                : 5 frames
Codec ID                                 : V_MPEG4/ISO/AVC
Duration                                 : 1h 44mn
Bit rate                                 : 4 376 Kbps
Width                                    : 1 912 pixels
Height                                   : 792 pixels
Display aspect ratio                     : 2.40:1
Frame rate mode                          : Constant
Frame rate                               : 23.976 fps
Color space                              : YUV
Chroma subsampling                       : 4:2:0
Bit depth                                : 8 bits
Scan type                                : Progressive
Bits/(Pixel*Frame)                       : 0.121
Stream size                              : 3.19 GiB (83%)
Title                                    : The.Lego.Batman.The.Movie.2017.1080p.WEB-DL.DD5.1.H264-FGT
Language                                 : English
Default                                  : Yes
Forced                                   : No
Color primaries                          : BT.709
Transfer characteristics                 : BT.709
Matrix coefficients                      : BT.709

Audio #1
ID                                       : 2
Format                                   : AC-3
Format/Info                              : Audio Coding 3
Mode extension                           : CM (complete main)
Format settings, Endianness              : Big
Codec ID                                 : A_AC3
Duration                                 : 1h 44mn
Bit rate mode                            : Constant
Bit rate                                 : 384 Kbps
Channel(s)                               : 6 channels
Channel positions                        : Front: L C R, Side: L R, LFE
Sampling rate                            : 48.0 KHz
Bit depth                                : 16 bits
Compression mode                         : Lossy
Delay relative to video                  : -42ms
Stream size                              : 287 MiB (7%)
Language                                 : Russian
Default                                  : Yes
Forced                                   : No

Audio #2
ID                                       : 3
Format                                   : AC-3
Format/Info                              : Audio Coding 3
Mode extension                           : CM (complete main)
Format settings, Endianness              : Big
Codec ID                                 : A_AC3
Duration                                 : 1h 44mn
Bit rate mode                            : Constant
Bit rate                                 : 384 Kbps
Channel(s)                               : 6 channels
Channel positions                        : Front: L C R, Side: L R, LFE
Sampling rate                            : 48.0 KHz
Bit depth                                : 16 bits
Compression mode                         : Lossy
Delay relative to video                  : -42ms
Stream size                              : 287 MiB (7%)
Language                                 : English
Default                                  : No
Forced                                   : No

Text
ID                                       : 4
Format                                   : UTF-8
Codec ID                                 : S_TEXT/UTF8
Codec ID/Info                            : UTF-8 Plain Text
Language                                 : English
Default                                  : No
Forced                                   : No

Menu
00:00:00.000                             : en:1
00:14:41.000                             : en:2
00:22:57.000                             : en:3
00:37:44.000                             : en:4
00:50:12.000                             : en:5
01:05:02.000                             : en:6
01:19:26.000                             : en:7
01:36:28.000                             : en:8



Время раздачи: 24/7 (до появления первых 3-5 скачавших)
© Оформление by DENZEL519 for http://tapochek.net


info [Профиль]  [ЛС] 

Jesus_OMG

Пол: Пол:Муж

Стаж: 6 лет 1 месяц

Сообщений: 92

Россия
Рейтинг

post 25-Май-2017 10:38 (спустя 2 часа 21 минута) [-]3[+]

[Цитировать] 

шикарный мульт, спасибо

_________________
Ничто не вечно под луной,
И кров, что был дарован вами.
Спасибо, что вы здесь, со мной,
И жаль, что в путь иду не с вами.
info [Профиль]  [ЛС] 

Tohabandit90

Пол: Пол:Муж

Стаж: 5 лет 6 месяцев

Сообщений: 287

Россия
Рейтинг

post 25-Май-2017 10:56 (спустя 17 минут) [-]0[+]

[Цитировать] 

При много благодарен,с нетерпением ждал выхода на dvd

_________________
Не зная ни сна и ни отдыха, при лунном и солнечном свете, мы делаем деньги из воздуха, что б снова пустить их на ветер...
info [Профиль]  [ЛС] 

Casssper

Пол: Пол:Жен

Стаж: 2 года 4 месяца

Сообщений: 15

Россия
Рейтинг

post 25-Май-2017 22:06 (спустя 11 часов) [-]0[+]

[Цитировать] 

Спасибо за мультик! Давно хотели его посмотреть...
info [Профиль]  [ЛС] 

kicapica

Пол: Пол:Муж

Стаж: 5 лет 2 месяца

Сообщений: 21

Сомали
Рейтинг

post 26-Май-2017 07:23 (спустя 9 часов) [-]0[+]

[Цитировать] 

Бомба
info [Профиль]  [ЛС] 
Показать сообщения:    
Ответить на тему

Текущее время: 19-Янв 19:45

Часовой пояс: GMT + 4



Вы не можете начинать темы
Вы не можете отвечать на сообщения
Вы не можете редактировать свои сообщения
Вы не можете удалять свои сообщения
Вы не можете голосовать в опросах
Вы не можете прикреплять файлы к сообщениям
Вы не можете скачивать файлы