Ошибка
Загрузка...

(Arrangement) Echoes of War: The Music of Blizzard Entertainment (by Eminence Symphony Orchestra & Choir) - 2008 г., FLAC (tracks), lossless

Ответить на тему
 
Автор Сообщение

Hobbit38

Пол: Пол:Муж

Стаж: 3 года 5 месяцев

Сообщений: 163

Россия
Рейтинг

post 22-Май-2017 17:39 0[+]

[Цитировать] 


Echoes of War
Жанр: Arrangement | Дата выпуска диска: Nov 01, 2008

Композитор: Blizzard Entertainment | Исполнитель: Eminence Symphony Orchestra & Choir

Страна-производитель диска: USA | Издатель (лейбл): Eminence | Номер по каталогу: EMIN-00001

Аудио кодек: FLAC (.flac) | Тип рипа: tracks | Битрейт аудио: lossless

Продолжительность: 01:30:12



CD 1
(From Warcraft III)
The Third War Symphony
01. Journey to Kalimdor
02. Eternity’s End
(From World of Warcraft and World of Warcraft: The Burning Crusade)
The Shadow of the Legion Symphony
03. A Tenuous Pact
04. Anar’alah Belore
05. The Betrayer and The Sun King
(From World of Warcraft: Wrath of the Lich King)
06. The Visions of the Lich King Overture
CD 2
(From StarCraft and StarCraft: Ghost)
The Koprulu Symphony
01. No Matter the Cost
02. En Taro Adun
03. Eradicate and Evolve
04. Victorious but not unscarred
(From Starcraft II)
05. The Hyperion Overture
(From Diablo, Diablo II, Diablo II: Lord of Destruction and Diablo III)
The Symphony of Sanctuary
06. The Eternal Conflict
07. Legacy of Terror
08. Children of the Worldstone
09. BONUS: Last Angel
Exact Audio Copy V0.99 prebeta 4 from 23. January 2008
EAC extraction logfile from 25. December 2008, 13:25
The Music of Blizzard Entertainment / Echoes of War Disc 1
Used drive : LITE-ON DVDRW LH-20A1P Adapter: 0 ID: 1
Read mode : Secure
Utilize accurate stream : Yes
Defeat audio cache : Yes
Make use of C2 pointers : No
Read offset correction : 6
Overread into Lead-In and Lead-Out : No
Fill up missing offset samples with silence : Yes
Delete leading and trailing silent blocks : No
Null samples used in CRC calculations : Yes
Used interface : Native Win32 interface for Win NT & 2000
Gap handling : Appended to previous track
Used output format : User Defined Encoder
Selected bitrate : 320 kBit/s
Quality : High
Add ID3 tag : No
Command line compressor : flac.exe
Additional command line options : -V -8 -T "artist=%a" -T "title=%t" -T "album=%g" -T "date=%y" -T "tracknumber=%n" -T "genre=%m" %s
TOC of the extracted CD
Track | Start | Length | Start sector | End sector
---------------------------------------------------------
1 | 0:00.00 | 4:08.00 | 0 | 18599
2 | 4:08.00 | 2:43.11 | 18600 | 30835
3 | 6:51.11 | 7:43.00 | 30836 | 65560
4 | 14:34.11 | 5:16.32 | 65561 | 89292
5 | 19:50.43 | 6:53.00 | 89293 | 120267
6 | 26:43.43 | 8:40.39 | 120268 | 159306
Track 1
Filename 01 - Journey to Kalimdor.wav
Pre-gap length 0:00:02.00
Peak level 100.0 %
Track quality 100.0 %
Test CRC A8CFE1DA
Copy CRC A8CFE1DA
Track not present in AccurateRip database
Copy OK
Track 2
Filename 02 - Eternity's End.wav
Pre-gap length 0:00:02.00
Peak level 88.0 %
Track quality 100.0 %
Test CRC D07C3CD5
Copy CRC D07C3CD5
Track not present in AccurateRip database
Copy OK
Track 3
Filename 03 - A Tenuous Pact.wav
Pre-gap length 0:00:02.00
Peak level 100.0 %
Track quality 100.0 %
Test CRC A5467074
Copy CRC A5467074
Track not present in AccurateRip database
Copy OK
Track 4
Filename 04 - Anar'alah Belore.wav
Pre-gap length 0:00:02.00
Peak level 85.9 %
Track quality 100.0 %
Test CRC 865F7F89
Copy CRC 865F7F89
Track not present in AccurateRip database
Copy OK
Track 5
Filename 05 - The Betrayer and the Sun King.wav
Pre-gap length 0:00:02.00
Peak level 100.0 %
Track quality 100.0 %
Test CRC B7BD5E73
Copy CRC B7BD5E73
Track not present in AccurateRip database
Copy OK
Track 6
Filename 06 - The Visions of the Lich King Overture.wav
Pre-gap length 0:00:02.00
Peak level 98.6 %
Track quality 100.0 %
Test CRC 371D5FDF
Copy CRC 371D5FDF
Track not present in AccurateRip database
Copy OK
None of the tracks are present in the AccurateRip database
No errors occurred
End of status report
Exact Audio Copy V0.99 prebeta 4 from 23. January 2008
EAC extraction logfile from 25. December 2008, 14:12
The Music of Blizzard Entertainment / Echoes of War Disc 2
Used drive : LITE-ON DVDRW LH-20A1P Adapter: 0 ID: 1
Read mode : Secure
Utilize accurate stream : Yes
Defeat audio cache : Yes
Make use of C2 pointers : No
Read offset correction : 6
Overread into Lead-In and Lead-Out : No
Fill up missing offset samples with silence : Yes
Delete leading and trailing silent blocks : No
Null samples used in CRC calculations : Yes
Used interface : Native Win32 interface for Win NT & 2000
Gap handling : Appended to previous track
Used output format : User Defined Encoder
Selected bitrate : 320 kBit/s
Quality : High
Add ID3 tag : No
Command line compressor : flac.exe
Additional command line options : -V -8 -T "artist=%a" -T "title=%t" -T "album=%g" -T "date=%y" -T "tracknumber=%n" -T "genre=%m" %s
TOC of the extracted CD
Track | Start | Length | Start sector | End sector
---------------------------------------------------------
1 | 0:00.00 | 5:43.56 | 0 | 25780
2 | 5:43.56 | 4:09.00 | 25781 | 44455
3 | 9:52.56 | 6:35.18 | 44456 | 74098
4 | 16:27.74 | 5:17.00 | 74099 | 97873
5 | 21:44.74 | 5:20.00 | 97874 | 121873
6 | 27:04.74 | 6:37.00 | 121874 | 151648
7 | 33:41.74 | 5:28.00 | 151649 | 176248
8 | 39:09.74 | 7:56.06 | 176249 | 211954
9 | 47:06.05 | 7:42.03 | 211955 | 246607
Track 1
Filename 01 - No Matter the Cost.wav
Pre-gap length 0:00:02.00
Peak level 100.0 %
Track quality 100.0 %
Test CRC C211F6FB
Copy CRC C211F6FB
Track not present in AccurateRip database
Copy OK
Track 2
Filename 02 - En Taro Adun.wav
Pre-gap length 0:00:02.00
Peak level 98.8 %
Track quality 100.0 %
Test CRC 448A55CE
Copy CRC 448A55CE
Track not present in AccurateRip database
Copy OK
Track 3
Filename 03 - Eradicate and Evolve.wav
Pre-gap length 0:00:02.00
Peak level 100.0 %
Track quality 100.0 %
Test CRC BD5C3FE3
Copy CRC BD5C3FE3
Track not present in AccurateRip database
Copy OK
Track 4
Filename 04 - Victorious but Not Unscarred.wav
Pre-gap length 0:00:02.00
Peak level 100.0 %
Track quality 100.0 %
Test CRC 5E018B60
Copy CRC 5E018B60
Track not present in AccurateRip database
Copy OK
Track 5
Filename 05 - The Hyperion Overture.wav
Pre-gap length 0:00:02.00
Peak level 100.0 %
Track quality 100.0 %
Test CRC 0E43C6D3
Copy CRC 0E43C6D3
Track not present in AccurateRip database
Copy OK
Track 6
Filename 06 - The Eternal Conflict.wav
Pre-gap length 0:00:02.00
Peak level 97.3 %
Track quality 100.0 %
Test CRC 718813B7
Copy CRC 718813B7
Track not present in AccurateRip database
Copy OK
Track 7
Filename 07 - Legacy of Terror.wav
Pre-gap length 0:00:02.00
Peak level 88.3 %
Track quality 100.0 %
Test CRC B93218E7
Copy CRC B93218E7
Track not present in AccurateRip database
Copy OK
Track 8
Filename 08 - Children of the Worldstone.wav
Pre-gap length 0:00:02.00
Peak level 97.1 %
Track quality 100.0 %
Test CRC 40253B6A
Copy CRC 40253B6A
Track not present in AccurateRip database
Copy OK
Track 9
Filename 09 - Last Angel [BONUS TRACK].wav
Pre-gap length 0:00:02.00
Peak level 80.3 %
Track quality 100.0 %
Test CRC 9D2517C8
Copy CRC 9D2517C8
Track not present in AccurateRip database
Copy OK
None of the tracks are present in the AccurateRip database
No errors occurred
End of status report

info [Профиль]  [ЛС] 

Hobbit38

Пол: Пол:Муж

Стаж: 3 года 5 месяцев

Сообщений: 163

Россия
Рейтинг

post 27-Сен-2017 15:25 (спустя 4 месяца 4 дня) [-]0[+]

[Цитировать] 

del
info [Профиль]  [ЛС] 

Hobbit38

Пол: Пол:Муж

Стаж: 3 года 5 месяцев

Сообщений: 163

Россия
Рейтинг

post 15-Окт-2017 14:53 (спустя 17 дней) [-]0[+]

[Цитировать] 

Обновление:
  • Замена на tracks.
info [Профиль]  [ЛС] 
Показать сообщения:    
Ответить на тему

Текущее время: 22-Окт 05:13

Часовой пояс: GMT + 4



Вы не можете начинать темы
Вы не можете отвечать на сообщения
Вы не можете редактировать свои сообщения
Вы не можете удалять свои сообщения
Вы не можете голосовать в опросах
Вы не можете прикреплять файлы к сообщениям
Вы не можете скачивать файлы