Ошибка
Загрузка...

(Score) Blade & Soul Soundtrack Collection (by Taro Iwashiro, Chihwan Kim, Lin-G & VA) - 2012-2013, FLAC (tracks+.cue), lossless

Ответить на тему
 
Автор Сообщение

Hobbit38

Пол: Пол:Муж

Стаж: 3 года 4 месяца

Сообщений: 115

Россия
Рейтинг

post 22-Май-2017 17:15 1[+]

[Цитировать] 


Blade & Soul Soundtrack Сollection
Жанр: Score | Страна: Южная Корея | Год выпуска: 2012-2013

Композиторы: Various Artists (см. спойлеры)

Аудиокодек: FLAC (.flac) | Тип рипа: tracks+.cue | Битрейт аудио: lossless

Продолжительность: 07:25:41 | Полиграфия: отсутствует

Дата выпуска: Sep 21, 2012
Композитор: Taro Iwashiro
Страна-производитель диска: Южная Корея
Издатель (лейбл): Sony Music
Номер по каталогу: S90481C
Продолжительность: 01:15:48

01. Blade & Soul
02. Fly into the sky
03. Song of the forest
04. Pride for the sword
05. Descendant of the dragon
06. The spirit of the petal
07. Little shepherd
08. Resolution of the white
09. Origin of the darkness
10. Cheerful festival
11. Black pirates
12. Pray of the heretic zealots
13. Bloody battle
14. Rising empire
15. The flag at dusk
16. Heroes in advance
17. Endless chase
18. Final conflict
19. Scar of the black flower
20. The pot thieves
21. Shadow in the sunset
 
X Lossless Decoder version 20120908 (141.1)

XLD extraction logfile from 2012-10-08 17:58:16 +0800

???? / Blade & Soul Original Soundtrack - The Story

Used drive : MATSHITA DVD-R UJ-898 (revision HE13)

Ripper mode : XLD Secure Ripper
Disable audio cache : OK for the drive with a cache less than 1375KiB
Make use of C2 pointers : NO
Read offset correction : 102
Max retry count : 100
Gap status : Analyzed, Appended

TOC of the extracted CD
Track | Start | Length | Start sector | End sector
---------------------------------------------------------
1 | 00:00:00 | 06:05:28 | 0 | 27402
2 | 06:05:28 | 03:51:16 | 27403 | 44743
3 | 09:56:44 | 03:14:72 | 44744 | 59365
4 | 13:11:41 | 03:20:65 | 59366 | 74430
5 | 16:32:31 | 03:34:25 | 74431 | 90505
6 | 20:06:56 | 03:43:03 | 90506 | 107233
7 | 23:49:59 | 03:08:64 | 107234 | 121397
8 | 26:58:48 | 03:42:12 | 121398 | 138059
9 | 30:40:60 | 03:44:55 | 138060 | 154914
10 | 34:25:40 | 03:11:14 | 154915 | 169253
11 | 37:36:54 | 03:09:08 | 169254 | 183436
12 | 40:45:62 | 03:30:65 | 183437 | 199251
13 | 44:16:52 | 04:14:59 | 199252 | 218360
14 | 48:31:36 | 03:44:01 | 218361 | 235161
15 | 52:15:37 | 03:32:29 | 235162 | 251090
16 | 55:47:66 | 03:30:67 | 251091 | 266907
17 | 59:18:58 | 03:16:57 | 266908 | 281664
18 | 62:35:40 | 03:43:61 | 281665 | 298450
19 | 66:19:26 | 02:29:05 | 298451 | 309630
20 | 68:48:31 | 02:15:21 | 309631 | 319776
21 | 71:03:52 | 04:45:02 | 319777 | 341153

AccurateRip Summary
Disc not found in AccurateRip DB.

All Tracks
Filename : /Users/deadmaster/Music/Blade & Soul Original Soundtrack - The Story.flac
CRC32 hash : CC97FDF0
CRC32 hash (skip zero) : DE15D3B5
Statistics
Read error : 0
Jitter error (maybe fixed) : 0
Retry sector count : 0
Damaged sector count : 0

Track 01
Pre-gap length : 00:02:00

CRC32 hash : 3D2A22F3
CRC32 hash (skip zero) : 331BFAE6
AccurateRip v1 signature : 9336427A
AccurateRip v2 signature : 9408DCA7
->Track not present in AccurateRip database.
Statistics
Read error : 0
Jitter error (maybe fixed) : 0
Retry sector count : 0
Damaged sector count : 0

Track 02
Pre-gap length : 00:01:31

CRC32 hash : F6D8735D
CRC32 hash (skip zero) : 265FA2A3
AccurateRip v1 signature : A2310B0C
AccurateRip v2 signature : 0C23F18E
->Track not present in AccurateRip database.
Statistics
Read error : 0
Jitter error (maybe fixed) : 0
Retry sector count : 0
Damaged sector count : 0

Track 03
Pre-gap length : 00:03:35

CRC32 hash : AE60668A
CRC32 hash (skip zero) : 26D7DDA7
AccurateRip v1 signature : 127CE75F
AccurateRip v2 signature : E95D4141
->Track not present in AccurateRip database.
Statistics
Read error : 0
Jitter error (maybe fixed) : 0
Retry sector count : 0
Damaged sector count : 0

Track 04
Pre-gap length : 00:02:74

CRC32 hash : F0A98EFA
CRC32 hash (skip zero) : 19CA182C
AccurateRip v1 signature : F4B67B07
AccurateRip v2 signature : 449BDF5B
->Track not present in AccurateRip database.
Statistics
Read error : 0
Jitter error (maybe fixed) : 0
Retry sector count : 0
Damaged sector count : 0

Track 05
Pre-gap length : 00:02:48

CRC32 hash : 7A8FBD25
CRC32 hash (skip zero) : 0BDB47BB
AccurateRip v1 signature : E4525405
AccurateRip v2 signature : 205FC1F0
->Track not present in AccurateRip database.
Statistics
Read error : 0
Jitter error (maybe fixed) : 0
Retry sector count : 0
Damaged sector count : 0

Track 06
Pre-gap length : 00:02:54

CRC32 hash : A26F3B21
CRC32 hash (skip zero) : E319EFA3
AccurateRip v1 signature : 697A510C
AccurateRip v2 signature : EE5472E7
->Track not present in AccurateRip database.
Statistics
Read error : 0
Jitter error (maybe fixed) : 0
Retry sector count : 0
Damaged sector count : 0

Track 07
Pre-gap length : 00:02:55

CRC32 hash : 5D7E09B2
CRC32 hash (skip zero) : A273383B
AccurateRip v1 signature : 2EC4E578
AccurateRip v2 signature : 96D73CEC
->Track not present in AccurateRip database.
Statistics
Read error : 0
Jitter error (maybe fixed) : 0
Retry sector count : 0
Damaged sector count : 0

Track 08
Pre-gap length : 00:02:07

CRC32 hash : 2666DE63
CRC32 hash (skip zero) : 7ADC1A6D
AccurateRip v1 signature : 72486F8D
AccurateRip v2 signature : 29F3284C
->Track not present in AccurateRip database.
Statistics
Read error : 0
Jitter error (maybe fixed) : 0
Retry sector count : 0
Damaged sector count : 0

Track 09
Pre-gap length : 00:02:00

CRC32 hash : C18EC0C3
CRC32 hash (skip zero) : BE630FA3
AccurateRip v1 signature : A1147BED
AccurateRip v2 signature : 456BA4DF
->Track not present in AccurateRip database.
Statistics
Read error : 0
Jitter error (maybe fixed) : 0
Retry sector count : 0
Damaged sector count : 0

Track 10
Pre-gap length : 00:02:72

CRC32 hash : EA9A589C
CRC32 hash (skip zero) : 60B211D6
AccurateRip v1 signature : 6EBA902A
AccurateRip v2 signature : 3640B87D
->Track not present in AccurateRip database.
Statistics
Read error : 0
Jitter error (maybe fixed) : 0
Retry sector count : 0
Damaged sector count : 0

Track 11
Pre-gap length : 00:03:12

CRC32 hash : ED1CCC17
CRC32 hash (skip zero) : BA5C002E
AccurateRip v1 signature : C2CA4CF1
AccurateRip v2 signature : D84EC5CD
->Track not present in AccurateRip database.
Statistics
Read error : 0
Jitter error (maybe fixed) : 0
Retry sector count : 0
Damaged sector count : 0

Track 12
Pre-gap length : 00:02:27

CRC32 hash : 6797FE52
CRC32 hash (skip zero) : 000815FD
AccurateRip v1 signature : F657BA72
AccurateRip v2 signature : 864F0E9D
->Track not present in AccurateRip database.
Statistics
Read error : 0
Jitter error (maybe fixed) : 0
Retry sector count : 0
Damaged sector count : 0

Track 13
Pre-gap length : 00:01:60

CRC32 hash : D2BB2EEB
CRC32 hash (skip zero) : 42989A6F
AccurateRip v1 signature : 581847C5
AccurateRip v2 signature : 6C136067
->Track not present in AccurateRip database.
Statistics
Read error : 0
Jitter error (maybe fixed) : 0
Retry sector count : 0
Damaged sector count : 0

Track 14
Pre-gap length : 00:02:46

CRC32 hash : 3D5BF9A3
CRC32 hash (skip zero) : 568D8F5E
AccurateRip v1 signature : ED705EE2
AccurateRip v2 signature : 9DA67E7F
->Track not present in AccurateRip database.
Statistics
Read error : 0
Jitter error (maybe fixed) : 0
Retry sector count : 0
Damaged sector count : 0

Track 15
Pre-gap length : 00:01:64

CRC32 hash : 805F58D8
CRC32 hash (skip zero) : E28816B7
AccurateRip v1 signature : 182F6BB7
AccurateRip v2 signature : 89A2F0F9
->Track not present in AccurateRip database.
Statistics
Read error : 0
Jitter error (maybe fixed) : 0
Retry sector count : 0
Damaged sector count : 0

Track 16
Pre-gap length : 00:02:71

CRC32 hash : 8AD72D16
CRC32 hash (skip zero) : FEC2A63A
AccurateRip v1 signature : FEAEF39C
AccurateRip v2 signature : CE0CA325
->Track not present in AccurateRip database.
Statistics
Read error : 0
Jitter error (maybe fixed) : 0
Retry sector count : 0
Damaged sector count : 0

Track 17
Pre-gap length : 00:01:63

CRC32 hash : 886B6174
CRC32 hash (skip zero) : DD2E2F3E
AccurateRip v1 signature : BE38F59F
AccurateRip v2 signature : 628FE30C
->Track not present in AccurateRip database.
Statistics
Read error : 0
Jitter error (maybe fixed) : 0
Retry sector count : 0
Damaged sector count : 0

Track 18
Pre-gap length : 00:02:45

CRC32 hash : D0DD28AF
CRC32 hash (skip zero) : E2A0FFF8
AccurateRip v1 signature : 5D8E220B
AccurateRip v2 signature : 0C426230
->Track not present in AccurateRip database.
Statistics
Read error : 0
Jitter error (maybe fixed) : 0
Retry sector count : 0
Damaged sector count : 0

Track 19
Pre-gap length : 00:02:44

CRC32 hash : B8B7944B
CRC32 hash (skip zero) : 3004E04B
AccurateRip v1 signature : 40BBF277
AccurateRip v2 signature : 5A37C632
->Track not present in AccurateRip database.
Statistics
Read error : 0
Jitter error (maybe fixed) : 0
Retry sector count : 0
Damaged sector count : 0

Track 20
Pre-gap length : 00:03:41

CRC32 hash : 8B21A4A3
CRC32 hash (skip zero) : 9C4D6D7F
AccurateRip v1 signature : 485C18E0
AccurateRip v2 signature : 4E9F279F
->Track not present in AccurateRip database.
Statistics
Read error : 0
Jitter error (maybe fixed) : 0
Retry sector count : 0
Damaged sector count : 0

Track 21
Pre-gap length : 00:02:03

CRC32 hash : 2D531A64
CRC32 hash (skip zero) : 08639FB0
AccurateRip v1 signature : 82C9D99A
AccurateRip v2 signature : FC049448
->Track not present in AccurateRip database.
Statistics
Read error : 0
Jitter error (maybe fixed) : 0
Retry sector count : 0
Damaged sector count : 0

No errors occurred

End of status report
Дата выпуска: Nov 30, 2012
Композиторы: Chihwan Kim, Lin-G, Changbeom Kim, Hyobeum Lim, Jinwoo Choi, Junyeop Lee, Junghwan Park
Страна-производитель диска: Южная Корея
Издатель (лейбл): Sony Music
Номер по каталогу: S90615C
Продолжительность: 03:40:57

Продолжительность: 01:08:45

01. The Morning of Crimson Peak
02. Storm Clouds
03. Bambuo Village
04. Forest of the Dead
05. Shadow of the Moon
06. The Race for Fate
07. The Black Fog
08. Black Shaow Forest
09. Stepping on Shadows
10. Illusion Forest
11. One Step in Hope
12. Hwajoong's Spirit
13. Emerald Village
14. Counterattack of the Dead
15. Pine Stone Island
16. The Pot Fighter
17. Pinehill Temple
18. Hammer of the Dog Sorcerer
19. Boulder Valley
20. Bloodwind
21. The Deadly Sword. Part 1
22. The Deadly Sword. Part 2
23. Pirate's Cave
24. The Penetration
25. The Black Shaow
26. The Great Swordsman
27. Things We Lost
28. A New Beginning
Продолжительность: 01:19:08

01. The Ambush
02. Lonely Village
03. Mud Gate Region
04. The Sand of Heat
05. Yu Village
06. Martial God
07. Sandstorm
08. Two Sprits
09. The Tavern
10. Mud Gate Inn
11. Treasure Hunter
12. Naru
13. The Ancient Assasin
14. Vice Party
15. Dry Land
16. The Pot Workshop
17. Darkspear
18. Wugachaka
19. Warriors Village
20. Runaway Warriors
21. Claygrave Catacombs
22. Wolf Clan
23. The Black Bird
24. Black Grotto Market
25. The Skull Mask
26. Howling Temple
27. Wing of the Martial God
28. Grave of Sacrifice
29. Blaze Monkey King
Продолжительность: 01:13:03

01. Distorted Vital Force
02. The Road
03. A Wolf Beneath the Wind
04. Master of Sunset
05. The Maple House
06. Lost
07. Windmill Village
08. The Uninvited
09. Dominator of Wild Beasts
10. Shadow the Lake
11. The Chaser
12. Half-Moon Lake
13. The Festival
14. Five Colored Dream
15. The Guardian of Phantom City
16. Commander's Soul
17. The Absence of Reinforcements
18. Ritual for the King's Accession
19. The Invincible Four
20. Swirling Tainted Chi. Part.1
21. Swirling Tainted Chi. Part.2
22. Mist of dawn light
23. Secret Base
24. Labyrinth
25. Dangerous Escape
26. Invitation of Pohwaran
27. Bloody Shark Harbor
28. Fatal Strike
 
X Lossless Decoder version 20121027 (142.1)

XLD extraction logfile from 2012-12-21 13:02:41 +0800

????? / Blade & Soul -The World- Original Soundtrack Disc1

Used drive : MATSHITA DVD-R UJ-898 (revision HE13)

Ripper mode : XLD Secure Ripper
Disable audio cache : OK for the drive with a cache less than 1375KiB
Make use of C2 pointers : NO
Read offset correction : 102
Max retry count : 100
Gap status : Analyzed, Appended

TOC of the extracted CD
Track | Start | Length | Start sector | End sector
---------------------------------------------------------
1 | 00:00:00 | 01:10:18 | 0 | 5267
2 | 01:10:18 | 02:13:33 | 5268 | 15275
3 | 03:23:51 | 02:37:16 | 15276 | 27066
4 | 06:00:67 | 02:29:53 | 27067 | 38294
5 | 08:30:45 | 02:21:20 | 38295 | 48889
6 | 10:51:65 | 02:14:42 | 48890 | 58981
7 | 13:06:32 | 02:45:32 | 58982 | 71388
8 | 15:51:64 | 02:37:05 | 71389 | 83168
9 | 18:28:69 | 02:22:01 | 83169 | 93819
10 | 20:50:70 | 02:49:63 | 93820 | 106557
11 | 23:40:58 | 02:55:64 | 106558 | 119746
12 | 26:36:47 | 00:49:49 | 119747 | 123470
13 | 27:26:21 | 01:53:38 | 123471 | 131983
14 | 29:19:59 | 01:55:14 | 131984 | 140622
15 | 31:14:73 | 02:05:00 | 140623 | 149997
16 | 33:19:73 | 01:07:32 | 149998 | 155054
17 | 34:27:30 | 02:48:18 | 155055 | 167672
18 | 37:15:48 | 01:34:12 | 167673 | 174734
19 | 38:49:60 | 05:20:17 | 174735 | 198751
20 | 44:10:02 | 02:17:25 | 198752 | 209051
21 | 46:27:27 | 02:36:61 | 209052 | 220812
22 | 49:04:13 | 02:48:47 | 220813 | 233459
23 | 51:52:60 | 02:59:20 | 233460 | 246904
24 | 54:52:05 | 02:20:07 | 246905 | 257411
25 | 57:12:12 | 02:20:27 | 257412 | 267938
26 | 59:32:39 | 02:07:05 | 267939 | 277468
27 | 61:39:44 | 05:33:06 | 277469 | 302449
28 | 67:12:50 | 01:33:11 | 302450 | 309435

AccurateRip Summary
Disc not found in AccurateRip DB.

All Tracks
Filename : /Users/deadmaster/Music/Blade & Soul -The World- Original Soundtrack Disc1.flac
CRC32 hash : 1D8DAF0D
CRC32 hash (skip zero) : 59A44536
Statistics
Read error : 0
Jitter error (maybe fixed) : 0
Retry sector count : 0
Damaged sector count : 0

Track 01
Pre-gap length : 00:02:00

CRC32 hash : C2D320B9
CRC32 hash (skip zero) : CB32711E
AccurateRip v1 signature : 2DC74E18
AccurateRip v2 signature : E9D17A5E
->Track not present in AccurateRip database.
Statistics
Read error : 0
Jitter error (maybe fixed) : 0
Retry sector count : 0
Damaged sector count : 0

Track 02

CRC32 hash : 3C454189
CRC32 hash (skip zero) : FE893B5B
AccurateRip v1 signature : CA2ED04D
AccurateRip v2 signature : 6722D475
->Track not present in AccurateRip database.
Statistics
Read error : 0
Jitter error (maybe fixed) : 0
Retry sector count : 0
Damaged sector count : 0

Track 03

CRC32 hash : F8064386
CRC32 hash (skip zero) : 6ED75C78
AccurateRip v1 signature : DC8DBA6C
AccurateRip v2 signature : D4632FF7
->Track not present in AccurateRip database.
Statistics
Read error : 0
Jitter error (maybe fixed) : 0
Retry sector count : 0
Damaged sector count : 0

Track 04
Pre-gap length : 00:01:64

CRC32 hash : DA61E8A3
CRC32 hash (skip zero) : D1362C55
AccurateRip v1 signature : 3D5C0D06
AccurateRip v2 signature : ED08F9BD
->Track not present in AccurateRip database.
Statistics
Read error : 0
Jitter error (maybe fixed) : 0
Retry sector count : 0
Damaged sector count : 0

Track 05

CRC32 hash : D53E3E28
CRC32 hash (skip zero) : CE4AB25A
AccurateRip v1 signature : 85EDC113
AccurateRip v2 signature : D27D8748
->Track not present in AccurateRip database.
Statistics
Read error : 0
Jitter error (maybe fixed) : 0
Retry sector count : 0
Damaged sector count : 0

Track 06
Pre-gap length : 00:02:66

CRC32 hash : A7FF7B05
CRC32 hash (skip zero) : BD0B4E03
AccurateRip v1 signature : 5B6F2B04
AccurateRip v2 signature : 1A62E088
->Track not present in AccurateRip database.
Statistics
Read error : 0
Jitter error (maybe fixed) : 0
Retry sector count : 0
Damaged sector count : 0

Track 07

CRC32 hash : C19D6C91
CRC32 hash (skip zero) : CA58EAF7
AccurateRip v1 signature : 5745E27E
AccurateRip v2 signature : CEEAF28C
->Track not present in AccurateRip database.
Statistics
Read error : 0
Jitter error (maybe fixed) : 0
Retry sector count : 0
Damaged sector count : 0

Track 08
Pre-gap length : 00:01:58

CRC32 hash : BAFC62BE
CRC32 hash (skip zero) : CCD8338F
AccurateRip v1 signature : 15007389
AccurateRip v2 signature : 8873D218
->Track not present in AccurateRip database.
Statistics
Read error : 0
Jitter error (maybe fixed) : 0
Retry sector count : 0
Damaged sector count : 0

Track 09
Pre-gap length : 00:02:48

CRC32 hash : 451DAB34
CRC32 hash (skip zero) : 73C1DD08
AccurateRip v1 signature : 59CE4794
AccurateRip v2 signature : 0454065B
->Track not present in AccurateRip database.
Statistics
Read error : 0
Jitter error (maybe fixed) : 0
Retry sector count : 0
Damaged sector count : 0

Track 10
Pre-gap length : 00:01:57

CRC32 hash : 334D6F3F
CRC32 hash (skip zero) : CA8FAA12
AccurateRip v1 signature : 207929DC
AccurateRip v2 signature : 1B6BD4C1
->Track not present in AccurateRip database.
Statistics
Read error : 0
Jitter error (maybe fixed) : 0
Retry sector count : 0
Damaged sector count : 0

Track 11
Pre-gap length : 00:01:05

CRC32 hash : 05B8B23B
CRC32 hash (skip zero) : 9631F203
AccurateRip v1 signature : 9F3FB34E
AccurateRip v2 signature : 2E87308E
->Track not present in AccurateRip database.
Statistics
Read error : 0
Jitter error (maybe fixed) : 0
Retry sector count : 0
Damaged sector count : 0

Track 12
Pre-gap length : 00:01:27

CRC32 hash : 15D003E7
CRC32 hash (skip zero) : 234298A0
AccurateRip v1 signature : 2294B9EB
AccurateRip v2 signature : 1FAB160A
->Track not present in AccurateRip database.
Statistics
Read error : 0
Jitter error (maybe fixed) : 0
Retry sector count : 0
Damaged sector count : 0

Track 13
Pre-gap length : 00:01:36

CRC32 hash : F5587DB5
CRC32 hash (skip zero) : 46AD297E
AccurateRip v1 signature : 025D5B4F
AccurateRip v2 signature : F7BC1457
->Track not present in AccurateRip database.
Statistics
Read error : 0
Jitter error (maybe fixed) : 0
Retry sector count : 0
Damaged sector count : 0

Track 14
Pre-gap length : 00:01:43

CRC32 hash : 24FD6E03
CRC32 hash (skip zero) : 6F9B7AFA
AccurateRip v1 signature : C548D7BF
AccurateRip v2 signature : 67C398F8
->Track not present in AccurateRip database.
Statistics
Read error : 0
Jitter error (maybe fixed) : 0
Retry sector count : 0
Damaged sector count : 0

Track 15

CRC32 hash : 8BF21A7B
CRC32 hash (skip zero) : FE3CD426
AccurateRip v1 signature : 7ABE043C
AccurateRip v2 signature : 9A9F0806
->Track not present in AccurateRip database.
Statistics
Read error : 0
Jitter error (maybe fixed) : 0
Retry sector count : 0
Damaged sector count : 0

Track 16
Pre-gap length : 00:02:57

CRC32 hash : 260F93FF
CRC32 hash (skip zero) : 356EAFF8
AccurateRip v1 signature : 8AD60153
AccurateRip v2 signature : 0AF148BD
->Track not present in AccurateRip database.
Statistics
Read error : 0
Jitter error (maybe fixed) : 0
Retry sector count : 0
Damaged sector count : 0

Track 17
Pre-gap length : 00:01:13

CRC32 hash : 3FBE8120
CRC32 hash (skip zero) : 7D6B27B1
AccurateRip v1 signature : 57BC2CE6
AccurateRip v2 signature : E7E8EDAF
->Track not present in AccurateRip database.
Statistics
Read error : 0
Jitter error (maybe fixed) : 0
Retry sector count : 0
Damaged sector count : 0

Track 18
Pre-gap length : 00:02:61

CRC32 hash : D9B6BA4D
CRC32 hash (skip zero) : 6949207E
AccurateRip v1 signature : 9A63755A
AccurateRip v2 signature : 9D2F566E
->Track not present in AccurateRip database.
Statistics
Read error : 0
Jitter error (maybe fixed) : 0
Retry sector count : 0
Damaged sector count : 0

Track 19
Pre-gap length : 00:01:55

CRC32 hash : 48487C55
CRC32 hash (skip zero) : 27580E90
AccurateRip v1 signature : 5647A201
AccurateRip v2 signature : A64C35E1
->Track not present in AccurateRip database.
Statistics
Read error : 0
Jitter error (maybe fixed) : 0
Retry sector count : 0
Damaged sector count : 0

Track 20
Pre-gap length : 00:01:13

CRC32 hash : 2A13BD3E
CRC32 hash (skip zero) : 198B89C5
AccurateRip v1 signature : A091756C
AccurateRip v2 signature : 0435E13A
->Track not present in AccurateRip database.
Statistics
Read error : 0
Jitter error (maybe fixed) : 0
Retry sector count : 0
Damaged sector count : 0

Track 21
Pre-gap length : 00:01:64

CRC32 hash : F1A98C8F
CRC32 hash (skip zero) : 51B1A2D9
AccurateRip v1 signature : A855B008
AccurateRip v2 signature : 00ECAD87
->Track not present in AccurateRip database.
Statistics
Read error : 0
Jitter error (maybe fixed) : 0
Retry sector count : 0
Damaged sector count : 0

Track 22
Pre-gap length : 00:01:38

CRC32 hash : 8F8CD5FA
CRC32 hash (skip zero) : 84F9BAED
AccurateRip v1 signature : B07AACB2
AccurateRip v2 signature : D628DBC6
->Track not present in AccurateRip database.
Statistics
Read error : 0
Jitter error (maybe fixed) : 0
Retry sector count : 0
Damaged sector count : 0

Track 23
Pre-gap length : 00:02:69

CRC32 hash : E7C44C47
CRC32 hash (skip zero) : AFE73836
AccurateRip v1 signature : 8C251292
AccurateRip v2 signature : 04128322
->Track not present in AccurateRip database.
Statistics
Read error : 0
Jitter error (maybe fixed) : 0
Retry sector count : 0
Damaged sector count : 0

Track 24

CRC32 hash : D6A6177E
CRC32 hash (skip zero) : EE501E70
AccurateRip v1 signature : FC76D7D3
AccurateRip v2 signature : 3DED9259
->Track not present in AccurateRip database.
Statistics
Read error : 0
Jitter error (maybe fixed) : 0
Retry sector count : 0
Damaged sector count : 0

Track 25

CRC32 hash : 8C5DC91E
CRC32 hash (skip zero) : B73560B7
AccurateRip v1 signature : BF52EF90
AccurateRip v2 signature : 7BC91487
->Track not present in AccurateRip database.
Statistics
Read error : 0
Jitter error (maybe fixed) : 0
Retry sector count : 0
Damaged sector count : 0

Track 26
Pre-gap length : 00:02:37

CRC32 hash : 209AE111
CRC32 hash (skip zero) : 075040A8
AccurateRip v1 signature : E59D1193
AccurateRip v2 signature : E016FB82
->Track not present in AccurateRip database.
Statistics
Read error : 0
Jitter error (maybe fixed) : 0
Retry sector count : 0
Damaged sector count : 0

Track 27
Pre-gap length : 00:01:13

CRC32 hash : A7EE0509
CRC32 hash (skip zero) : 2E33C181
AccurateRip v1 signature : 545CB8A4
AccurateRip v2 signature : 5736AB27
->Track not present in AccurateRip database.
Statistics
Read error : 0
Jitter error (maybe fixed) : 0
Retry sector count : 0
Damaged sector count : 0

Track 28
Pre-gap length : 00:02:10

CRC32 hash : C4FEDA36
CRC32 hash (skip zero) : B7DC615E
AccurateRip v1 signature : B70E1345
AccurateRip v2 signature : CF41FBFE
->Track not present in AccurateRip database.
Statistics
Read error : 0
Jitter error (maybe fixed) : 0
Retry sector count : 0
Damaged sector count : 0

No errors occurred

End of status report
 
X Lossless Decoder version 20121027 (142.1)

XLD extraction logfile from 2012-12-21 11:34:51 +0800

????? / Blade & Soul -The World- Original Soundtrack Disc2

Used drive : MATSHITA DVD-R UJ-898 (revision HE13)

Ripper mode : XLD Secure Ripper
Disable audio cache : OK for the drive with a cache less than 1375KiB
Make use of C2 pointers : NO
Read offset correction : 102
Max retry count : 100
Gap status : Analyzed, Appended

TOC of the extracted CD
Track | Start | Length | Start sector | End sector
---------------------------------------------------------
1 | 00:00:00 | 02:01:19 | 0 | 9093
2 | 02:01:19 | 01:11:00 | 9094 | 14418
3 | 03:12:19 | 04:35:34 | 14419 | 35077
4 | 07:47:53 | 04:15:02 | 35078 | 54204
5 | 12:02:55 | 01:58:16 | 54205 | 63070
6 | 14:00:71 | 00:41:20 | 63071 | 66165
7 | 14:42:16 | 08:57:26 | 66166 | 106466
8 | 23:39:42 | 01:41:27 | 106467 | 114068
9 | 25:20:69 | 00:50:49 | 114069 | 117867
10 | 26:11:43 | 02:16:45 | 117868 | 128112
11 | 28:28:13 | 01:49:57 | 128113 | 136344
12 | 30:17:70 | 02:12:12 | 136345 | 146256
13 | 32:30:07 | 03:03:62 | 146257 | 160043
14 | 35:33:69 | 01:05:13 | 160044 | 164931
15 | 36:39:07 | 02:14:31 | 164932 | 175012
16 | 38:53:38 | 02:30:33 | 175013 | 186295
17 | 41:23:71 | 04:46:59 | 186296 | 207804
18 | 46:10:55 | 01:39:46 | 207805 | 215275
19 | 47:50:26 | 03:19:14 | 215276 | 230214
20 | 51:09:40 | 00:51:21 | 230215 | 234060
21 | 52:00:61 | 02:57:68 | 234061 | 247403
22 | 54:58:54 | 03:38:15 | 247404 | 263768
23 | 58:36:69 | 03:12:44 | 263769 | 278212
24 | 61:49:38 | 00:42:08 | 278213 | 281370
25 | 62:31:46 | 02:43:19 | 281371 | 293614
26 | 65:14:65 | 02:10:54 | 293615 | 303418
27 | 67:25:44 | 01:43:21 | 303419 | 311164
28 | 69:08:65 | 07:18:67 | 311165 | 344081
29 | 76:27:57 | 02:40:21 | 344082 | 356102

AccurateRip Summary
Disc not found in AccurateRip DB.

All Tracks
Filename : /Users/deadmaster/Music/Blade & Soul -The World- Original Soundtrack Disc2.flac
CRC32 hash : 6EDE832A
CRC32 hash (skip zero) : 11CA4691
Statistics
Read error : 0
Jitter error (maybe fixed) : 0
Retry sector count : 0
Damaged sector count : 0

Track 01
Pre-gap length : 00:02:00

CRC32 hash : A54E4DF0
CRC32 hash (skip zero) : 8FF693EC
AccurateRip v1 signature : CCBC6EBE
AccurateRip v2 signature : 8573246A
->Track not present in AccurateRip database.
Statistics
Read error : 0
Jitter error (maybe fixed) : 0
Retry sector count : 0
Damaged sector count : 0

Track 02

CRC32 hash : F34C30AA
CRC32 hash (skip zero) : 7FC01726
AccurateRip v1 signature : 8CFB8EC0
AccurateRip v2 signature : EA3FDE3F
->Track not present in AccurateRip database.
Statistics
Read error : 0
Jitter error (maybe fixed) : 0
Retry sector count : 0
Damaged sector count : 0

Track 03
Pre-gap length : 00:01:12

CRC32 hash : 749FD159
CRC32 hash (skip zero) : EC7185D9
AccurateRip v1 signature : 75206F8C
AccurateRip v2 signature : 0182AE42
->Track not present in AccurateRip database.
Statistics
Read error : 0
Jitter error (maybe fixed) : 0
Retry sector count : 0
Damaged sector count : 0

Track 04
Pre-gap length : 00:01:44

CRC32 hash : C97D7C50
CRC32 hash (skip zero) : AD6A03A9
AccurateRip v1 signature : C7E853F3
AccurateRip v2 signature : 9822AA96
->Track not present in AccurateRip database.
Statistics
Read error : 0
Jitter error (maybe fixed) : 0
Retry sector count : 0
Damaged sector count : 0

Track 05
Pre-gap length : 00:01:32

CRC32 hash : 1FC78A3E
CRC32 hash (skip zero) : C2263D2C
AccurateRip v1 signature : 8D91262E
AccurateRip v2 signature : 63974421
->Track not present in AccurateRip database.
Statistics
Read error : 0
Jitter error (maybe fixed) : 0
Retry sector count : 0
Damaged sector count : 0

Track 06
Pre-gap length : 00:01:51

CRC32 hash : F35AD6D3
CRC32 hash (skip zero) : C6F8AE5B
AccurateRip v1 signature : A11449D4
AccurateRip v2 signature : D101D57F
->Track not present in AccurateRip database.
Statistics
Read error : 0
Jitter error (maybe fixed) : 0
Retry sector count : 0
Damaged sector count : 0

Track 07
Pre-gap length : 00:02:02

CRC32 hash : 5BF9BE37
CRC32 hash (skip zero) : A54F12BB
AccurateRip v1 signature : 3BEB4FD4
AccurateRip v2 signature : F5449929
->Track not present in AccurateRip database.
Statistics
Read error : 0
Jitter error (maybe fixed) : 0
Retry sector count : 0
Damaged sector count : 0

Track 08
Pre-gap length : 00:01:58

CRC32 hash : 0A48A067
CRC32 hash (skip zero) : 4B5F037C
AccurateRip v1 signature : 32B7CA35
AccurateRip v2 signature : C05D59D4
->Track not present in AccurateRip database.
Statistics
Read error : 0
Jitter error (maybe fixed) : 0
Retry sector count : 0
Damaged sector count : 0

Track 09
Pre-gap length : 00:01:19

CRC32 hash : 137EDC99
CRC32 hash (skip zero) : BAE1BB64
AccurateRip v1 signature : 5B2DE102
AccurateRip v2 signature : 4CE8CE4D
->Track not present in AccurateRip database.
Statistics
Read error : 0
Jitter error (maybe fixed) : 0
Retry sector count : 0
Damaged sector count : 0

Track 10

CRC32 hash : 7BE2FF73
CRC32 hash (skip zero) : 2C6C8ED8
AccurateRip v1 signature : 8A8F7CEE
AccurateRip v2 signature : CD12EFD3
->Track not present in AccurateRip database.
Statistics
Read error : 0
Jitter error (maybe fixed) : 0
Retry sector count : 0
Damaged sector count : 0

Track 11

CRC32 hash : 3C802063
CRC32 hash (skip zero) : 9428BE59
AccurateRip v1 signature : 7B504DB1
AccurateRip v2 signature : 3BAAF179
->Track not present in AccurateRip database.
Statistics
Read error : 0
Jitter error (maybe fixed) : 0
Retry sector count : 0
Damaged sector count : 0

Track 12
Pre-gap length : 00:01:25

CRC32 hash : 365BABBB
CRC32 hash (skip zero) : 8C96BE77
AccurateRip v1 signature : ED48C28C
AccurateRip v2 signature : 0190DC91
->Track not present in AccurateRip database.
Statistics
Read error : 0
Jitter error (maybe fixed) : 0
Retry sector count : 0
Damaged sector count : 0

Track 13
Pre-gap length : 00:02:36

CRC32 hash : EC6EB8E3
CRC32 hash (skip zero) : 42F842C1
AccurateRip v1 signature : 3F1DE8EC
AccurateRip v2 signature : 0FDACA0A
->Track not present in AccurateRip database.
Statistics
Read error : 0
Jitter error (maybe fixed) : 0
Retry sector count : 0
Damaged sector count : 0

Track 14
Pre-gap length : 00:02:31

CRC32 hash : 6A8B9C8B
CRC32 hash (skip zero) : E5F2E4FA
AccurateRip v1 signature : CDACC7C6
AccurateRip v2 signature : 69CB27C3
->Track not present in AccurateRip database.
Statistics
Read error : 0
Jitter error (maybe fixed) : 0
Retry sector count : 0
Damaged sector count : 0

Track 15
Pre-gap length : 00:01:31

CRC32 hash : 6A61EAFC
CRC32 hash (skip zero) : 2D1F57D9
AccurateRip v1 signature : 5169854F
AccurateRip v2 signature : AB2153E8
->Track not present in AccurateRip database.
Statistics
Read error : 0
Jitter error (maybe fixed) : 0
Retry sector count : 0
Damaged sector count : 0

Track 16
Pre-gap length : 00:02:22

CRC32 hash : C0BA028E
CRC32 hash (skip zero) : 68652BD5
AccurateRip v1 signature : B3DA88EC
AccurateRip v2 signature : F1224368
->Track not present in AccurateRip database.
Statistics
Read error : 0
Jitter error (maybe fixed) : 0
Retry sector count : 0
Damaged sector count : 0

Track 17
Pre-gap length : 00:01:50

CRC32 hash : DB1D2955
CRC32 hash (skip zero) : FF341812
AccurateRip v1 signature : E55A5E3A
AccurateRip v2 signature : E33B703F
->Track not present in AccurateRip database.
Statistics
Read error : 0
Jitter error (maybe fixed) : 0
Retry sector count : 0
Damaged sector count : 0

Track 18

CRC32 hash : EB97D802
CRC32 hash (skip zero) : 0671933D
AccurateRip v1 signature : 2335B90F
AccurateRip v2 signature : 8556EDDE
->Track not present in AccurateRip database.
Statistics
Read error : 0
Jitter error (maybe fixed) : 0
Retry sector count : 0
Damaged sector count : 0

Track 19
Pre-gap length : 00:01:35

CRC32 hash : D8BF60D4
CRC32 hash (skip zero) : BFEA4EA3
AccurateRip v1 signature : DA98BFB6
AccurateRip v2 signature : 196BC97C
->Track not present in AccurateRip database.
Statistics
Read error : 0
Jitter error (maybe fixed) : 0
Retry sector count : 0
Damaged sector count : 0

Track 20
Pre-gap length : 00:01:63

CRC32 hash : D8EDF70F
CRC32 hash (skip zero) : 41BE68E0
AccurateRip v1 signature : 984E904C
AccurateRip v2 signature : 1E9B1C9E
->Track not present in AccurateRip database.
Statistics
Read error : 0
Jitter error (maybe fixed) : 0
Retry sector count : 0
Damaged sector count : 0

Track 21
Pre-gap length : 00:02:58

CRC32 hash : 2791F501
CRC32 hash (skip zero) : 5F946DFD
AccurateRip v1 signature : EB2BAAA2
AccurateRip v2 signature : E58BB09D
->Track not present in AccurateRip database.
Statistics
Read error : 0
Jitter error (maybe fixed) : 0
Retry sector count : 0
Damaged sector count : 0

Track 22
Pre-gap length : 00:01:35

CRC32 hash : E4359044
CRC32 hash (skip zero) : FB6835EA
AccurateRip v1 signature : 7F3F662C
AccurateRip v2 signature : 73801645
->Track not present in AccurateRip database.
Statistics
Read error : 0
Jitter error (maybe fixed) : 0
Retry sector count : 0
Damaged sector count : 0

Track 23

CRC32 hash : B9DC5546
CRC32 hash (skip zero) : 58226C2D
AccurateRip v1 signature : 25B75FB7
AccurateRip v2 signature : EDB2841F
->Track not present in AccurateRip database.
Statistics
Read error : 0
Jitter error (maybe fixed) : 0
Retry sector count : 0
Damaged sector count : 0

Track 24
Pre-gap length : 00:01:03

CRC32 hash : 72D1DF7C
CRC32 hash (skip zero) : B4EE5D83
AccurateRip v1 signature : 4D3F6F59
AccurateRip v2 signature : E97716C1
->Track not present in AccurateRip database.
Statistics
Read error : 0
Jitter error (maybe fixed) : 0
Retry sector count : 0
Damaged sector count : 0

Track 25
Pre-gap length : 00:02:07

CRC32 hash : 884EAEBC
CRC32 hash (skip zero) : A7EB0471
AccurateRip v1 signature : 761C114E
AccurateRip v2 signature : 1905BE71
->Track not present in AccurateRip database.
Statistics
Read error : 0
Jitter error (maybe fixed) : 0
Retry sector count : 0
Damaged sector count : 0

Track 26
Pre-gap length : 00:01:23

CRC32 hash : B1B95874
CRC32 hash (skip zero) : 6125D018
AccurateRip v1 signature : 09950FB0
AccurateRip v2 signature : FD31DB92
->Track not present in AccurateRip database.
Statistics
Read error : 0
Jitter error (maybe fixed) : 0
Retry sector count : 0
Damaged sector count : 0

Track 27
Pre-gap length : 00:01:46

CRC32 hash : D7F8ACE9
CRC32 hash (skip zero) : 1E9A7823
AccurateRip v1 signature : F85BD338
AccurateRip v2 signature : AB3E38C7
->Track not present in AccurateRip database.
Statistics
Read error : 0
Jitter error (maybe fixed) : 0
Retry sector count : 0
Damaged sector count : 0

Track 28

CRC32 hash : E6F7C941
CRC32 hash (skip zero) : B0623CBA
AccurateRip v1 signature : E93825E3
AccurateRip v2 signature : 76FFC90E
->Track not present in AccurateRip database.
Statistics
Read error : 0
Jitter error (maybe fixed) : 0
Retry sector count : 0
Damaged sector count : 0

Track 29
Pre-gap length : 00:01:65

CRC32 hash : BE1BB4D1
CRC32 hash (skip zero) : E37E0EE3
AccurateRip v1 signature : 4F21BEDC
AccurateRip v2 signature : EA3C66AA
->Track not present in AccurateRip database.
Statistics
Read error : 0
Jitter error (maybe fixed) : 0
Retry sector count : 0
Damaged sector count : 0

No errors occurred

End of status report
 
X Lossless Decoder version 20121027 (142.1)

XLD extraction logfile from 2012-12-21 13:36:19 +0800

????? / Blade & Soul -The World- Original Soundtrack Disc3

Used drive : MATSHITA DVD-R UJ-898 (revision HE13)

Ripper mode : XLD Secure Ripper
Disable audio cache : OK for the drive with a cache less than 1375KiB
Make use of C2 pointers : NO
Read offset correction : 102
Max retry count : 100
Gap status : Analyzed, Appended

TOC of the extracted CD
Track | Start | Length | Start sector | End sector
---------------------------------------------------------
1 | 00:00:00 | 02:15:37 | 0 | 10161
2 | 02:15:37 | 04:42:27 | 10162 | 31338
3 | 06:57:64 | 02:04:07 | 31339 | 40645
4 | 09:01:71 | 00:32:28 | 40646 | 43073
5 | 09:34:24 | 01:20:40 | 43074 | 49113
6 | 10:54:64 | 01:24:71 | 49114 | 55484
7 | 12:19:60 | 02:29:51 | 55485 | 66710
8 | 14:49:36 | 02:48:47 | 66711 | 79357
9 | 17:38:08 | 03:30:74 | 79358 | 95181
10 | 21:09:07 | 02:55:69 | 95182 | 108375
11 | 24:05:01 | 02:05:46 | 108376 | 117796
12 | 26:10:47 | 03:17:20 | 117797 | 132591
13 | 29:27:67 | 01:00:70 | 132592 | 137161
14 | 30:28:62 | 01:46:38 | 137162 | 145149
15 | 32:15:25 | 02:36:50 | 145150 | 156899
16 | 34:52:00 | 02:05:61 | 156900 | 166335
17 | 36:57:61 | 04:50:46 | 166336 | 188131
18 | 41:48:32 | 05:10:08 | 188132 | 211389
19 | 46:58:40 | 03:49:42 | 211390 | 228606
20 | 50:48:07 | 02:43:59 | 228607 | 240890
21 | 53:31:66 | 03:53:23 | 240891 | 258388
22 | 57:25:14 | 02:55:26 | 258389 | 271539
23 | 60:20:40 | 03:11:73 | 271540 | 285937
24 | 63:32:38 | 00:59:72 | 285938 | 290434
25 | 64:32:35 | 01:49:35 | 290435 | 298644
26 | 66:21:70 | 02:18:71 | 298645 | 309065
27 | 68:40:66 | 02:30:15 | 309066 | 320330
28 | 71:11:06 | 01:52:18 | 320331 | 328748

AccurateRip Summary
Disc not found in AccurateRip DB.

All Tracks
Filename : /Users/deadmaster/Music/Blade & Soul -The World- Original Soundtrack Disc3.flac
CRC32 hash : 5CBFBA1E
CRC32 hash (skip zero) : 34E19C2F
Statistics
Read error : 0
Jitter error (maybe fixed) : 0
Retry sector count : 0
Damaged sector count : 0

Track 01
Pre-gap length : 00:02:00

CRC32 hash : CD731F59
CRC32 hash (skip zero) : C8C1C7A3
AccurateRip v1 signature : 469FDA2B
AccurateRip v2 signature : CA3BB9D9
->Track not present in AccurateRip database.
Statistics
Read error : 0
Jitter error (maybe fixed) : 0
Retry sector count : 0
Damaged sector count : 0

Track 02
Pre-gap length : 00:01:74

CRC32 hash : E2CCB543
CRC32 hash (skip zero) : DC3AB22C
AccurateRip v1 signature : B84B15B4
AccurateRip v2 signature : 69375B6B
->Track not present in AccurateRip database.
Statistics
Read error : 0
Jitter error (maybe fixed) : 0
Retry sector count : 0
Damaged sector count : 0

Track 03
Pre-gap length : 00:01:74

CRC32 hash : A89A2D92
CRC32 hash (skip zero) : 43317B5A
AccurateRip v1 signature : 4531FB43
AccurateRip v2 signature : 841BC72C
->Track not present in AccurateRip database.
Statistics
Read error : 0
Jitter error (maybe fixed) : 0
Retry sector count : 0
Damaged sector count : 0

Track 04
Pre-gap length : 00:01:74

CRC32 hash : 2723D025
CRC32 hash (skip zero) : 334AD5BB
AccurateRip v1 signature : 7F38C538
AccurateRip v2 signature : 7B3B0B8B
->Track not present in AccurateRip database.
Statistics
Read error : 0
Jitter error (maybe fixed) : 0
Retry sector count : 0
Damaged sector count : 0

Track 05
Pre-gap length : 00:01:74

CRC32 hash : F2F44E2F
CRC32 hash (skip zero) : D5E63C86
AccurateRip v1 signature : 05D453F8
AccurateRip v2 signature : 3F54D7B4
->Track not present in AccurateRip database.
Statistics
Read error : 0
Jitter error (maybe fixed) : 0
Retry sector count : 0
Damaged sector count : 0

Track 06
Pre-gap length : 00:01:74

CRC32 hash : 318AD0CA
CRC32 hash (skip zero) : 91E24370
AccurateRip v1 signature : F5D7F6B2
AccurateRip v2 signature : F451D687
->Track not present in AccurateRip database.
Statistics
Read error : 0
Jitter error (maybe fixed) : 0
Retry sector count : 0
Damaged sector count : 0

Track 07
Pre-gap length : 00:01:74

CRC32 hash : E3557DE1
CRC32 hash (skip zero) : BA8A8E18
AccurateRip v1 signature : ACC256DD
AccurateRip v2 signature : 0A52BB23
->Track not present in AccurateRip database.
Statistics
Read error : 0
Jitter error (maybe fixed) : 0
Retry sector count : 0
Damaged sector count : 0

Track 08
Pre-gap length : 00:01:74

CRC32 hash : 31503D19
CRC32 hash (skip zero) : 6F8DBF71
AccurateRip v1 signature : CC066E9D
AccurateRip v2 signature : 151C8EFA
->Track not present in AccurateRip database.
Statistics
Read error : 0
Jitter error (maybe fixed) : 0
Retry sector count : 0
Damaged sector count : 0

Track 09
Pre-gap length : 00:01:74

CRC32 hash : 162807AC
CRC32 hash (skip zero) : B675B7A1
AccurateRip v1 signature : 70F24A02
AccurateRip v2 signature : F193CE1E
->Track not present in AccurateRip database.
Statistics
Read error : 0
Jitter error (maybe fixed) : 0
Retry sector count : 0
Damaged sector count : 0

Track 10
Pre-gap length : 00:02:00

CRC32 hash : 37B26EBE
CRC32 hash (skip zero) : 3DBD3217
AccurateRip v1 signature : E50D39CB
AccurateRip v2 signature : D6B1532B
->Track not present in AccurateRip database.
Statistics
Read error : 0
Jitter error (maybe fixed) : 0
Retry sector count : 0
Damaged sector count : 0

Track 11
Pre-gap length : 00:02:00

CRC32 hash : 20CCF7B1
CRC32 hash (skip zero) : 08DDA8A5
AccurateRip v1 signature : FA1944D7
AccurateRip v2 signature : C5B7D2A6
->Track not present in AccurateRip database.
Statistics
Read error : 0
Jitter error (maybe fixed) : 0
Retry sector count : 0
Damaged sector count : 0

Track 12
Pre-gap length : 00:01:74

CRC32 hash : E30652AF
CRC32 hash (skip zero) : B64BFEBD
AccurateRip v1 signature : 15892298
AccurateRip v2 signature : D28196C2
->Track not present in AccurateRip database.
Statistics
Read error : 0
Jitter error (maybe fixed) : 0
Retry sector count : 0
Damaged sector count : 0

Track 13
Pre-gap length : 00:01:74

CRC32 hash : 8BD9BC94
CRC32 hash (skip zero) : B00BC4E2
AccurateRip v1 signature : 1726F962
AccurateRip v2 signature : 596FBEBA
->Track not present in AccurateRip database.
Statistics
Read error : 0
Jitter error (maybe fixed) : 0
Retry sector count : 0
Damaged sector count : 0

Track 14
Pre-gap length : 00:01:74

CRC32 hash : 2F584424
CRC32 hash (skip zero) : 366F9970
AccurateRip v1 signature : 38012459
AccurateRip v2 signature : 88812446
->Track not present in AccurateRip database.
Statistics
Read error : 0
Jitter error (maybe fixed) : 0
Retry sector count : 0
Damaged sector count : 0

Track 15
Pre-gap length : 00:02:02

CRC32 hash : D30EB2D7
CRC32 hash (skip zero) : 20E21671
AccurateRip v1 signature : 16F7B191
AccurateRip v2 signature : A1960EC7
->Track not present in AccurateRip database.
Statistics
Read error : 0
Jitter error (maybe fixed) : 0
Retry sector count : 0
Damaged sector count : 0

Track 16
Pre-gap length : 00:01:74

CRC32 hash : 867D858E
CRC32 hash (skip zero) : 332CA77C
AccurateRip v1 signature : 2296C9A1
AccurateRip v2 signature : 97D7AB94
->Track not present in AccurateRip database.
Statistics
Read error : 0
Jitter error (maybe fixed) : 0
Retry sector count : 0
Damaged sector count : 0

Track 17
Pre-gap length : 00:02:06

CRC32 hash : 5FD4F54E
CRC32 hash (skip zero) : 986F8BB4
AccurateRip v1 signature : E1F293C2
AccurateRip v2 signature : 0D2E490B
->Track not present in AccurateRip database.
Statistics
Read error : 0
Jitter error (maybe fixed) : 0
Retry sector count : 0
Damaged sector count : 0

Track 18
Pre-gap length : 00:01:74

CRC32 hash : 92BF9411
CRC32 hash (skip zero) : 21BD6998
AccurateRip v1 signature : 51760B7D
AccurateRip v2 signature : F3FC9A5C
->Track not present in AccurateRip database.
Statistics
Read error : 0
Jitter error (maybe fixed) : 0
Retry sector count : 0
Damaged sector count : 0

Track 19
Pre-gap length : 00:01:01

CRC32 hash : 068059D6
CRC32 hash (skip zero) : E4B0F00C
AccurateRip v1 signature : ECD81093
AccurateRip v2 signature : 6E097CE2
->Track not present in AccurateRip database.
Statistics
Read error : 0
Jitter error (maybe fixed) : 0
Retry sector count : 0
Damaged sector count : 0

Track 20
Pre-gap length : 00:01:74

CRC32 hash : 73C8BD6D
CRC32 hash (skip zero) : 2F6ABD7D
AccurateRip v1 signature : 57A5F379
AccurateRip v2 signature : C6326AA7
->Track not present in AccurateRip database.
Statistics
Read error : 0
Jitter error (maybe fixed) : 0
Retry sector count : 0
Damaged sector count : 0

Track 21
Pre-gap length : 00:01:74

CRC32 hash : 54045A9B
CRC32 hash (skip zero) : 38006BF6
AccurateRip v1 signature : 9AF24DC2
AccurateRip v2 signature : 0903691D
->Track not present in AccurateRip database.
Statistics
Read error : 0
Jitter error (maybe fixed) : 0
Retry sector count : 0
Damaged sector count : 0

Track 22
Pre-gap length : 00:01:74

CRC32 hash : 0C39F082
CRC32 hash (skip zero) : 5272EED8
AccurateRip v1 signature : 40003E24
AccurateRip v2 signature : 3519405C
->Track not present in AccurateRip database.
Statistics
Read error : 0
Jitter error (maybe fixed) : 0
Retry sector count : 0
Damaged sector count : 0

Track 23
Pre-gap length : 00:01:74

CRC32 hash : C62A03D2
CRC32 hash (skip zero) : 904921AA
AccurateRip v1 signature : BE7EBC0E
AccurateRip v2 signature : F5250941
->Track not present in AccurateRip database.
Statistics
Read error : 0
Jitter error (maybe fixed) : 0
Retry sector count : 0
Damaged sector count : 0

Track 24
Pre-gap length : 00:01:45

CRC32 hash : 72DBFB6E
CRC32 hash (skip zero) : DA312403
AccurateRip v1 signature : 88B32697
AccurateRip v2 signature : B36E0032
->Track not present in AccurateRip database.
Statistics
Read error : 0
Jitter error (maybe fixed) : 0
Retry sector count : 0
Damaged sector count : 0

Track 25
Pre-gap length : 00:01:11

CRC32 hash : 55BE408E
CRC32 hash (skip zero) : C1AA276A
AccurateRip v1 signature : A7833ADA
AccurateRip v2 signature : 453BB8E5
->Track not present in AccurateRip database.
Statistics
Read error : 0
Jitter error (maybe fixed) : 0
Retry sector count : 0
Damaged sector count : 0

Track 26
Pre-gap length : 00:01:69

CRC32 hash : 0A68CF1D
CRC32 hash (skip zero) : 8BB9CC21
AccurateRip v1 signature : 53E8A0ED
AccurateRip v2 signature : 82B725E9
->Track not present in AccurateRip database.
Statistics
Read error : 0
Jitter error (maybe fixed) : 0
Retry sector count : 0
Damaged sector count : 0

Track 27
Pre-gap length : 00:01:29

CRC32 hash : D942812F
CRC32 hash (skip zero) : 74877B04
AccurateRip v1 signature : F2F38627
AccurateRip v2 signature : 8491771E
->Track not present in AccurateRip database.
Statistics
Read error : 0
Jitter error (maybe fixed) : 0
Retry sector count : 0
Damaged sector count : 0

Track 28
Pre-gap length : 00:01:41

CRC32 hash : 5E47EBC5
CRC32 hash (skip zero) : F678D2D3
AccurateRip v1 signature : 6C28581B
AccurateRip v2 signature : 80BFFF83
->Track not present in AccurateRip database.
Statistics
Read error : 0
Jitter error (maybe fixed) : 0
Retry sector count : 0
Damaged sector count : 0

No errors occurred

End of status report
Дата выпуска: Nov 01, 2013
Композиторы: Chihwan Kim, Changbeom Kim, Hyobeum Lim, Cris Velasco, Jihoon Kim, Lin-G, Junghwan Park, Jamie Christopherson, Junyeop Lee
Страна-производитель диска: Южная Корея
Издатель (лейбл): Sony Music
Номер по каталогу: S90718C
Продолжительность: 02:28:55

Продолжительность: 01:16:15

01 Silverfrost Mountains
02 The Stranger
03 Days of Suffering
04 Shadow in the Woods
05 Trails of Conspiracy
06 Greenwood Thieves' Guild
07 Heart of Steel
08 Endless Peril
09 Into the Maze
10 Twisted Power
11 Another Dimension
12 Entering the Capital
13 The Merchant Guild
14 The Dazzling Hills
15 The Morning Square
16 House of Pleasures
17 Breezewind Park
18 Taking a Walk
19 Unfamiliar Sight
20 Despicable Gang
21 Swindler's Alley
22 Justice of the Loyalist
23 Dreams of a Concubine
24 The Road to the Palace
25 The Lightning Prison
26 Flash of Steel
27 Promise of Two
28 Where the Wind Sleeps ~Song of the Empress~
Продолжительность: 01:12:39

01 The Birchwood Forest
02 The Royal Bodyguard
03 Where the Clouds Stay
04 Over the Memories
05 Epiphany Over Emptiness
06 The Sending
07 Challenged
08 The Sword Dance
09 Weapon of Steel
10 Kingpin of the Haoren
11 Fury of the Godfist
12 Embodiment of Evil
13 Snowjade Palace
14 Souls of the Dead
15 Touching the Sky
16 Adventurers in the Snow
17 Frozen Breath
18 The Snow Beast
19 Adventurers' Rest
20 Snowflake Village
21 White Trails ~Northern Snow Fields~
22 The Rite of Choosing
23 The Black Rose Witch ~Blood of My Brothers~
24 Where the Wind Sleeps (Instrumental)
 
Отсутствует
 
fooCDtect - foobar2000 + auCDtect, baralgin.

auCDtect: CD records authenticity detector, version 0.8.2
Copyright (c) 2004 Oleg Berngardt. All rights reserved.
Copyright (c) 2004 Alexander Djourik. All rights reserved.

mode: 0

===========================================
Track: 02. Changbeom Kim - The Stranger
Quality: CDDA 100%
===========================================
Track: 01. Chihwan Kim - Silverfrost Mountains
Quality: CDDA 99%
===========================================
Track: 03. Chihwan Kim - Days of Suffering
Quality: CDDA 99%
===========================================
Track: 04. Hyobeum Lim - Shadow in The Woods
Quality: CDDA 100%
===========================================
Track: 05. Hyobeum Lim - Trails of Conspiracy
Quality: CDDA 100%
===========================================
Track: 06. Cris Velasco - Greenwood Thieves' Guild
Quality: CDDA 99%
===========================================
Track: 07. Changbeom Kim - Heart of Steel
Quality: CDDA 100%
===========================================
Track: 08. Jihoon Kim - Endless Peril
Quality: CDDA 99%
===========================================
Track: 09. Lin-G - Into The Maze
Quality: CDDA 100%
===========================================
Track: 10. Lin-G - Twisted Power
Quality: CDDA 100%
===========================================
Track: 11. Junghwan Park - Another Dimension
Quality: CDDA 100%
===========================================
Track: 12. Jihoon Kim - Entering the Capital
Quality: CDDA 100%
===========================================
Track: 13. Junghwan Park - The Merchant Guild
Quality: CDDA 99%
===========================================
Track: 14. Lin-G - The Dazzling Hills
Quality: CDDA 100%
===========================================
Track: 15. Lin-G - The Morning Square
Quality: CDDA 99%
===========================================
Track: 16. Lin-G - House of Pleasures
Quality: CDDA 100%
===========================================
Track: 17. Junghwan Park - Breezewind Park
Quality: CDDA 100%
===========================================
Track: 18. Lin-G - Taking a Walk
Quality: CDDA 100%
===========================================
Track: 19. Jihoon Kim - Unfamiliar Sight
Quality: CDDA 100%
===========================================
Track: 20. Lin-G - Despicable Gang
Quality: CDDA 100%
===========================================
Track: 21. Hyobeum Lim - Swindler's Alley
Quality: CDDA 100%
===========================================
Track: 22. Hyobeum Lim - Justice of the Loyalist
Quality: CDDA 100%
===========================================
Track: 23. Lin-G - Dreams of a Concubine
Quality: CDDA 100%
===========================================
Track: 24. Hyobeum Lim - The Road to the Palace
Quality: CDDA 100%
===========================================
Track: 25. Jihoon Kim - The Lightning Prison
Quality: CDDA 100%
===========================================
Track: 26. Jamie Christopherson - Flash of Steel
Quality: CDDA 100%
===========================================
Track: 27. Changbeom Kim - Promise of Two
Quality: CDDA 100%
===========================================
Track: 28. Hyobeum Lim - Fatal Strike
Quality: CDDA 100%
===========================================
Track: 29. Junghwan Park - Where The Wind Sleeps ~Song of the Empress~
Quality: CDDA 100%
===========================================
 
fooCDtect - foobar2000 + auCDtect, baralgin.

auCDtect: CD records authenticity detector, version 0.8.2
Copyright (c) 2004 Oleg Berngardt. All rights reserved.
Copyright (c) 2004 Alexander Djourik. All rights reserved.

mode: 0

===========================================
Track: 01. Hyobeum Lim - The Birchwood Forest
Quality: CDDA 100%
===========================================
Track: 02. Changbeom Kim - The Royal Bodyguard
Quality: CDDA 100%
===========================================
Track: 03. Jihoon Kim - Where The Clouds Stay
Quality: CDDA 100%
===========================================
Track: 04. Junghwan Park - Over the Memories
Quality: CDDA 100%
===========================================
Track: 05. Changbeom Kim - Epiphany Over Emptiness
Quality: CDDA 100%
===========================================
Track: 06. Changbeom Kim - The Sending
Quality: CDDA 100%
===========================================
Track: 07. Lin-G - Challenged
Quality: CDDA 100%
===========================================
Track: 08. Hyobeum Lim - The Sword Dance
Quality: CDDA 100%
===========================================
Track: 09. Changbeom Kim - Weapon of Steel
Quality: CDDA 100%
===========================================
Track: 10. Junyeop Lee - Kingpin of the Haoren
Quality: CDDA 100%
===========================================
Track: 11. Junghwan Park - Fury of the Godfist
Quality: CDDA 100%
===========================================
Track: 12. Hyobeum Lim - Embodiment of Evil
Quality: CDDA 100%
===========================================
Track: 13. Cris Velasco - Snowjade Palace
Quality: CDDA 100%
===========================================
Track: 14. Jamie Christopherson - Souls of the Dead
Quality: CDDA 100%
===========================================
Track: 15. Chihwan Kim - Touching the Sky
Quality: CDDA 100%
===========================================
Track: 16. Chihwan Kim - Adventurers in the Snow
Quality: CDDA 100%
===========================================
Track: 17. Jihoon Kim - Frozen Breath
Quality: CDDA 99%
===========================================
Track: 18. Jihoon Kim - The Snow Beast
Quality: CDDA 99%
===========================================
Track: 19. Chihwan Kim - Adventurers' Rest
Quality: CDDA 100%
===========================================
Track: 20. Lin-G - Snowflake Village
Quality: CDDA 100%
===========================================
Track: 21. Junghwan Park - White Trails ~Northern Snow Fields~
Quality: CDDA 100%
===========================================
Track: 22. Chihwan Kim - The Rite of Choosing
Quality: CDDA 100%
===========================================
Track: 23. Jamie Christopherson - The Black Rose Witch ~Blood of My Brothers~
Quality: CDDA 100%
===========================================
Track: 24. Junghwan Park - Where the Wind Sleeps (Instrumental)
Quality: CDDA 100%
===========================================

info [Профиль]  [ЛС] 

Hobbit38

Пол: Пол:Муж

Стаж: 3 года 4 месяца

Сообщений: 115

Россия
Рейтинг

post 22-Май-2017 17:17 (спустя 1 минута) [-]0[+]

[Цитировать] 



Blade & Soul - The Story
Первое издание Саундтрека к MMORPG Blade & Soul.
Мощное, насыщенное звучание живых инструментов исполняющих музыку в разнообразных стилях.
Данный ОСТ получил большое количество наград и позднее NC Soft выпустили более обширное издание "Blade & Soul - The World" включающее в себя более 85 композиций. Оба издания содержат разные композиции и взаимодополняют друг друга.
Blade & Soul - The World
'The World'' это второе издание по игре Blade & Soul, 3 диска содержат в себе более полный набор саундтреков, которые сопровождают игрока на протяжении всего путешествия по трём континентам: Диковинный лес - 04-22 уровень, Великая Пустыня - 23-36 уровень и Равнина Изобилия - локация для персонажей выше 36 уровня.

Для красочного звучания записей было использовано 52 струнных инструмента, которые были собраны с разных стран.

Здесь можно услышать и рок, и электро-поп музыку, ничто не стало исключением.

Стоит отметить, что для записи традиционной корейской музыки были приглашены профессиональные музыканты.

NCsoft установил новое музыкальное сопровождение, позволяя игроку окунуться в мир живого звука. "Игроки B&S смогут прочувствовать всю яркую и длинную историю главного героя, благодаря Панораме музыки, где все саундтреки выстроены в хронологическом порядке".
Blade & Soul - Silverfrost Mountains
Этот альбом посвящён именно тем ОСТ’ам, которые мы услышали в Белых Горах, шедшие по дороге мести за мастера и свою школу, мы отважно сражались с монстрами, а в поддержку слышали много электронных, этнических, в частности даже рок и традиционную музыку пианино, всё это комбинировано и собрано в два компакт диска.

Альбом содержит 51 трек и выпущен в ограниченном издании.

info [Профиль]  [ЛС] 

Hobbit38

Пол: Пол:Муж

Стаж: 3 года 4 месяца

Сообщений: 115

Россия
Рейтинг

post 31-Май-2017 18:50 (спустя 9 дней) [-]0[+]

[Цитировать] 

del
info [Профиль]  [ЛС] 
Показать сообщения:    
Ответить на тему

Текущее время: 24-Сен 21:49

Часовой пояс: GMT + 4



Вы не можете начинать темы
Вы не можете отвечать на сообщения
Вы не можете редактировать свои сообщения
Вы не можете удалять свои сообщения
Вы не можете голосовать в опросах
Вы не можете прикреплять файлы к сообщениям
Вы не можете скачивать файлы