Ошибка
Загрузка...

(Score) Command & Conquer Soundtrack Collection (by Frank Klepacki, Jarrid Mendelson, James Hannigan, Tim Wynn, Mikael Sandgren) - 1997-2008 г., FLAC (tracks), lossless

Ответить на тему
 
Автор Сообщение

Hobbit38

Пол: Пол:Муж

Стаж: 3 года 5 месяцев

Сообщений: 165

Россия
Рейтинг

post 20-Май-2017 09:40 1[+]

[Цитировать] 


Command & Conquer Soundtrack Collection
Жанр: Score | Страна: USA | Год выпуска: 1997-2008

Композиторы: Various Artists (см. спойлеры)

Аудиокодек: FLAC (.flac) | Тип рипа: tracks | Битрейт аудио: lossless

Продолжительность: 07:01:38

Композитор: Frank Klepacki
Год выпуска диска: 1996
Страна-производитель диска: USA
Продолжительность: 01:12:21

01. Act on Instinct (2:53)
02. No Mercy (3:21)
03. Industrial One (2:53)
04. Iron Fist (3:30)
05. We Will Stop Them (3:10)
06. Radio (3:01)
07. On the Prowl (3:02)
08. Re-con (4:23)
09. Drone (4:32)
10. In the Line of Fire (2:05)
11. Prepare for Battle (3:29)
12. Depth Charge (4:15)
13. Rain in the Night (2:34)
14. Creeping Upon (3:38)
15. Target (2:53)
16. Just Do It Up (2:23)
17. C&C Thang (3:13)
18. To Be Feared (2:46)
19. Drill (4:27)
20. Full Stop (3:01)
21. In Trouble (3:32)
22. Air Strike (3:18)
Exact Audio Copy V1.0 beta 3 from 29. August 2011
EAC extraction logfile from 19. October 2013, 19:28
Frank Klepacki / Command & Conquer Soundtrack Collection (Disc 1 ~ Command & Conquer)
Used drive : PIONEER DVD-RW DVR-216D Adapter: 3 ID: 0
Read mode : Secure
Utilize accurate stream : Yes
Defeat audio cache : Yes
Make use of C2 pointers : No
Read offset correction : 96
Overread into Lead-In and Lead-Out : No
Fill up missing offset samples with silence : Yes
Delete leading and trailing silent blocks : No
Null samples used in CRC calculations : Yes
Used interface : Native Win32 interface for Win NT & 2000
Gap handling : Appended to previous track
Used output format : User Defined Encoder
Selected bitrate : 1024 kBit/s
Quality : High
Add ID3 tag : No
Command line compressor : C:\Program Files (x86)\FLAC\flac.exe
Additional command line options : -8 -V -T "ARTIST=%artist%" -T "TITLE=%title%" -T "ALBUM=%albumtitle%" -T "DATE=%year%" -T "TRACKNUMBER=%tracknr%" -T "TOTALTRACKS=%numtracks%" -T "GENRE=%genre%" -T "ALBUMARTIST=%albumartist%" -T "ALBUM ARTIST=%albumartist%" -T "COMMENT=EAC Secure Mode, Test & Copy, AccurateRip, FLAC 1.2.1b -8" %source%
TOC of the extracted CD
Track | Start | Length | Start sector | End sector
---------------------------------------------------------
1 | 0:00.00 | 2:52.70 | 0 | 12969
2 | 2:52.70 | 3:21.30 | 12970 | 28074
3 | 6:14.25 | 2:53.37 | 28075 | 41086
4 | 9:07.62 | 3:30.35 | 41087 | 56871
5 | 12:38.22 | 3:09.58 | 56872 | 71104
6 | 15:48.05 | 3:01.25 | 71105 | 84704
7 | 18:49.30 | 3:02.17 | 84705 | 98371
8 | 21:51.47 | 4:22.63 | 98372 | 118084
9 | 26:14.35 | 4:32.10 | 118085 | 138494
10 | 30:46.45 | 2:04.70 | 138495 | 147864
11 | 32:51.40 | 3:29.10 | 147865 | 163549
12 | 36:20.50 | 4:15.00 | 163550 | 182674
13 | 40:35.50 | 2:34.32 | 182675 | 194256
14 | 43:10.07 | 3:37.65 | 194257 | 210596
15 | 46:47.72 | 2:52.58 | 210597 | 223554
16 | 49:40.55 | 2:22.70 | 223555 | 234274
17 | 52:03.50 | 3:12.67 | 234275 | 248741
18 | 55:16.42 | 2:45.63 | 248742 | 261179
19 | 58:02.30 | 4:27.15 | 261180 | 281219
20 | 62:29.45 | 3:01.27 | 281220 | 294821
21 | 65:30.72 | 3:32.23 | 294822 | 310744
22 | 69:03.20 | 3:17.67 | 310745 | 325586
Track 1
Filename E:\Command & Conquer Soundtrack Collection (2000) [FLAC]\Disc 1 ~ Command & Conquer\01 - Act on Instinct.wav
Pre-gap length 0:00:02.00
Peak level 97.7 %
Extraction speed 4.6 X
Track quality 100.0 %
Test CRC AC5ACCD3
Copy CRC AC5ACCD3
Accurately ripped (confidence 2) [D87B7223] (AR v2)
Copy OK
Track 2
Filename E:\Command & Conquer Soundtrack Collection (2000) [FLAC]\Disc 1 ~ Command & Conquer\02 - No Mercy.wav
Pre-gap length 0:00:01.43
Peak level 97.4 %
Extraction speed 5.0 X
Track quality 100.0 %
Test CRC DDD04845
Copy CRC DDD04845
Accurately ripped (confidence 2) [50CE7615] (AR v2)
Copy OK
Track 3
Filename E:\Command & Conquer Soundtrack Collection (2000) [FLAC]\Disc 1 ~ Command & Conquer\03 - Industrial One.wav
Pre-gap length 0:00:01.43
Peak level 97.4 %
Extraction speed 5.2 X
Track quality 100.0 %
Test CRC C5B2336E
Copy CRC C5B2336E
Accurately ripped (confidence 2) [0D0F8BF6] (AR v2)
Copy OK
Track 4
Filename E:\Command & Conquer Soundtrack Collection (2000) [FLAC]\Disc 1 ~ Command & Conquer\04 - Iron Fist.wav
Pre-gap length 0:00:01.32
Peak level 99.1 %
Extraction speed 4.9 X
Track quality 99.9 %
Test CRC 8948694B
Copy CRC 8948694B
Accurately ripped (confidence 2) [1A5AF166] (AR v2)
Copy OK
Track 5
Filename E:\Command & Conquer Soundtrack Collection (2000) [FLAC]\Disc 1 ~ Command & Conquer\05 - We Will Stop Them.wav
Peak level 97.4 %
Extraction speed 5.9 X
Track quality 100.0 %
Test CRC 130C7144
Copy CRC 130C7144
Accurately ripped (confidence 2) [122A39B7] (AR v2)
Copy OK
Track 6
Filename E:\Command & Conquer Soundtrack Collection (2000) [FLAC]\Disc 1 ~ Command & Conquer\06 - Radio.wav
Pre-gap length 0:00:01.43
Peak level 98.2 %
Extraction speed 6.1 X
Track quality 100.0 %
Test CRC E190BC72
Copy CRC E190BC72
Accurately ripped (confidence 2) [5AB0218F] (AR v2)
Copy OK
Track 7
Filename E:\Command & Conquer Soundtrack Collection (2000) [FLAC]\Disc 1 ~ Command & Conquer\07 - On the Prowl.wav
Pre-gap length 0:00:01.13
Peak level 97.8 %
Extraction speed 5.4 X
Track quality 99.9 %
Test CRC F98C189B
Copy CRC F98C189B
Accurately ripped (confidence 2) [F0A13481] (AR v2)
Copy OK
Track 8
Filename E:\Command & Conquer Soundtrack Collection (2000) [FLAC]\Disc 1 ~ Command & Conquer\08 - Re-con.wav
Pre-gap length 0:00:01.22
Peak level 98.1 %
Extraction speed 7.0 X
Track quality 100.0 %
Test CRC 46CCFFE4
Copy CRC 46CCFFE4
Accurately ripped (confidence 2) [42B23897] (AR v2)
Copy OK
Track 9
Filename E:\Command & Conquer Soundtrack Collection (2000) [FLAC]\Disc 1 ~ Command & Conquer\09 - Drone.wav
Pre-gap length 0:00:01.43
Peak level 97.9 %
Extraction speed 7.4 X
Track quality 100.0 %
Test CRC 504C9E6D
Copy CRC 504C9E6D
Accurately ripped (confidence 2) [6075B1A9] (AR v2)
Copy OK
Track 10
Filename E:\Command & Conquer Soundtrack Collection (2000) [FLAC]\Disc 1 ~ Command & Conquer\10 - In the Line of Fire.wav
Pre-gap length 0:00:01.43
Peak level 98.3 %
Extraction speed 6.6 X
Track quality 100.0 %
Test CRC BD5E44F4
Copy CRC BD5E44F4
Accurately ripped (confidence 2) [CE6058BB] (AR v2)
Copy OK
Track 11
Filename E:\Command & Conquer Soundtrack Collection (2000) [FLAC]\Disc 1 ~ Command & Conquer\11 - Prepare for Battle.wav
Pre-gap length 0:00:01.43
Peak level 97.7 %
Extraction speed 6.5 X
Track quality 99.9 %
Test CRC 9B467EAB
Copy CRC 9B467EAB
Accurately ripped (confidence 2) [6E4D54F1] (AR v2)
Copy OK
Track 12
Filename E:\Command & Conquer Soundtrack Collection (2000) [FLAC]\Disc 1 ~ Command & Conquer\12 - Depth Charge.wav
Pre-gap length 0:00:01.23
Peak level 100.0 %
Extraction speed 7.9 X
Track quality 100.0 %
Test CRC 2121CCA3
Copy CRC 2121CCA3
Accurately ripped (confidence 2) [D1A5DE7A] (AR v2)
Copy OK
Track 13
Filename E:\Command & Conquer Soundtrack Collection (2000) [FLAC]\Disc 1 ~ Command & Conquer\13 - Rain in the Night.wav
Pre-gap length 0:00:01.43
Peak level 98.0 %
Extraction speed 7.4 X
Track quality 100.0 %
Test CRC 72B70A1A
Copy CRC 72B70A1A
Accurately ripped (confidence 2) [7C44B5B0] (AR v2)
Copy OK
Track 14
Filename E:\Command & Conquer Soundtrack Collection (2000) [FLAC]\Disc 1 ~ Command & Conquer\14 - Creeping Upon.wav
Pre-gap length 0:00:01.42
Peak level 97.7 %
Extraction speed 8.1 X
Track quality 100.0 %
Test CRC 1D931BA8
Copy CRC 1D931BA8
Accurately ripped (confidence 2) [1122486F] (AR v2)
Copy OK
Track 15
Filename E:\Command & Conquer Soundtrack Collection (2000) [FLAC]\Disc 1 ~ Command & Conquer\15 - Target.wav
Pre-gap length 0:00:01.42
Peak level 97.7 %
Extraction speed 8.0 X
Track quality 100.0 %
Test CRC 8E1F8172
Copy CRC 8E1F8172
Accurately ripped (confidence 2) [44396570] (AR v2)
Copy OK
Track 16
Filename E:\Command & Conquer Soundtrack Collection (2000) [FLAC]\Disc 1 ~ Command & Conquer\16 - Just Do It Up.wav
Pre-gap length 0:00:01.43
Peak level 97.8 %
Extraction speed 7.8 X
Track quality 100.0 %
Test CRC 9F80C0F2
Copy CRC 9F80C0F2
Accurately ripped (confidence 2) [828DDA8E] (AR v2)
Copy OK
Track 17
Filename E:\Command & Conquer Soundtrack Collection (2000) [FLAC]\Disc 1 ~ Command & Conquer\17 - C&C Thang.wav
Pre-gap length 0:00:01.43
Peak level 98.1 %
Extraction speed 7.3 X
Track quality 99.9 %
Test CRC 6CBEB542
Copy CRC 6CBEB542
Accurately ripped (confidence 2) [FE573653] (AR v2)
Copy OK
Track 18
Filename E:\Command & Conquer Soundtrack Collection (2000) [FLAC]\Disc 1 ~ Command & Conquer\18 - To Be Feared.wav
Pre-gap length 0:00:01.52
Peak level 97.7 %
Extraction speed 8.3 X
Track quality 100.0 %
Test CRC A1E14F28
Copy CRC A1E14F28
Accurately ripped (confidence 2) [0C0555B0] (AR v2)
Copy OK
Track 19
Filename E:\Command & Conquer Soundtrack Collection (2000) [FLAC]\Disc 1 ~ Command & Conquer\19 - Drill.wav
Pre-gap length 0:00:04.48
Peak level 98.2 %
Extraction speed 9.2 X
Track quality 100.0 %
Test CRC DEB691E0
Copy CRC DEB691E0
Accurately ripped (confidence 2) [A9CB7132] (AR v2)
Copy OK
Track 20
Filename E:\Command & Conquer Soundtrack Collection (2000) [FLAC]\Disc 1 ~ Command & Conquer\20 - Full Stop.wav
Pre-gap length 0:00:02.10
Peak level 98.1 %
Extraction speed 8.8 X
Track quality 100.0 %
Test CRC 53B0214D
Copy CRC 53B0214D
Accurately ripped (confidence 2) [6BC36A89] (AR v2)
Copy OK
Track 21
Filename E:\Command & Conquer Soundtrack Collection (2000) [FLAC]\Disc 1 ~ Command & Conquer\21 - In Trouble.wav
Pre-gap length 0:00:02.02
Peak level 97.9 %
Extraction speed 9.2 X
Track quality 100.0 %
Test CRC 35D0C023
Copy CRC 35D0C023
Accurately ripped (confidence 2) [EEFA8B76] (AR v2)
Copy OK
Track 22
Filename E:\Command & Conquer Soundtrack Collection (2000) [FLAC]\Disc 1 ~ Command & Conquer\22 - Air Strike.wav
Pre-gap length 0:00:01.18
Peak level 98.2 %
Extraction speed 7.9 X
Track quality 99.9 %
Test CRC 520B8338
Copy CRC 520B8338
Accurately ripped (confidence 2) [DDE2B170] (AR v2)
Copy OK
All tracks accurately ripped
No errors occurred
End of status report
==== Log checksum D74CF549B55F08247EE405E87C24B8BF4FF01588DDDA7A31C7863C98B0D02131 ====
Композитор: Frank Klepacki
Год выпуска диска: 1996
Страна-производитель диска: USA
Продолжительность: 01:12:26

01. Hell March (6:24)
02. Radio (4:05)
03. Crush (3:49)
04. Roll Out (3:55)
05. Mud (4:49)
06. Twin Cannon (3:56)
07. Face the Enemy (5:36)
08. Run (5:13)
09. Terminate (5:21)
10. Big Foot (5:15)
11. Workmen (4:44)
12. Militant Force (1:50)
13. Dense (5:03)
14. Vector (4:18)
15. Smash (8:08)
Exact Audio Copy V1.0 beta 3 from 29. August 2011
EAC extraction logfile from 19. October 2013, 20:04
Frank Klepacki / Command & Conquer Soundtrack Collection (Disc 2 ~ Command & Conquer: Red Alert)
Used drive : PIONEER DVD-RW DVR-216D Adapter: 3 ID: 0
Read mode : Secure
Utilize accurate stream : Yes
Defeat audio cache : Yes
Make use of C2 pointers : No
Read offset correction : 96
Overread into Lead-In and Lead-Out : No
Fill up missing offset samples with silence : Yes
Delete leading and trailing silent blocks : No
Null samples used in CRC calculations : Yes
Used interface : Native Win32 interface for Win NT & 2000
Gap handling : Appended to previous track
Used output format : User Defined Encoder
Selected bitrate : 1024 kBit/s
Quality : High
Add ID3 tag : No
Command line compressor : C:\Program Files (x86)\FLAC\flac.exe
Additional command line options : -8 -V -T "ARTIST=%artist%" -T "TITLE=%title%" -T "ALBUM=%albumtitle%" -T "DATE=%year%" -T "TRACKNUMBER=%tracknr%" -T "TOTALTRACKS=%numtracks%" -T "GENRE=%genre%" -T "ALBUMARTIST=%albumartist%" -T "ALBUM ARTIST=%albumartist%" -T "COMMENT=EAC Secure Mode, Test & Copy, AccurateRip, FLAC 1.2.1b -8" %source%
TOC of the extracted CD
Track | Start | Length | Start sector | End sector
---------------------------------------------------------
1 | 0:00.00 | 6:24.15 | 0 | 28814
2 | 6:24.15 | 4:05.17 | 28815 | 47206
3 | 10:29.32 | 3:49.35 | 47207 | 64416
4 | 14:18.67 | 3:54.73 | 64417 | 82039
5 | 18:13.65 | 4:48.64 | 82040 | 103703
6 | 23:02.54 | 3:55.46 | 103704 | 121374
7 | 26:58.25 | 5:36.22 | 121375 | 146596
8 | 32:34.47 | 5:13.00 | 146597 | 170071
9 | 37:47.47 | 5:20.43 | 170072 | 194114
10 | 43:08.15 | 5:15.15 | 194115 | 217754
11 | 48:23.30 | 4:44.22 | 217755 | 239076
12 | 53:07.52 | 1:50.08 | 239077 | 247334
13 | 54:57.60 | 5:02.47 | 247335 | 270031
14 | 60:00.32 | 4:18.23 | 270032 | 289404
15 | 64:18.55 | 8:07.47 | 289405 | 325976
Track 1
Filename E:\Command & Conquer Soundtrack Collection (2000) [FLAC]\Disc 2 ~ Command & Conquer Red Alert\01 - Hell March.wav
Pre-gap length 0:00:02.00
Peak level 95.8 %
Extraction speed 5.3 X
Track quality 100.0 %
Test CRC 98EC04F6
Copy CRC 98EC04F6
Accurately ripped (confidence 3) [75F810D4] (AR v2)
Copy OK
Track 2
Filename E:\Command & Conquer Soundtrack Collection (2000) [FLAC]\Disc 2 ~ Command & Conquer Red Alert\02 - Radio.wav
Pre-gap length 0:00:01.63
Peak level 100.0 %
Extraction speed 5.6 X
Track quality 100.0 %
Test CRC 87E74F05
Copy CRC 87E74F05
Accurately ripped (confidence 3) [D784999E] (AR v2)
Copy OK
Track 3
Filename E:\Command & Conquer Soundtrack Collection (2000) [FLAC]\Disc 2 ~ Command & Conquer Red Alert\03 - Crush.wav
Pre-gap length 0:00:01.05
Peak level 100.0 %
Extraction speed 5.9 X
Track quality 100.0 %
Test CRC 0816569D
Copy CRC 0816569D
Accurately ripped (confidence 3) [89F6E337] (AR v2)
Copy OK
Track 4
Filename E:\Command & Conquer Soundtrack Collection (2000) [FLAC]\Disc 2 ~ Command & Conquer Red Alert\04 - Roll Out.wav
Pre-gap length 0:00:02.40
Peak level 98.7 %
Extraction speed 6.3 X
Track quality 100.0 %
Test CRC 194771ED
Copy CRC 194771ED
Accurately ripped (confidence 3) [3CDF5B33] (AR v2)
Copy OK
Track 5
Filename E:\Command & Conquer Soundtrack Collection (2000) [FLAC]\Disc 2 ~ Command & Conquer Red Alert\05 - Mud.wav
Pre-gap length 0:00:02.00
Peak level 94.7 %
Extraction speed 6.1 X
Track quality 99.9 %
Test CRC 85D602A2
Copy CRC 85D602A2
Accurately ripped (confidence 3) [52A3A036] (AR v2)
Copy OK
Track 6
Filename E:\Command & Conquer Soundtrack Collection (2000) [FLAC]\Disc 2 ~ Command & Conquer Red Alert\06 - Twin Cannon.wav
Pre-gap length 0:00:02.27
Peak level 93.6 %
Extraction speed 6.9 X
Track quality 100.0 %
Test CRC 64DEE154
Copy CRC 64DEE154
Accurately ripped (confidence 3) [8A9DB7AB] (AR v2)
Copy OK
Track 7
Filename E:\Command & Conquer Soundtrack Collection (2000) [FLAC]\Disc 2 ~ Command & Conquer Red Alert\07 - Face the Enemy.wav
Peak level 99.4 %
Extraction speed 6.9 X
Track quality 99.9 %
Test CRC 377A7F7F
Copy CRC 377A7F7F
Accurately ripped (confidence 3) [11C56798] (AR v2)
Copy OK
Track 8
Filename E:\Command & Conquer Soundtrack Collection (2000) [FLAC]\Disc 2 ~ Command & Conquer Red Alert\08 - Run.wav
Peak level 99.7 %
Extraction speed 7.9 X
Track quality 100.0 %
Test CRC 81CE86D3
Copy CRC 81CE86D3
Accurately ripped (confidence 3) [A1816FC3] (AR v2)
Copy OK
Track 9
Filename E:\Command & Conquer Soundtrack Collection (2000) [FLAC]\Disc 2 ~ Command & Conquer Red Alert\09 - Terminate.wav
Pre-gap length 0:00:01.35
Peak level 98.9 %
Extraction speed 8.3 X
Track quality 100.0 %
Test CRC 22122369
Copy CRC 22122369
Accurately ripped (confidence 3) [9781997D] (AR v2)
Copy OK
Track 10
Filename E:\Command & Conquer Soundtrack Collection (2000) [FLAC]\Disc 2 ~ Command & Conquer Red Alert\10 - Big Foot.wav
Pre-gap length 0:00:02.25
Peak level 96.2 %
Extraction speed 8.6 X
Track quality 100.0 %
Test CRC 39532F2F
Copy CRC 39532F2F
Accurately ripped (confidence 3) [0620CB08] (AR v2)
Copy OK
Track 11
Filename E:\Command & Conquer Soundtrack Collection (2000) [FLAC]\Disc 2 ~ Command & Conquer Red Alert\11 - Workmen.wav
Pre-gap length 0:00:01.03
Peak level 100.0 %
Extraction speed 8.8 X
Track quality 100.0 %
Test CRC 1E2A79DA
Copy CRC 1E2A79DA
Accurately ripped (confidence 3) [16F6FAE8] (AR v2)
Copy OK
Track 12
Filename E:\Command & Conquer Soundtrack Collection (2000) [FLAC]\Disc 2 ~ Command & Conquer Red Alert\12 - Militant Force.wav
Peak level 100.0 %
Extraction speed 7.5 X
Track quality 100.0 %
Test CRC A2912440
Copy CRC A2912440
Accurately ripped (confidence 3) [9CC21BEE] (AR v2)
Copy OK
Track 13
Filename E:\Command & Conquer Soundtrack Collection (2000) [FLAC]\Disc 2 ~ Command & Conquer Red Alert\13 - Dense.wav
Peak level 89.7 %
Extraction speed 9.2 X
Track quality 100.0 %
Test CRC DAB83AC4
Copy CRC DAB83AC4
Accurately ripped (confidence 3) [54E5DFD8] (AR v2)
Copy OK
Track 14
Filename E:\Command & Conquer Soundtrack Collection (2000) [FLAC]\Disc 2 ~ Command & Conquer Red Alert\14 - Vector.wav
Pre-gap length 0:00:02.05
Peak level 99.9 %
Extraction speed 8.2 X
Track quality 99.9 %
Test CRC 1319E95F
Copy CRC 1319E95F
Accurately ripped (confidence 3) [0B929AA2] (AR v2)
Copy OK
Track 15
Filename E:\Command & Conquer Soundtrack Collection (2000) [FLAC]\Disc 2 ~ Command & Conquer Red Alert\15 - Smash.wav
Peak level 100.0 %
Extraction speed 10.1 X
Track quality 100.0 %
Test CRC 169125ED
Copy CRC 169125ED
Accurately ripped (confidence 3) [AD619CA4] (AR v2)
Copy OK
All tracks accurately ripped
No errors occurred
End of status report
==== Log checksum AFF3EDBF7C79500694854361549F4D72A1861C50BFA28F13B60FFD6D2211FAB5 ====
Композитор: Frank Klepacki
Год выпуска диска: 1997
Страна-производитель диска: USA
Продолжительность: 00:21:29

01. Radio 2 Remix (3:32)
02. Shut It (4:29)
03. Chaos 2 (4:15)
04. Voice Rhythm 2 (4:22)
05. Backstab (4:48)

P.S. Под разными названиями саундтреков и треков на дисках Red Alert - Counterstrike и Red Alert - The Aftermath находится одинаковая музыка.
Exact Audio Copy V0.99 prebeta 5 from 4. May 2009
EAC extraction logfile from 31. May 2010, 23:58
Frank Klepacki / Command & Conquer: Red Alert - Counterstrike
Used drive : ATAPI DVD A DH16A1L Adapter: 1 ID: 0
Read mode : Secure
Utilize accurate stream : Yes
Defeat audio cache : Yes
Make use of C2 pointers : No
Read offset correction : 6
Overread into Lead-In and Lead-Out : No
Fill up missing offset samples with silence : Yes
Delete leading and trailing silent blocks : No
Null samples used in CRC calculations : Yes
Used interface : Native Win32 interface for Win NT & 2000
Gap handling : Appended to previous track
Used output format : User Defined Encoder
Selected bitrate : 128 kBit/s
Quality : High
Add ID3 tag : No
Command line compressor : C:\Program Files (x86)\Exact Audio Copy\Flac\flac.exe
Additional command line options : -V -8 -T "artist=%a" -T "title=%t" -T "album=%g" -T "date=%y" -T "tracknumber=%n" -T "genre=%m" %s
TOC of the extracted CD
Track | Start | Length | Start sector | End sector
---------------------------------------------------------
1 | 0:00.00 | 35:28.35 | 0 | 159634
2 | 35:28.35 | 3:32.62 | 159635 | 175596
3 | 39:01.22 | 4:29.18 | 175597 | 195789
4 | 43:30.40 | 4:15.35 | 195790 | 214949
5 | 47:46.00 | 4:22.63 | 214950 | 234662
6 | 52:08.63 | 4:48.68 | 234663 | 256330
Track 2
Filename C:\EAC\02 - Radio 2 Remix.wav
Pre-gap length 0:35:28.41
Peak level 100.0 %
Track quality 99.9 %
Test CRC 7365EE3F
Copy CRC 7365EE3F
Track not present in AccurateRip database
Copy OK
Track 3
Filename C:\EAC\03 - Shut It.wav
Pre-gap length 0:00:01.98
Peak level 100.0 %
Track quality 100.0 %
Test CRC D010A88B
Copy CRC D010A88B
Track not present in AccurateRip database
Copy OK
Track 4
Filename C:\EAC\04 - Chaos 2.wav
Pre-gap length 0:00:01.98
Peak level 100.0 %
Track quality 100.0 %
Test CRC 576C2E3E
Copy CRC 576C2E3E
Track not present in AccurateRip database
Copy OK
Track 5
Filename C:\EAC\05 - Voice Rhythm 2.wav
Pre-gap length 0:00:01.98
Peak level 98.1 %
Track quality 100.0 %
Test CRC 01930209
Copy CRC 01930209
Track not present in AccurateRip database
Copy OK
Track 6
Filename C:\EAC\06 - Backstab.wav
Pre-gap length 0:00:01.98
Peak level 100.0 %
Track quality 99.9 %
Test CRC 0207F17D
Copy CRC 0207F17D
Track not present in AccurateRip database
Copy OK
None of the tracks are present in the AccurateRip database
No errors occurred
End of status report
Композитор: Frank Klepacki, Jarrid Mendelson
Год выпуска диска: 1999
Страна-производитель диска: USA
Продолжительность: 01:06:06

01. Timebomb (2:08)
02. Pharotek (4:41)
03. Lone Trooper (4:42)
04. Scouting (4:17)
05. Infrared (4:31)
06. Flurry (4:15)
07. Mutants (4:16)
08. Gloom (4:02)
09. Heroism (4:03)
10. Approach (4:43)
11. Dusk Hour (4:18)
12. The Defense (4:05)
13. Mad Rap (4:33)
14. Valves (4:23)
15. What Lurks (5:18)
16. Score (1:49)
Exact Audio Copy V1.0 beta 3 from 29. August 2011
EAC extraction logfile from 19. October 2013, 20:48
Frank Klepacki / Command & Conquer Soundtrack Collection (Disc 3 ~ Command & Conquer: Tiberian Sun)
Used drive : PIONEER DVD-RW DVR-216D Adapter: 3 ID: 0
Read mode : Secure
Utilize accurate stream : Yes
Defeat audio cache : Yes
Make use of C2 pointers : No
Read offset correction : 96
Overread into Lead-In and Lead-Out : No
Fill up missing offset samples with silence : Yes
Delete leading and trailing silent blocks : No
Null samples used in CRC calculations : Yes
Used interface : Native Win32 interface for Win NT & 2000
Gap handling : Appended to previous track
Used output format : User Defined Encoder
Selected bitrate : 1024 kBit/s
Quality : High
Add ID3 tag : No
Command line compressor : C:\Program Files (x86)\FLAC\flac.exe
Additional command line options : -8 -V -T "ARTIST=%artist%" -T "TITLE=%title%" -T "ALBUM=%albumtitle%" -T "DATE=%year%" -T "TRACKNUMBER=%tracknr%" -T "TOTALTRACKS=%numtracks%" -T "GENRE=%genre%" -T "ALBUMARTIST=%albumartist%" -T "ALBUM ARTIST=%albumartist%" -T "COMMENT=EAC Secure Mode, Test & Copy, AccurateRip, FLAC 1.2.1b -8" %source%
TOC of the extracted CD
Track | Start | Length | Start sector | End sector
---------------------------------------------------------
1 | 0:00.00 | 2:07.61 | 0 | 9585
2 | 2:07.61 | 4:41.18 | 9586 | 30678
3 | 6:49.04 | 4:42.23 | 30679 | 51851
4 | 11:31.27 | 4:17.30 | 51852 | 71156
5 | 15:48.57 | 4:31.19 | 71157 | 91500
6 | 20:20.01 | 4:15.23 | 91501 | 110648
7 | 24:35.24 | 4:15.59 | 110649 | 129832
8 | 28:51.08 | 4:01.61 | 129833 | 147968
9 | 32:52.69 | 4:03.24 | 147969 | 166217
10 | 36:56.18 | 4:43.30 | 166218 | 187472
11 | 41:39.48 | 4:18.17 | 187473 | 206839
12 | 45:57.65 | 4:05.29 | 206840 | 225243
13 | 50:03.19 | 4:32.74 | 225244 | 245717
14 | 54:36.18 | 4:22.58 | 245718 | 265425
15 | 58:59.01 | 5:17.59 | 265426 | 289259
16 | 64:16.60 | 1:49.28 | 289260 | 297462
Track 1
Filename E:\Command & Conquer Soundtrack Collection (2000) [FLAC]\Disc 3 ~ Command & Conquer Tiberian Sun\01 - Timebomb.wav
Pre-gap length 0:00:02.00
Peak level 75.3 %
Extraction speed 3.3 X
Track quality 99.9 %
Test CRC 7C1B82F1
Copy CRC 7C1B82F1
Accurately ripped (confidence 13) [CD3EB1CB] (AR v2)
Copy OK
Track 2
Filename E:\Command & Conquer Soundtrack Collection (2000) [FLAC]\Disc 3 ~ Command & Conquer Tiberian Sun\02 - Pharotek.wav
Peak level 83.6 %
Extraction speed 5.1 X
Track quality 100.0 %
Test CRC 2B8131AB
Copy CRC 2B8131AB
Accurately ripped (confidence 13) [EDF74EBD] (AR v2)
Copy OK
Track 3
Filename E:\Command & Conquer Soundtrack Collection (2000) [FLAC]\Disc 3 ~ Command & Conquer Tiberian Sun\03 - Lone Trooper.wav
Peak level 100.0 %
Extraction speed 5.6 X
Track quality 100.0 %
Test CRC 3DF6C297
Copy CRC 3DF6C297
Accurately ripped (confidence 13) [4EB81829] (AR v2)
Copy OK
Track 4
Filename E:\Command & Conquer Soundtrack Collection (2000) [FLAC]\Disc 3 ~ Command & Conquer Tiberian Sun\04 - Scouting.wav
Peak level 100.0 %
Extraction speed 6.0 X
Track quality 100.0 %
Test CRC 0B70291B
Copy CRC 0B70291B
Accurately ripped (confidence 13) [435C6243] (AR v2)
Copy OK
Track 5
Filename E:\Command & Conquer Soundtrack Collection (2000) [FLAC]\Disc 3 ~ Command & Conquer Tiberian Sun\05 - Infrared.wav
Peak level 93.4 %
Extraction speed 5.8 X
Track quality 99.9 %
Test CRC F8495308
Copy CRC F8495308
Accurately ripped (confidence 12) [35579BCE] (AR v2)
Copy OK
Track 6
Filename E:\Command & Conquer Soundtrack Collection (2000) [FLAC]\Disc 3 ~ Command & Conquer Tiberian Sun\06 - Flurry.wav
Peak level 91.2 %
Extraction speed 6.0 X
Track quality 99.9 %
Test CRC D13E0234
Copy CRC D13E0234
Accurately ripped (confidence 12) [96DEBB2C] (AR v2)
Copy OK
Track 7
Filename E:\Command & Conquer Soundtrack Collection (2000) [FLAC]\Disc 3 ~ Command & Conquer Tiberian Sun\07 - Mutants.wav
Peak level 100.0 %
Extraction speed 7.0 X
Track quality 100.0 %
Test CRC E3EA0119
Copy CRC E3EA0119
Accurately ripped (confidence 13) [D18895FF] (AR v2)
Copy OK
Track 8
Filename E:\Command & Conquer Soundtrack Collection (2000) [FLAC]\Disc 3 ~ Command & Conquer Tiberian Sun\08 - Gloom.wav
Peak level 91.4 %
Extraction speed 7.2 X
Track quality 100.0 %
Test CRC E1E6763D
Copy CRC E1E6763D
Accurately ripped (confidence 13) [BC6BE85E] (AR v2)
Copy OK
Track 9
Filename E:\Command & Conquer Soundtrack Collection (2000) [FLAC]\Disc 3 ~ Command & Conquer Tiberian Sun\09 - Heroism.wav
Peak level 100.0 %
Extraction speed 6.6 X
Track quality 99.9 %
Test CRC 6D1E43A4
Copy CRC 6D1E43A4
Accurately ripped (confidence 13) [AA09EC8B] (AR v2)
Copy OK
Track 10
Filename E:\Command & Conquer Soundtrack Collection (2000) [FLAC]\Disc 3 ~ Command & Conquer Tiberian Sun\10 - Approach.wav
Peak level 94.9 %
Extraction speed 8.0 X
Track quality 100.0 %
Test CRC 4955723C
Copy CRC 4955723C
Accurately ripped (confidence 13) [DA69127F] (AR v2)
Copy OK
Track 11
Filename E:\Command & Conquer Soundtrack Collection (2000) [FLAC]\Disc 3 ~ Command & Conquer Tiberian Sun\11 - Dusk Hour.wav
Peak level 93.8 %
Extraction speed 8.1 X
Track quality 100.0 %
Test CRC 6759B98E
Copy CRC 6759B98E
Accurately ripped (confidence 13) [73CAA7BB] (AR v2)
Copy OK
Track 12
Filename E:\Command & Conquer Soundtrack Collection (2000) [FLAC]\Disc 3 ~ Command & Conquer Tiberian Sun\12 - The Defense.wav
Peak level 100.0 %
Extraction speed 8.3 X
Track quality 100.0 %
Test CRC F79B41B1
Copy CRC F79B41B1
Accurately ripped (confidence 12) [32BFFB12] (AR v2)
Copy OK
Track 13
Filename E:\Command & Conquer Soundtrack Collection (2000) [FLAC]\Disc 3 ~ Command & Conquer Tiberian Sun\13 - Mad Rap.wav
Peak level 100.0 %
Extraction speed 8.7 X
Track quality 100.0 %
Test CRC 3DA3482C
Copy CRC 3DA3482C
Accurately ripped (confidence 13) [27E41B12] (AR v2)
Copy OK
Track 14
Filename E:\Command & Conquer Soundtrack Collection (2000) [FLAC]\Disc 3 ~ Command & Conquer Tiberian Sun\14 - Valves.wav
Peak level 100.0 %
Extraction speed 8.9 X
Track quality 100.0 %
Test CRC 90EB3C73
Copy CRC 90EB3C73
Accurately ripped (confidence 13) [796A19A6] (AR v2)
Copy OK
Track 15
Filename E:\Command & Conquer Soundtrack Collection (2000) [FLAC]\Disc 3 ~ Command & Conquer Tiberian Sun\15 - What Lurks.wav
Peak level 76.2 %
Extraction speed 9.3 X
Track quality 100.0 %
Test CRC 5D173820
Copy CRC 5D173820
Accurately ripped (confidence 13) [D44EC417] (AR v2)
Copy OK
Track 16
Filename E:\Command & Conquer Soundtrack Collection (2000) [FLAC]\Disc 3 ~ Command & Conquer Tiberian Sun\16 - Score.wav
Peak level 95.0 %
Extraction speed 7.7 X
Track quality 100.0 %
Test CRC 7F0360FA
Copy CRC 7F0360FA
Accurately ripped (confidence 14) [D9C87161] (AR v2)
Copy OK
All tracks accurately ripped
No errors occurred
End of status report
==== Log checksum F3E38DDA46F8816F709E72B862605EDE279DDFEB4D5D98436F3CFBDFBB6EA538 ====
Композитор: Frank Klepacki
Год выпуска диска: 2000
Страна-производитель диска: USA
Продолжительность: 01:02:54

01. Hell March 2 (3:45)
02. Industrofunk (3:13)
03. Ready the Army (4:58)
04. Grinder (2:27)
05. In Deep (3:24)
06. Motorized (4:02)
07. Power (3:57)
08. 200 Meters (4:13)
09. Destroy (4:38)
10. Burn (4:37)
11. Probing (4:19)
12. Blow it Up (3:11)
13. Eagle Hunter (4:16)
14. Fortification (4:03)
15. Jank (3:46)
16. C&C in the House (4:06)
Exact Audio Copy V1.0 beta 3 from 29. August 2011
EAC extraction logfile from 19. October 2013, 21:15
Frank Klepacki / Command & Conquer Soundtrack Collection (Disc 4 ~ Command & Conquer: Red Alert 2)
Used drive : PIONEER DVD-RW DVR-216D Adapter: 3 ID: 0
Read mode : Secure
Utilize accurate stream : Yes
Defeat audio cache : Yes
Make use of C2 pointers : No
Read offset correction : 96
Overread into Lead-In and Lead-Out : No
Fill up missing offset samples with silence : Yes
Delete leading and trailing silent blocks : No
Null samples used in CRC calculations : Yes
Used interface : Native Win32 interface for Win NT & 2000
Gap handling : Appended to previous track
Used output format : User Defined Encoder
Selected bitrate : 1024 kBit/s
Quality : High
Add ID3 tag : No
Command line compressor : C:\Program Files (x86)\FLAC\flac.exe
Additional command line options : -8 -V -T "ARTIST=%artist%" -T "TITLE=%title%" -T "ALBUM=%albumtitle%" -T "DATE=%year%" -T "TRACKNUMBER=%tracknr%" -T "TOTALTRACKS=%numtracks%" -T "GENRE=%genre%" -T "ALBUMARTIST=%albumartist%" -T "ALBUM ARTIST=%albumartist%" -T "COMMENT=EAC Secure Mode, Test & Copy, AccurateRip, FLAC 1.2.1b -8" %source%
TOC of the extracted CD
Track | Start | Length | Start sector | End sector
---------------------------------------------------------
1 | 0:00.00 | 3:44.52 | 0 | 16851
2 | 3:44.52 | 3:12.46 | 16852 | 31297
3 | 6:57.23 | 4:57.38 | 31298 | 53610
4 | 11:54.61 | 2:27.00 | 53611 | 64635
5 | 14:21.61 | 3:24.15 | 64636 | 79950
6 | 17:46.01 | 4:02.09 | 79951 | 98109
7 | 21:48.10 | 3:56.61 | 98110 | 115870
8 | 25:44.71 | 4:12.54 | 115871 | 134824
9 | 29:57.50 | 4:38.23 | 134825 | 155697
10 | 34:35.73 | 4:37.03 | 155698 | 176475
11 | 39:13.01 | 4:19.14 | 176476 | 195914
12 | 43:32.15 | 3:11.09 | 195915 | 210248
13 | 46:43.24 | 4:16.13 | 210249 | 229461
14 | 50:59.37 | 4:02.49 | 229462 | 247660
15 | 55:02.11 | 3:46.06 | 247661 | 264616
16 | 58:48.17 | 4:06.37 | 264617 | 283103
Track 1
Filename E:\Command & Conquer Soundtrack Collection (2000) [FLAC]\Disc 4 ~ Command & Conquer Red Alert 2\01 - Hell March 2.wav
Pre-gap length 0:00:02.00
Peak level 100.0 %
Extraction speed 4.4 X
Track quality 100.0 %
Test CRC 1D4B0C90
Copy CRC 1D4B0C90
Accurately ripped (confidence 5) [FFD6E404] (AR v2)
Copy OK
Track 2
Filename E:\Command & Conquer Soundtrack Collection (2000) [FLAC]\Disc 4 ~ Command & Conquer Red Alert 2\02 - Industrofunk.wav
Peak level 100.0 %
Extraction speed 4.7 X
Track quality 100.0 %
Test CRC 5A8511D4
Copy CRC 5A8511D4
Accurately ripped (confidence 5) [48DCF94A] (AR v2)
Copy OK
Track 3
Filename E:\Command & Conquer Soundtrack Collection (2000) [FLAC]\Disc 4 ~ Command & Conquer Red Alert 2\03 - Ready The Army.wav
Peak level 100.0 %
Extraction speed 5.4 X
Track quality 100.0 %
Test CRC 7B92269F
Copy CRC 7B92269F
Accurately ripped (confidence 5) [F6F7DC28] (AR v2)
Copy OK
Track 4
Filename E:\Command & Conquer Soundtrack Collection (2000) [FLAC]\Disc 4 ~ Command & Conquer Red Alert 2\04 - Grinder.wav
Peak level 100.0 %
Extraction speed 5.2 X
Track quality 100.0 %
Test CRC 9A97FD59
Copy CRC 9A97FD59
Accurately ripped (confidence 5) [2B931A83] (AR v2)
Copy OK
Track 5
Filename E:\Command & Conquer Soundtrack Collection (2000) [FLAC]\Disc 4 ~ Command & Conquer Red Alert 2\05 - In Deep.wav
Peak level 100.0 %
Extraction speed 5.0 X
Track quality 99.9 %
Test CRC C4931D80
Copy CRC C4931D80
Accurately ripped (confidence 5) [C96F5B10] (AR v2)
Copy OK
Track 6
Filename E:\Command & Conquer Soundtrack Collection (2000) [FLAC]\Disc 4 ~ Command & Conquer Red Alert 2\06 - Motorized.wav
Peak level 100.0 %
Extraction speed 6.2 X
Track quality 100.0 %
Test CRC FD6297DD
Copy CRC FD6297DD
Accurately ripped (confidence 5) [B315F455] (AR v2)
Copy OK
Track 7
Filename E:\Command & Conquer Soundtrack Collection (2000) [FLAC]\Disc 4 ~ Command & Conquer Red Alert 2\07 - Power.wav
Peak level 99.7 %
Extraction speed 6.6 X
Track quality 100.0 %
Test CRC 3ED83D5D
Copy CRC 3ED83D5D
Accurately ripped (confidence 5) [E0ABE518] (AR v2)
Copy OK
Track 8
Filename E:\Command & Conquer Soundtrack Collection (2000) [FLAC]\Disc 4 ~ Command & Conquer Red Alert 2\08 - 200 Meters.wav
Peak level 89.4 %
Extraction speed 6.9 X
Track quality 100.0 %
Test CRC 12AC25F8
Copy CRC 12AC25F8
Accurately ripped (confidence 5) [70AAEB6B] (AR v2)
Copy OK
Track 9
Filename E:\Command & Conquer Soundtrack Collection (2000) [FLAC]\Disc 4 ~ Command & Conquer Red Alert 2\09 - Destroy.wav
Peak level 100.0 %
Extraction speed 7.3 X
Track quality 100.0 %
Test CRC E5299E8E
Copy CRC E5299E8E
Accurately ripped (confidence 5) [CECCBD4D] (AR v2)
Copy OK
Track 10
Filename E:\Command & Conquer Soundtrack Collection (2000) [FLAC]\Disc 4 ~ Command & Conquer Red Alert 2\10 - Burn.wav
Peak level 100.0 %
Extraction speed 7.6 X
Track quality 100.0 %
Test CRC 75499503
Copy CRC 75499503
Accurately ripped (confidence 5) [89E2D68A] (AR v2)
Copy OK
Track 11
Filename E:\Command & Conquer Soundtrack Collection (2000) [FLAC]\Disc 4 ~ Command & Conquer Red Alert 2\11 - Probing.wav
Peak level 100.0 %
Extraction speed 7.8 X
Track quality 100.0 %
Test CRC 3002D93D
Copy CRC 3002D93D
Accurately ripped (confidence 5) [4CD59628] (AR v2)
Copy OK
Track 12
Filename E:\Command & Conquer Soundtrack Collection (2000) [FLAC]\Disc 4 ~ Command & Conquer Red Alert 2\12 - Blow It Up.wav
Peak level 100.0 %
Extraction speed 7.6 X
Track quality 100.0 %
Test CRC C75A914F
Copy CRC C75A914F
Accurately ripped (confidence 5) [5CC412F5] (AR v2)
Copy OK
Track 13
Filename E:\Command & Conquer Soundtrack Collection (2000) [FLAC]\Disc 4 ~ Command & Conquer Red Alert 2\13 - Eagle Hunter.wav
Peak level 100.0 %
Extraction speed 8.2 X
Track quality 100.0 %
Test CRC 290E64C3
Copy CRC 290E64C3
Accurately ripped (confidence 5) [4541C521] (AR v2)
Copy OK
Track 14
Filename E:\Command & Conquer Soundtrack Collection (2000) [FLAC]\Disc 4 ~ Command & Conquer Red Alert 2\14 - Fortification.wav
Peak level 100.0 %
Extraction speed 7.4 X
Track quality 99.9 %
Test CRC D550DCDD
Copy CRC D550DCDD
Accurately ripped (confidence 5) [12F1D59D] (AR v2)
Copy OK
Track 15
Filename E:\Command & Conquer Soundtrack Collection (2000) [FLAC]\Disc 4 ~ Command & Conquer Red Alert 2\15 - Jank.wav
Peak level 100.0 %
Extraction speed 7.5 X
Track quality 99.9 %
Test CRC D5A4B61C
Copy CRC D5A4B61C
Accurately ripped (confidence 5) [517AC127] (AR v2)
Copy OK
Track 16
Filename E:\Command & Conquer Soundtrack Collection (2000) [FLAC]\Disc 4 ~ Command & Conquer Red Alert 2\16 - C&C In The House.wav
Peak level 100.0 %
Extraction speed 8.8 X
Track quality 100.0 %
Test CRC 0AB79188
Copy CRC 0AB79188
Accurately ripped (confidence 5) [16F77C05] (AR v2)
Copy OK
All tracks accurately ripped
No errors occurred
End of status report
==== Log checksum 2EF453E9E800F5F7DC7C2CFAA54DD7D722B43D68F04B23AE1A45427D4FF949DB ====
Композитор: Frank Klepacki
Год выпуска диска: 2002
Страна-производитель диска: USA
Продолжительность: 00:50:58

01. Command & Conquer (2:58)
02. Got a Present for Ya (2:21)
03. Sniper (3:19)
04. Act on Instinct (Remix) (3:32)
05. Stomp (2:56)
06. On Your Feet (3:58)
07. Sneak Attack (3:50)
08. Move It (2:04)
09. Dogfight (4:42)
10. Packing Iron (3:23)
11. Industrial Ambient (4:01)
12. Beach (3:02)
13. Fight Win Prevail (Remix) (3:37)
14. Ammo Clip (3:19)
15. In the Line of Fire (Remix) (3:58)
Exact Audio Copy V0.99 prebeta 5 from 4. May 2009
EAC extraction logfile from 12. January 2010, 22:51
Frank Klepacki / Command & Conquer Renegade
Used drive : LITE-ON DVDRW LH-20A1P Adapter: 0 ID: 0
Read mode : Secure
Utilize accurate stream : Yes
Defeat audio cache : Yes
Make use of C2 pointers : No
Read offset correction : 6
Overread into Lead-In and Lead-Out : No
Fill up missing offset samples with silence : Yes
Delete leading and trailing silent blocks : No
Null samples used in CRC calculations : Yes
Used interface : Native Win32 interface for Win NT & 2000
Gap handling : Appended to previous track
Used output format : User Defined Encoder
Selected bitrate : 768 kBit/s
Quality : High
Add ID3 tag : No
Command line compressor : C:\Program Files (x86)\Exact Audio Copy\FLAC\FLAC.EXE
Additional command line options : -6 -V -T "ARTIST=%a" -T "TITLE=%t" -T "ALBUM=%g" -T "DATE=%y" -T "TRACKNUMBER=%n" -T "GENRE=%m" -T "COMMENT=%e" %s -o %d
TOC of the extracted CD
Track | Start | Length | Start sector | End sector
---------------------------------------------------------
1 | 0:00.00 | 2:58.22 | 0 | 13371
2 | 2:58.22 | 2:21.03 | 13372 | 23949
3 | 5:19.25 | 3:18.43 | 23950 | 38842
4 | 8:37.68 | 3:31.50 | 38843 | 54717
5 | 12:09.43 | 2:55.44 | 54718 | 67886
6 | 15:05.12 | 3:57.45 | 67887 | 85706
7 | 19:02.57 | 3:50.13 | 85707 | 102969
8 | 22:52.70 | 2:04.35 | 102970 | 112304
9 | 24:57.30 | 4:42.28 | 112305 | 133482
10 | 29:39.58 | 3:22.55 | 133483 | 148687
11 | 33:02.38 | 4:00.55 | 148688 | 166742
12 | 37:03.18 | 3:01.73 | 166743 | 180390
13 | 40:05.16 | 3:36.60 | 180391 | 196650
14 | 43:42.01 | 3:18.67 | 196651 | 211567
15 | 47:00.68 | 3:57.54 | 211568 | 229396
Track 1
Filename C:\EAC Rips\Frank Klepacki\Command & Conquer Renegade\01 Command & Conquer.wav
Pre-gap length 0:00:02.00
Peak level 100.0 %
Track quality 99.9 %
Test CRC E6513767
Copy CRC E6513767
Accurately ripped (confidence 1) [C1EB8654]
Copy OK
Track 2
Filename C:\EAC Rips\Frank Klepacki\Command & Conquer Renegade\02 Got A Present For Ya.wav
Peak level 99.9 %
Track quality 100.0 %
Test CRC 99EDFA8F
Copy CRC 99EDFA8F
Accurately ripped (confidence 1) [1E18F0C3]
Copy OK
Track 3
Filename C:\EAC Rips\Frank Klepacki\Command & Conquer Renegade\03 Sniper.wav
Peak level 99.9 %
Track quality 99.9 %
Test CRC 99CF4E18
Copy CRC 99CF4E18
Accurately ripped (confidence 1) [9CA5517E]
Copy OK
Track 4
Filename C:\EAC Rips\Frank Klepacki\Command & Conquer Renegade\04 Act On Instinct.wav
Peak level 99.8 %
Track quality 100.0 %
Test CRC CB5D0451
Copy CRC CB5D0451
Accurately ripped (confidence 1) [D963F9C7]
Copy OK
Track 5
Filename C:\EAC Rips\Frank Klepacki\Command & Conquer Renegade\05 Stomp.wav
Peak level 99.8 %
Track quality 100.0 %
Test CRC 5E9DB174
Copy CRC 5E9DB174
Accurately ripped (confidence 1) [B0348835]
Copy OK
Track 6
Filename C:\EAC Rips\Frank Klepacki\Command & Conquer Renegade\06 Sneak Attack.wav
Peak level 99.8 %
Track quality 100.0 %
Test CRC 9FB88E47
Copy CRC 9FB88E47
Accurately ripped (confidence 1) [D5D2BEAC]
Copy OK
Track 7
Filename C:\EAC Rips\Frank Klepacki\Command & Conquer Renegade\07 Untitled.wav
Peak level 99.7 %
Track quality 100.0 %
Test CRC BAB8F5ED
Copy CRC BAB8F5ED
Accurately ripped (confidence 1) [68D8E3F2]
Copy OK
Track 8
Filename C:\EAC Rips\Frank Klepacki\Command & Conquer Renegade\08 Move It.wav
Peak level 99.7 %
Track quality 100.0 %
Test CRC 80612D1F
Copy CRC 80612D1F
Accurately ripped (confidence 1) [2728529C]
Copy OK
Track 9
Filename C:\EAC Rips\Frank Klepacki\Command & Conquer Renegade\09 Dogfight.wav
Peak level 99.6 %
Track quality 100.0 %
Test CRC A50BED77
Copy CRC A50BED77
Accurately ripped (confidence 1) [F17246DE]
Copy OK
Track 10
Filename C:\EAC Rips\Frank Klepacki\Command & Conquer Renegade\10 Packing Iron.wav
Peak level 99.6 %
Track quality 100.0 %
Test CRC 41D2DAD5
Copy CRC 41D2DAD5
Accurately ripped (confidence 1) [33845950]
Copy OK
Track 11
Filename C:\EAC Rips\Frank Klepacki\Command & Conquer Renegade\11 Industrial Ambient.wav
Peak level 80.2 %
Track quality 99.9 %
Test CRC 4C7249B5
Copy CRC 4C7249B5
Accurately ripped (confidence 1) [8D27B7CF]
Copy OK
Track 12
Filename C:\EAC Rips\Frank Klepacki\Command & Conquer Renegade\12 Beach.wav
Peak level 100.0 %
Track quality 99.9 %
Test CRC 9144588E
Copy CRC 9144588E
Accurately ripped (confidence 1) [1DCDFAAB]
Copy OK
Track 13
Filename C:\EAC Rips\Frank Klepacki\Command & Conquer Renegade\13 Fight, Win, Prevail.wav
Peak level 99.4 %
Track quality 99.9 %
Test CRC 9ADD1F77
Copy CRC 9ADD1F77
Accurately ripped (confidence 1) [0514F56F]
Copy OK
Track 14
Filename C:\EAC Rips\Frank Klepacki\Command & Conquer Renegade\14 Ammo Clip.wav
Peak level 99.4 %
Track quality 99.9 %
Test CRC A10472A5
Copy CRC A10472A5
Accurately ripped (confidence 1) [5A460C91]
Copy OK
Track 15
Filename C:\EAC Rips\Frank Klepacki\Command & Conquer Renegade\15 In The Line Of Fire.wav
Peak level 99.5 %
Track quality 100.0 %
Test CRC 303EFFD9
Copy CRC 303EFFD9
Accurately ripped (confidence 1) [B322DA38]
Copy OK
All tracks accurately ripped
No errors occurred
End of status report
Композитор: Frank Klepacki, James Hannigan, Tim Wynn, Mikael Sandgren
Год выпуска диска: Oct 28, 2008
Страна-производитель диска: USA
Продолжительность: 01:15:23
01. RA3 Theme - Soviet March (2:47)
02. Hell March 3 (3:34)
03. Grinder 2 (2:56)
04. Hell March 1 - From First to Last Remix (3:57)
05. Russian Celebration (1:04)
06. The Might of the Empire (0:53)
07. The Motherland (2:06)
08. The Red Scare (2:05)
09. The Calm Before... (1:09)
10. The European Storm (2:17)
11. For Mother Russia (2:03)
12. Russian Retreat (1:08)
13. Red Rock (1:20)
14. The Big Apple (2:04)
15. Fortifying Brighton (1:15)
16. The Red Storm Draws Near (1:02)
17. Shock and Awe (1:52)
18. Desertion (1:24)
19. How the West was Won (1:49)
20. Mykonos (0:41)
21. The Battle for Mykonos (2:05)
22. Lying in Wait (1:09)
23. Enter the Shogun Executioner (1:36)
24. East Moves West (1:32)
25. The Rising Sun is Setting (1:06)
26. For the Emperor! (1:09)
27. The Empire Has Risen (0:35)
28. Eastern Mysteries (1:56)
29. Sayonara (2:39)
30. In the Belly of the Dragon (2:49)
31. The Sleeping Beast (1:59)
32. The Red Menace (1:06)
33. American Cowboys (1:14)
34. All Your Base Are Belong to Us (1:04)
35. The War Machine Heads West (2:04)
36. Crisis in Cuba (2:08)
37. Floating Monstrosity (1:59)
38. The Chill of War (1:02)
39. Soviet Winter (1:41)
40. Take 'Em Out, Tanya! (1:07)
41. The Download (1:05)
42. Red Alert 3 Credits (2:27)
43. The Red March (Reprise) (1:11)
44. Hell March 2 - From First To Last Remix (1:14)
Exact Audio Copy V0.99 prebeta 3 from 28. July 2007
EAC extraction logfile from 30. October 2008, 18:22
Various / Command & Conquer Red Alert 3 Soundtrack
Used drive : Optiarc DVD RW AD-5170A Adapter: 0 ID: 1
Read mode : Secure
Utilize accurate stream : Yes
Defeat audio cache : Yes
Make use of C2 pointers : No
Read offset correction : 48
Overread into Lead-In and Lead-Out : No
Fill up missing offset samples with silence : Yes
Delete leading and trailing silent blocks : No
Null samples used in CRC calculations : Yes
Used interface : Installed external ASPI interface
Gap handling : Appended to previous track
Used output format : User Defined Encoder
Selected bitrate : 192 kBit/s
Quality : High
Add ID3 tag : No
Command line compressor : D:\Program\Exact Audio Copy\flac.exe
Additional command line options : -8 -A tukey(0.25) -A gauss(0.1875) -b 4096 -V -T "artist=%a" -T "title=%t" -T "album=%g" -T "date=%y" -T "tracknumber=%n" -T "genre=%m" %s --sector-align
TOC of the extracted CD
Track | Start | Length | Start sector | End sector
---------------------------------------------------------
1 | 0:00.00 | 2:47.15 | 0 | 12539
2 | 2:47.15 | 3:33.64 | 12540 | 28578
3 | 6:21.04 | 2:55.63 | 28579 | 41766
4 | 9:16.67 | 3:57.05 | 41767 | 59546
5 | 13:13.72 | 1:04.17 | 59547 | 64363
6 | 14:18.14 | 0:53.28 | 64364 | 68366
7 | 15:11.42 | 2:05.53 | 68367 | 77794
8 | 17:17.20 | 2:04.44 | 77795 | 87138
9 | 19:21.64 | 1:08.46 | 87139 | 92284
10 | 20:30.35 | 2:17.25 | 92285 | 102584
11 | 22:47.60 | 2:02.48 | 102585 | 111782
12 | 24:50.33 | 1:07.38 | 111783 | 116845
13 | 25:57.71 | 1:20.18 | 116846 | 122863
14 | 27:18.14 | 2:03.40 | 122864 | 132128
15 | 29:21.54 | 1:14.72 | 132129 | 137750
16 | 30:36.51 | 1:01.73 | 137751 | 142398
17 | 31:38.49 | 1:52.01 | 142399 | 150799
18 | 33:30.50 | 1:24.07 | 150800 | 157106
19 | 34:54.57 | 1:48.71 | 157107 | 165277
20 | 36:43.53 | 0:41.14 | 165278 | 168366
21 | 37:24.67 | 2:04.57 | 168367 | 177723
22 | 39:29.49 | 1:08.59 | 177724 | 182882
23 | 40:38.33 | 1:35.48 | 182883 | 190055
24 | 42:14.06 | 1:32.08 | 190056 | 196963
25 | 43:46.14 | 1:06.03 | 196964 | 201916
26 | 44:52.17 | 1:09.10 | 201917 | 207101
27 | 46:01.27 | 0:35.18 | 207102 | 209744
28 | 46:36.45 | 1:56.29 | 209745 | 218473
29 | 48:32.74 | 2:38.47 | 218474 | 230370
30 | 51:11.46 | 2:48.41 | 230371 | 243011
31 | 54:00.12 | 1:59.08 | 243012 | 251944
32 | 55:59.20 | 1:06.25 | 251945 | 256919
33 | 57:05.45 | 1:14.26 | 256920 | 262495
34 | 58:19.71 | 1:04.27 | 262496 | 267322
35 | 59:24.23 | 2:04.26 | 267323 | 276648
36 | 61:28.49 | 2:08.05 | 276649 | 286253
37 | 63:36.54 | 1:58.56 | 286254 | 295159
38 | 65:35.35 | 1:02.00 | 295160 | 299809
39 | 66:37.35 | 1:41.05 | 299810 | 307389
40 | 68:18.40 | 1:06.42 | 307390 | 312381
41 | 69:25.07 | 1:05.14 | 312382 | 317270
42 | 70:30.21 | 2:26.55 | 317271 | 328275
43 | 72:57.01 | 1:11.08 | 328276 | 333608
44 | 74:08.09 | 1:14.14 | 333609 | 339172
Track 1
Filename C:\Music\VA\Command & Conquer Red Alert 3 Soundtrack (FLAC)\01-Red Alert 3 Theme - Soviet March-Red Alert 3 Theme - Soviet March.wav
Pre-gap length 0:00:02.00
Peak level 100.0 %
Track quality 100.0 %
Test CRC 1DF89822
Copy CRC 1DF89822
Copy OK
Track 2
Filename C:\Music\VA\Command & Conquer Red Alert 3 Soundtrack (FLAC)\02-Hell March 3-Hell March 3.wav
Pre-gap length 0:00:02.00
Peak level 100.0 %
Track quality 99.9 %
Test CRC 4BD686E7
Copy CRC 4BD686E7
Copy OK
Track 3
Filename C:\Music\VA\Command & Conquer Red Alert 3 Soundtrack (FLAC)\03-Grinder 2-Grinder 2.wav
Pre-gap length 0:00:02.00
Peak level 100.0 %
Track quality 100.0 %
Test CRC D65F7B89
Copy CRC D65F7B89
Copy OK
Track 4
Filename C:\Music\VA\Command & Conquer Red Alert 3 Soundtrack (FLAC)\04-Hell March 1 (From First To Last Remix)-Hell March 1 (From First To Last Remix).wav
Pre-gap length 0:00:02.00
Peak level 100.0 %
Track quality 100.0 %
Test CRC 292B4BE4
Copy CRC 292B4BE4
Copy OK
Track 5
Filename C:\Music\VA\Command & Conquer Red Alert 3 Soundtrack (FLAC)\05-Celebration-Celebration.wav
Pre-gap length 0:00:02.00
Peak level 100.0 %
Track quality 100.0 %
Test CRC C250E6B2
Copy CRC C250E6B2
Copy OK
Track 6
Filename C:\Music\VA\Command & Conquer Red Alert 3 Soundtrack (FLAC)\06-Japanese Campaign-Japanese Campaign.wav
Pre-gap length 0:00:02.00
Peak level 100.0 %
Track quality 100.0 %
Test CRC B618E216
Copy CRC B618E216
Copy OK
Track 7
Filename C:\Music\VA\Command & Conquer Red Alert 3 Soundtrack (FLAC)\07-Exploring in Russia-Exploring in Russia.wav
Pre-gap length 0:00:02.00
Peak level 100.0 %
Track quality 100.0 %
Test CRC 22A35FA5
Copy CRC 22A35FA5
Copy OK
Track 8
Filename C:\Music\VA\Command & Conquer Red Alert 3 Soundtrack (FLAC)\08-Threatened in Russia-Threatened in Russia.wav
Pre-gap length 0:00:02.00
Peak level 100.0 %
Track quality 100.0 %
Test CRC CD1CD631
Copy CRC CD1CD631
Copy OK
Track 9
Filename C:\Music\VA\Command & Conquer Red Alert 3 Soundtrack (FLAC)\09-Exploring in Mainland Europe-Exploring in Mainland Europe.wav
Pre-gap length 0:00:02.00
Peak level 100.0 %
Track quality 100.0 %
Test CRC 37EC23B7
Copy CRC 37EC23B7
Copy OK
Track 10
Filename C:\Music\VA\Command & Conquer Red Alert 3 Soundtrack (FLAC)\10-Threatened in Mainland Europe-Threatened in Mainland Europe.wav
Pre-gap length 0:00:02.00
Peak level 100.0 %
Track quality 100.0 %
Test CRC 296A5FD1
Copy CRC 296A5FD1
Copy OK
Track 11
Filename C:\Music\VA\Command & Conquer Red Alert 3 Soundtrack (FLAC)\11-Soviet Combat 1-Soviet Combat 1.wav
Pre-gap length 0:00:02.00
Peak level 100.0 %
Track quality 100.0 %
Test CRC 3FDD3397
Copy CRC 3FDD3397
Copy OK
Track 12
Filename C:\Music\VA\Command & Conquer Red Alert 3 Soundtrack (FLAC)\12-Soviet Comabt 2 (Losing)-Soviet Comabt 2 (Losing).wav
Pre-gap length 0:00:02.00
Peak level 100.0 %
Track quality 100.0 %
Test CRC 304EB670
Copy CRC 304EB670
Copy OK
Track 13
Filename C:\Music\VA\Command & Conquer Red Alert 3 Soundtrack (FLAC)\13-Soviet Combat 3 (Triumphal)-Soviet Combat 3 (Triumphal).wav
Pre-gap length 0:00:02.00
Peak level 100.0 %
Track quality 100.0 %
Test CRC 710B5123
Copy CRC 710B5123
Copy OK
Track 14
Filename C:\Music\VA\Command & Conquer Red Alert 3 Soundtrack (FLAC)\14-Exploring in New York City-Exploring in New York City.wav
Pre-gap length 0:00:02.00
Peak level 100.0 %
Track quality 99.9 %
Test CRC 53E6076E
Copy CRC 53E6076E
Copy OK
Track 15
Filename C:\Music\VA\Command & Conquer Red Alert 3 Soundtrack (FLAC)\15-Brighton beach - Building Defenses-Brighton beach - Building Defenses.wav
Pre-gap length 0:00:02.00
Peak level 100.0 %
Track quality 100.0 %
Test CRC 6ABC417A
Copy CRC 6ABC417A
Copy OK
Track 16
Filename C:\Music\VA\Command & Conquer Red Alert 3 Soundtrack (FLAC)\16-Brighon Beach - Soviets Coming Ashore-Brighon Beach - Soviets Coming Ashore.wav
Pre-gap length 0:00:02.00
Peak level 98.8 %
Track quality 100.0 %
Test CRC 8743F854
Copy CRC 8743F854
Copy OK
Track 17
Filename C:\Music\VA\Command & Conquer Red Alert 3 Soundtrack (FLAC)\17-Allied Combat 1-Allied Combat 1.wav
Pre-gap length 0:00:02.00
Peak level 100.0 %
Track quality 100.0 %
Test CRC F933DF03
Copy CRC F933DF03
Copy OK
Track 18
Filename C:\Music\VA\Command & Conquer Red Alert 3 Soundtrack (FLAC)\18-Allied Combat 2 (Losing)-Allied Combat 2 (Losing).wav
Pre-gap length 0:00:02.00
Peak level 100.0 %
Track quality 100.0 %
Test CRC 30243BEA
Copy CRC 30243BEA
Copy OK
Track 19
Filename C:\Music\VA\Command & Conquer Red Alert 3 Soundtrack (FLAC)\19-Allied Combat 3 (Triumphal)-Allied Combat 3 (Triumphal).wav
Pre-gap length 0:00:02.00
Peak level 100.0 %
Track quality 100.0 %
Test CRC 4770E04A
Copy CRC 4770E04A
Copy OK
Track 20
Filename C:\Music\VA\Command & Conquer Red Alert 3 Soundtrack (FLAC)\20-Mykonos-Mykonos.wav
Pre-gap length 0:00:02.00
Peak level 97.1 %
Track quality 99.7 %
Test CRC 53AC011F
Copy CRC 53AC011F
Copy OK
Track 21
Filename C:\Music\VA\Command & Conquer Red Alert 3 Soundtrack (FLAC)\21-Exploring Mykonos-Exploring Mykonos.wav
Pre-gap length 0:00:02.00
Peak level 100.0 %
Track quality 100.0 %
Test CRC 55E9FA8C
Copy CRC 55E9FA8C
Copy OK
Track 22
Filename C:\Music\VA\Command & Conquer Red Alert 3 Soundtrack (FLAC)\22-Easter Island - Lying in Wait-Easter Island - Lying in Wait.wav
Pre-gap length 0:00:02.00
Peak level 100.0 %
Track quality 100.0 %
Test CRC 3700C3BB
Copy CRC 3700C3BB
Copy OK
Track 23
Filename C:\Music\VA\Command & Conquer Red Alert 3 Soundtrack (FLAC)\23-Enter the Shogun Executioner-Enter the Shogun Executioner.wav
Pre-gap length 0:00:02.00
Peak level 100.0 %
Track quality 97.2 %
Test CRC B675BFC4
Copy CRC B675BFC4
Copy OK
Track 24
Filename C:\Music\VA\Command & Conquer Red Alert 3 Soundtrack (FLAC)\24-Japan Combat 1-Japan Combat 1.wav
Pre-gap length 0:00:02.00
Peak level 100.0 %
Track quality 100.0 %
Test CRC 5A0A67C5
Copy CRC 5A0A67C5
Copy OK
Track 25
Filename C:\Music\VA\Command & Conquer Red Alert 3 Soundtrack (FLAC)\25-Japan Combat 2 (Losing)-Japan Combat 2 (Losing).wav
Pre-gap length 0:00:02.00
Peak level 100.0 %
Track quality 100.0 %
Test CRC 0F475C13
Copy CRC 0F475C13
Copy OK
Track 26
Filename C:\Music\VA\Command & Conquer Red Alert 3 Soundtrack (FLAC)\26-Japan Combat 3 (Triumphal)-Japan Combat 3 (Triumphal).wav
Pre-gap length 0:00:02.00
Peak level 100.0 %
Track quality 100.0 %
Test CRC CD90D810
Copy CRC CD90D810
Copy OK
Track 27
Filename C:\Music\VA\Command & Conquer Red Alert 3 Soundtrack (FLAC)\27-Mount Fuji Intro-Mount Fuji Intro.wav
Pre-gap length 0:00:02.00
Peak level 100.0 %
Track quality 100.0 %
Test CRC FC0EC914
Copy CRC FC0EC914
Copy OK
Track 28
Filename C:\Music\VA\Command & Conquer Red Alert 3 Soundtrack (FLAC)\28-Exploring in Mount Fuji-Exploring in Mount Fuji.wav
Pre-gap length 0:00:02.00
Peak level 100.0 %
Track quality 100.0 %
Test CRC 0D7958D6
Copy CRC 0D7958D6
Copy OK
Track 29
Filename C:\Music\VA\Command & Conquer Red Alert 3 Soundtrack (FLAC)\29-Threatened in Mount Fuji-Threatened in Mount Fuji.wav
Pre-gap length 0:00:02.00
Peak level 100.0 %
Track quality 100.0 %
Test CRC 6D6701BB
Copy CRC 6D6701BB
Copy OK
Track 30
Filename C:\Music\VA\Command & Conquer Red Alert 3 Soundtrack (FLAC)\30-Exploring in Tokyo Harbor-Exploring in Tokyo Harbor.wav
Pre-gap length 0:00:02.00
Peak level 100.0 %
Track quality 100.0 %
Test CRC 6A9CFA74
Copy CRC 6A9CFA74
Copy OK
Track 31
Filename C:\Music\VA\Command & Conquer Red Alert 3 Soundtrack (FLAC)\31-Threatened in Tokyo Harbor-Threatened in Tokyo Harbor.wav
Pre-gap length 0:00:02.00
Peak level 100.0 %
Track quality 100.0 %
Test CRC 65BBC982
Copy CRC 65BBC982
Copy OK
Track 32
Filename C:\Music\VA\Command & Conquer Red Alert 3 Soundtrack (FLAC)\32-Soviet - Up Yours-Soviet - Up Yours.wav
Pre-gap length 0:00:02.00
Peak level 100.0 %
Track quality 100.0 %
Test CRC E6D52FAF
Copy CRC E6D52FAF
Copy OK
Track 33
Filename C:\Music\VA\Command & Conquer Red Alert 3 Soundtrack (FLAC)\33-Allied - Up Yours-Allied - Up Yours.wav
Pre-gap length 0:00:02.00
Peak level 100.0 %
Track quality 100.0 %
Test CRC DA91E6BC
Copy CRC DA91E6BC
Copy OK
Track 34
Filename C:\Music\VA\Command & Conquer Red Alert 3 Soundtrack (FLAC)\34-Japanese - Up Yours-Japanese - Up Yours.wav
Pre-gap length 0:00:02.00
Peak level 100.0 %
Track quality 100.0 %
Test CRC AFBC0138
Copy CRC AFBC0138
Copy OK
Track 35
Filename C:\Music\VA\Command & Conquer Red Alert 3 Soundtrack (FLAC)\35-Exploring in Havana-Exploring in Havana.wav
Pre-gap length 0:00:02.00
Peak level 100.0 %
Track quality 100.0 %
Test CRC 6AC20E5A
Copy CRC 6AC20E5A
Copy OK
Track 36
Filename C:\Music\VA\Command & Conquer Red Alert 3 Soundtrack (FLAC)\36-Threatened in Havana-Threatened in Havana.wav
Pre-gap length 0:00:02.00
Peak level 100.0 %
Track quality 100.0 %
Test CRC B768B26C
Copy CRC B768B26C
Copy OK
Track 37
Filename C:\Music\VA\Command & Conquer Red Alert 3 Soundtrack (FLAC)\37-Floating Island Fortress-Floating Island Fortress.wav
Pre-gap length 0:00:02.00
Peak level 99.3 %
Track quality 100.0 %
Test CRC 46EC1C60
Copy CRC 46EC1C60
Copy OK
Track 38
Filename C:\Music\VA\Command & Conquer Red Alert 3 Soundtrack (FLAC)\38-Iceland-Iceland.wav
Pre-gap length 0:00:02.00
Peak level 98.5 %
Track quality 100.0 %
Test CRC F632DAEE
Copy CRC F632DAEE
Copy OK
Track 39
Filename C:\Music\VA\Command & Conquer Red Alert 3 Soundtrack (FLAC)\39-Exploring in Vladivostok-Exploring in Vladivostok.wav
Pre-gap length 0:00:02.00
Peak level 96.8 %
Track quality 100.0 %
Test CRC 946D7E0D
Copy CRC 946D7E0D
Copy OK
Track 40
Filename C:\Music\VA\Command & Conquer Red Alert 3 Soundtrack (FLAC)\40-Tanya in Gibraltar-Tanya in Gibraltar.wav
Pre-gap length 0:00:02.00
Peak level 99.4 %
Track quality 100.0 %
Test CRC EE4E684A
Copy CRC EE4E684A
Copy OK
Track 41
Filename C:\Music\VA\Command & Conquer Red Alert 3 Soundtrack (FLAC)\41-Downloading-Downloading.wav
Pre-gap length 0:00:02.00
Peak level 100.0 %
Track quality 100.0 %
Test CRC 61FEFC50
Copy CRC 61FEFC50
Copy OK
Track 42
Filename C:\Music\VA\Command & Conquer Red Alert 3 Soundtrack (FLAC)\42-Red Alert 3 Credits-Red Alert 3 Credits.wav
Pre-gap length 0:00:02.00
Peak level 100.0 %
Track quality 100.0 %
Test CRC E9102227
Copy CRC E9102227
Copy OK
Track 43
Filename C:\Music\VA\Command & Conquer Red Alert 3 Soundtrack (FLAC)\43-Soviet March - Reprise-Soviet March - Reprise.wav
Pre-gap length 0:00:02.00
Peak level 98.7 %
Track quality 100.0 %
Test CRC 3F4D5688
Copy CRC 3F4D5688
Copy OK
Track 44
Filename C:\Music\VA\Command & Conquer Red Alert 3 Soundtrack (FLAC)\44-Hell March 2 (From First To Last Remix)-Hell March 2 (From First To Last Remix).wav
Pre-gap length 0:00:02.00
Peak level 100.0 %
Track quality 100.0 %
Test CRC 63EF40A4
Copy CRC 63EF40A4
Copy OK
No errors occurred
End of status report

info [Профиль]  [ЛС] 

MightyMasturbator

Пол: Пол:Муж

Стаж: 4 года 6 месяцев

Сообщений: 41

Россия
Рейтинг

post 20-Май-2017 14:03 (спустя 4 часа) [-]2[+]

[Цитировать] 

Уф вот это круто! Да еще и во флаке. Жаль только, что Юрия нет.
info [Профиль]  [ЛС] 

Nomali

Пол: Пол:Муж

Стаж: 3 года 6 месяцев

Сообщений: 45

Украина
Рейтинг

post 20-Май-2017 20:01 (спустя 5 часов) [-]-1[+]

[Цитировать] 

Почему-то пишет "Не возможно загрузить "C&C Flac...", не удается открыть указанный файл", когда жму кнопку скачать. Магнет ссылка работает
info [Профиль]  [ЛС] 

AlexZoh

Пол: Пол:Муж

Стаж: 8 лет 1 месяц

Сообщений: 761

Россия
Рейтинг

post 20-Май-2017 20:53 (спустя 52 минуты) [-]0[+]

[Цитировать] 

MightyMasturbator писал(а):

Жаль только, что Юрия нет.
Не выходил саунд Юрия на CD официально. Есть только геймрип или с сайта Клепаки выдирать.
info [Профиль]  [ЛС] 

MetalRain

Пол: Пол:Муж

Стаж: 3 года 5 месяцев

Сообщений: 5

Россия
Рейтинг

post 20-Май-2017 22:56 (спустя 2 часа 3 минуты) [-]0[+]

[Цитировать] 

Спасибо! Заберу поностальгировать
info [Профиль]  [ЛС] 

Hobbit38

Пол: Пол:Муж

Стаж: 3 года 5 месяцев

Сообщений: 165

Россия
Рейтинг

post 25-Май-2017 19:51 (спустя 4 дня) [-]0[+]

[Цитировать] 

Обновление:
  • Добавил "Command & Conquer 3: Tiberium Wars".
info [Профиль]  [ЛС] 

Hobbit38

Пол: Пол:Муж

Стаж: 3 года 5 месяцев

Сообщений: 165

Россия
Рейтинг

post 31-Май-2017 19:13 (спустя 5 дней) [-]0[+]

[Цитировать] 

del
info [Профиль]  [ЛС] 

AlexZoh

Пол: Пол:Муж

Стаж: 8 лет 1 месяц

Сообщений: 761

Россия
Рейтинг

post 31-Май-2017 22:32 (спустя 3 часа) [-]0[+]

[Цитировать] 

Hobbit38, что это за формат такой, чем предыдущий плох был?)
info [Профиль]  [ЛС] 

Hobbit38

Пол: Пол:Муж

Стаж: 3 года 5 месяцев

Сообщений: 165

Россия
Рейтинг

post 31-Май-2017 23:28 (спустя 55 минут) [-]0[+]

[Цитировать] 

del
info [Профиль]  [ЛС] 

The Buzzhorn

Пол: Пол:Муж

Стаж: 7 лет

Сообщений: 945

Германия
Рейтинг

post 01-Июн-2017 02:30 (спустя 3 часа) [-]0[+]

[Цитировать] 

Hobbit38 писал(а):

AlexZoh
Такой же формат что и FLAC. Сжимает лучше, а нагрузка на систему такая же. Только проблема в том, что он не популярен из отсутствия обновлений и аппаратной поддержки.
тогда определитесь в каком формате Вы хотите заливать релиз. Без весомой причины обновления раздачи она будет в последующих перезаливах закрыта.
info [Профиль]  [ЛС] 

Hobbit38

Пол: Пол:Муж

Стаж: 3 года 5 месяцев

Сообщений: 165

Россия
Рейтинг

post 01-Июн-2017 18:04 (спустя 15 часов) [-]0[+]

[Цитировать] 

The Buzzhorn
Вернул все назад. FLAC все же лучше.
info [Профиль]  [ЛС] 

Hobbit38

Пол: Пол:Муж

Стаж: 3 года 5 месяцев

Сообщений: 165

Россия
Рейтинг

post 27-Сен-2017 15:15 (спустя 3 месяца 25 дней) [-]0[+]

[Цитировать] 

Обновление:
  • Замена на image+.cue.
info [Профиль]  [ЛС] 

AlexZoh

Пол: Пол:Муж

Стаж: 8 лет 1 месяц

Сообщений: 761

Россия
Рейтинг

post 27-Сен-2017 20:38 (спустя 5 часов) [-]1[+]

[Цитировать] 

Hobbit38, зачем, flac был проще и удобнее потреково когда.
От скуки перекодируете каждый раз? bw
info [Профиль]  [ЛС] 

778

Стаж: 8 лет 6 месяцев

Сообщений: 231

СССР
Рейтинг

post 27-Сен-2017 22:44 (спустя 2 часа 5 минут) [-]1[+]

[Цитировать] 

Саунд к первому ЦыЦ божественен!!! Никогда не забуду последний рывок двумя десятками мамонтов на храм в Сараево под "In the Line of Fire" в далёком 97-ом.

_________________
info [Профиль]  [ЛС] 

Dink

Пол: Пол:Муж

Стаж: 7 лет 6 месяцев

Сообщений: 95

СССР
Рейтинг

post 28-Сен-2017 18:36 (спустя 19 часов) [-]0[+]

[Цитировать] 

А я впервые C&C и RA1 прошел на PS1 вначале нулевых, дико кайфовал от треков "Mechanical Man" (Target) и "Industrial 1", крутил их по кругу. Вообще в первых двух играх очень мощный саундтрек для тех лет.
Какое же тогда удовольствие было прокатывать вражескую базу большой пачкой тяжелых танков - взрывы, крики, трупы и мощный адреналиновый музон Смеюсь После Дюны 2 казалось чем-то невообразимо крутым.
info [Профиль]  [ЛС] 

Polsta

Пол: Пол:Муж

Стаж: 4 года 11 месяцев

Сообщений: 9

Мальдивы
Рейтинг

post 28-Сен-2017 21:56 (спустя 3 часа) [-]0[+]

[Цитировать] 

А как это чудо натреки поделить?
info [Профиль]  [ЛС] 

AlexZoh

Пол: Пол:Муж

Стаж: 8 лет 1 месяц

Сообщений: 761

Россия
Рейтинг

post 29-Сен-2017 08:40 (спустя 10 часов) [-]1[+]

[Цитировать] 

Polsta писал(а):

А как это чудо натреки поделить?
Прога Medieval CUE Splitter для этого.
Хотя стоп. Где .cue, что ещё за tak?
info [Профиль]  [ЛС] 

Hobbit38

Пол: Пол:Муж

Стаж: 3 года 5 месяцев

Сообщений: 165

Россия
Рейтинг

post 14-Окт-2017 09:27 (спустя 15 дней) [-]0[+]

[Цитировать] 

Обновление:
  • Замена на tracks.
info [Профиль]  [ЛС] 
Показать сообщения:    
Ответить на тему

Текущее время: 23-Окт 11:54

Часовой пояс: GMT + 4



Вы не можете начинать темы
Вы не можете отвечать на сообщения
Вы не можете редактировать свои сообщения
Вы не можете удалять свои сообщения
Вы не можете голосовать в опросах
Вы не можете прикреплять файлы к сообщениям
Вы не можете скачивать файлы