Ошибка

Босс-молокосос / The Boss Baby (Том МакГрат) [2017, Мультфильм, приключения, комедия, семейный, полнометражный, WEB-DL 720p] iTunes

Ответить на тему
 
Автор Сообщение

L

Пол: Пол:Муж

Стаж: 7 лет 8 месяцев

Сообщений: 11818

Украина
Рейтинг

post 19-Май-2017 20:26 0[+]

[Цитировать] 

Босс-молокосос/ The Boss Baby
Год выпуска: 2017
Жанр: Мультфильм, приключения, комедия, семейный, полнометражный
Выпущено: США, DreamWorks Animation
Продолжительность: 01:37:53
Перевод: Дублированный | iTunes

Режиссер: Том МакГрат
В ролях: Майлз Кристофер Бакши, Алек Болдуин, Эрик Белл мл., Стив Бушеми, Джимми Киммел, Лиза Кудроу, Тоби Магуайр, ВивиЭнн Йи

О фильме: Эта актуальная во все времена история для взрослых и детей рассказывается от лица семилетнего брата новорожденного — фантазера Тима, который ревнует его к родителям. Но главный герой — совсем не простой ребенок, он обладает лидерскими задатками, уже носит деловые костюмы и во всем видит бизнес-задачу.



Качество: WEB-DL 720p
Формат: MKV
Видео: MPEG-4 AVC, ~ 3897 Кбит/с, 1280x542, 25 кадр/с
Аудио: Русский, английский (AC3, 6 ch, 384 Кбит/с)
Unique ID : 247767599534877577714855388973711762916 (0xBA664DCDA8054A20816BA367336825E4)
Complete name : E:\V\b0C.m0L0k0C0C.2O17.D.WEB-DL.72Op.mkv
Format : Matroska
Format version : Version 2
File size : 3.25 GiB
Duration : 1 h 37 min
Overall bit rate : 4 759 kb/s
Encoded date : UTC 2017-05-18 18:06:41
Writing application : mkvmerge v8.3.0 ('Over the Horizon') 64bit
Writing library : libebml v1.3.1 + libmatroska v1.4.2

Video
ID : 1
Format : AVC
Format/Info : Advanced Video Codec
Format profile : Main@L3.1
Format settings, CABAC : No
Format settings, ReFrames : 2 frames
Codec ID : V_MPEG4/ISO/AVC
Duration : 1 h 37 min
Bit rate : 3 897 kb/s
Width : 1 280 pixels
Height : 542 pixels
Display aspect ratio : 2.35:1
Frame rate mode : Constant
Frame rate : 24.000 FPS
Color space : YUV
Chroma subsampling : 4:2:0
Bit depth : 8 bits
Scan type : Progressive
Bits/(Pixel*Frame) : 0.234
Stream size : 2.66 GiB (82%)
Language : English
Default : Yes
Forced : No
Color range : Limited
Color primaries : BT.709
Transfer characteristics : BT.709
Matrix coefficients : BT.709

Audio #1
ID : 2
Format : AC-3
Format/Info : Audio Coding 3
Format settings, Endianness : Big
Codec ID : A_AC3
Duration : 1 h 37 min
Bit rate mode : Constant
Bit rate : 384 kb/s
Channel(s) : 6 channels
Channel positions : Front: L C R, Side: L R, LFE
Sampling rate : 48.0 kHz
Frame rate : 31.250 FPS (1536 spf)
Bit depth : 16 bits
Compression mode : Lossy
Stream size : 269 MiB (8%)
Language : Russian
Service kind : Complete Main
Default : Yes
Forced : No

Audio #2
ID : 3
Format : AC-3
Format/Info : Audio Coding 3
Format settings, Endianness : Big
Codec ID : A_AC3
Duration : 1 h 37 min
Bit rate mode : Constant
Bit rate : 384 kb/s
Channel(s) : 6 channels
Channel positions : Front: L C R, Side: L R, LFE
Sampling rate : 48.0 kHz
Frame rate : 31.250 FPS (1536 spf)
Bit depth : 16 bits
Compression mode : Lossy
Stream size : 269 MiB (8%)
Language : English
Service kind : Complete Main
Default : No
Forced : No

Menu
00:00:00.000 : en:1
00:03:44.891 : en:2
00:08:57.286 : en:3
00:11:44.911 : en:4
00:14:58.562 : en:5
00:19:37.215 : en:6
00:22:51.784 : en:7
00:28:26.243 : en:8
00:30:25.111 : en:9
00:33:44.477 : en:10
00:36:56.252 : en:11
00:39:17.351 : en:12
00:42:34.339 : en:13
00:46:19.605 : en:14
00:51:36.713 : en:15
00:53:24.278 : en:16
00:56:27.711 : en:17
00:59:34.397 : en:18
01:04:02.164 : en:19
01:08:14.749 : en:20
01:11:28.901 : en:21
01:16:24.238 : en:22
01:23:09.101 : en:23
01:27:35.951 : en:24
info [Профиль]  [ЛС] 

ChristySkipa

Пол: Пол:Жен

Стаж: 4 года 8 месяцев

Сообщений: 14

Украина
Рейтинг

post 21-Май-2017 13:46 (спустя 1 день 17 часов) [-]0[+]

[Цитировать] 

А есть русские субтитры?
info [Профиль]  [ЛС] 

BlackGur

Пол: Пол:Муж

Стаж: 5 лет 1 месяц

Сообщений: 25

Россия
Рейтинг

post 21-Май-2017 18:06 (спустя 4 часа) [-]0[+]

[Цитировать] 

ChristySkipa писал(а):

А есть русские субтитры?
Тут или тут

_________________
AMD FX-8350 4.5 Ghz
MSI GTX1050 Ti
16 gb ram
info [Профиль]  [ЛС] 
Показать сообщения:    
Ответить на тему

Текущее время: 13-Дек 01:42

Часовой пояс: GMT + 4



Вы не можете начинать темы
Вы не можете отвечать на сообщения
Вы не можете редактировать свои сообщения
Вы не можете удалять свои сообщения
Вы не можете голосовать в опросах
Вы не можете прикреплять файлы к сообщениям
Вы не можете скачивать файлы