Ошибка
Загрузка...

(Score) Aion: The Tower of Eternity (by Bang Ean Yang (Kunihiko Ryo)) - 2008 г., FLAC (tracks+.cue), lossless

Ответить на тему
 
Автор Сообщение

Hobbit38

Пол: Пол:Муж

Стаж: 3 года 4 месяца

Сообщений: 111

Россия
Рейтинг

post 18-Май-2017 21:53 1[+]

[Цитировать] 


Aion: The Tower of Eternity
Жанр: Score | Год выпуска: Oct 21, 2008 | Композитор: Bang Ean Yang (Kunihiko Ryo)

Страна-производитель диска: Корея | Издатель (лейбл): Endorf Music | Номер каталога: PCSD-00277

Аудиокодек: FLAC (.flac) | Тип рипа: tracks+.cue | Битрейт аудио: lossless

Продолжительность: 01:15:47 | Полиграфия: отсутствует

01. The Tower of Eternity (4:02)
02. The Wings of Knight (Origa Version) (2:54)
03. A Fairy of the Peace (4:30)
04. Kingdom of Light (4:30)
05. Song of Moonlight (3:24)
06. Solid State Battle (3:06)
07. Death Waltz (2:43)
08. Magma & Beast (3:14)
09. Blue Forest (3:13)
10. Forgotten Sorrow (English Version) (4:03)
11. Step to the Next World (3:20)
12. Darkness in Your Heart (3:28)
13. Voices from the Ruins (4:35)
14. Attack the Unsion (2:17)
15. Arabesque (2:12)
16. Dream of the Shepherd (2:59)
17. Red Land (3:40)
18. Dark's Innocence (3:30)
19. Raging Strings (3:22)
20. Flying Dragon (3:20)
21. Heaven's Gate (3:20)
22. Forgotten Sorrow (Korean Version) (4:03)
 
X Lossless Decoder version 20080926 (93.3)
XLD extraction logfile from 2008-12-25 12:47:41 +0100
??? / Aion
Used drive : MATSHITA DVD-R UJ-857D (revision KBVB)
Use cdparanoia mode : YES (CDParanoia III 10.2 engine)
Disable audio cache : OK for the drive with cache less than 2750KB
Make use of C2 pointers : NO
Read offset correction : 102
Max retry count : 100
TOC of the extracted CD
Track | Start | Length | Start sector | End sector
---------------------------------------------------------
1 | 00:00:00 | 04:01:71 | 0 | 18145
2 | 04:01:71 | 02:54:10 | 18146 | 31205
3 | 06:56:06 | 04:29:41 | 31206 | 51421
4 | 11:25:47 | 04:29:69 | 51422 | 71665
5 | 15:55:41 | 03:24:06 | 71666 | 86971
6 | 19:19:47 | 03:05:55 | 86972 | 100901
7 | 22:25:27 | 02:43:36 | 100902 | 113162
8 | 25:08:63 | 03:13:38 | 113163 | 127675
9 | 28:22:26 | 03:12:40 | 127676 | 142115
10 | 31:34:66 | 04:02:63 | 142116 | 160328
11 | 35:37:54 | 03:20:17 | 160329 | 175345
12 | 38:57:71 | 03:28:04 | 175346 | 190949
13 | 42:26:00 | 04:35:24 | 190950 | 211598
14 | 47:01:24 | 02:16:71 | 211599 | 221869
15 | 49:18:20 | 02:12:23 | 221870 | 231792
16 | 51:30:43 | 02:59:25 | 231793 | 245242
17 | 54:29:68 | 03:40:14 | 245243 | 261756
18 | 58:10:07 | 03:30:24 | 261757 | 277530
19 | 61:40:31 | 03:22:36 | 277531 | 292716
20 | 65:02:67 | 03:19:58 | 292717 | 307699
21 | 68:22:50 | 03:20:34 | 307700 | 322733
22 | 71:43:09 | 04:03:34 | 322734 | 340992
Track 01
Filename : /Volumes/BARRACUDA/Musik/Yang Bang Ean - Aion/01 ??? - The Tower Of Eternity (??? ?).flac
CRC32 hash (test run) : 55548413
CRC32 hash : 55548413
CRC32 hash (skip zero) : FBEB069A
AccurateRip signature : A67858E1
->Track not present in AccurateRip database.
Statistics
Read error : 0
Skipped (treated as error) : 0
Edge jitter error (maybe fixed) : 0
Atom jitter error (maybe fixed) : 0
Drift error (maybe fixed) : 0
Dropped bytes error (maybe fixed) : 0
Duplicated bytes error (maybe fixed) : 0
Inconsistency in error sectors : 0
Track 02
Filename : /Volumes/BARRACUDA/Musik/Yang Bang Ean - Aion/02 ??? - The Wings Of Knight (??? ??) [Origa Version].flac
CRC32 hash (test run) : 34928C36
CRC32 hash : 34928C36
CRC32 hash (skip zero) : 0886F9FC
AccurateRip signature : A0965EF5
->Track not present in AccurateRip database.
Statistics
Read error : 0
Skipped (treated as error) : 0
Edge jitter error (maybe fixed) : 0
Atom jitter error (maybe fixed) : 0
Drift error (maybe fixed) : 0
Dropped bytes error (maybe fixed) : 0
Duplicated bytes error (maybe fixed) : 0
Inconsistency in error sectors : 0
Track 03
Filename : /Volumes/BARRACUDA/Musik/Yang Bang Ean - Aion/03 ??? - A Fairy Of The Peace (???? ??).flac
CRC32 hash (test run) : 003966BD
CRC32 hash : 003966BD
CRC32 hash (skip zero) : 59695267
AccurateRip signature : 25DB136E
->Track not present in AccurateRip database.
Statistics
Read error : 0
Skipped (treated as error) : 0
Edge jitter error (maybe fixed) : 0
Atom jitter error (maybe fixed) : 0
Drift error (maybe fixed) : 0
Dropped bytes error (maybe fixed) : 0
Duplicated bytes error (maybe fixed) : 0
Inconsistency in error sectors : 0
Track 04
Filename : /Volumes/BARRACUDA/Musik/Yang Bang Ean - Aion/04 ??? - Kingdom Of Light (??? ??).flac
CRC32 hash (test run) : AF297191
CRC32 hash : AF297191
CRC32 hash (skip zero) : 19CF2A95
AccurateRip signature : 5F812B70
->Track not present in AccurateRip database.
Statistics
Read error : 0
Skipped (treated as error) : 0
Edge jitter error (maybe fixed) : 0
Atom jitter error (maybe fixed) : 0
Drift error (maybe fixed) : 0
Dropped bytes error (maybe fixed) : 0
Duplicated bytes error (maybe fixed) : 0
Inconsistency in error sectors : 0
Track 05
Filename : /Volumes/BARRACUDA/Musik/Yang Bang Ean - Aion/05 ??? - Song Of Moonlight (??? ??).flac
CRC32 hash (test run) : 552D477F
CRC32 hash : 552D477F
CRC32 hash (skip zero) : A1FEE8F3
AccurateRip signature : 67E33C64
->Track not present in AccurateRip database.
Statistics
Read error : 0
Skipped (treated as error) : 0
Edge jitter error (maybe fixed) : 0
Atom jitter error (maybe fixed) : 0
Drift error (maybe fixed) : 0
Dropped bytes error (maybe fixed) : 0
Duplicated bytes error (maybe fixed) : 0
Inconsistency in error sectors : 0
Track 06
Filename : /Volumes/BARRACUDA/Musik/Yang Bang Ean - Aion/06 ??? - Solid State Battle (??).flac
CRC32 hash (test run) : 59EDDEA5
CRC32 hash : 59EDDEA5
CRC32 hash (skip zero) : AF3BD499
AccurateRip signature : C274EBB4
->Track not present in AccurateRip database.
Statistics
Read error : 0
Skipped (treated as error) : 0
Edge jitter error (maybe fixed) : 0
Atom jitter error (maybe fixed) : 0
Drift error (maybe fixed) : 0
Dropped bytes error (maybe fixed) : 0
Duplicated bytes error (maybe fixed) : 0
Inconsistency in error sectors : 0
Track 07
Filename : /Volumes/BARRACUDA/Musik/Yang Bang Ean - Aion/07 ??? - Death Waltz (??? ??).flac
CRC32 hash (test run) : CDE59642
CRC32 hash : CDE59642
CRC32 hash (skip zero) : 1A04A90F
AccurateRip signature : 4B05E38D
->Track not present in AccurateRip database.
Statistics
Read error : 0
Skipped (treated as error) : 0
Edge jitter error (maybe fixed) : 0
Atom jitter error (maybe fixed) : 0
Drift error (maybe fixed) : 0
Dropped bytes error (maybe fixed) : 0
Duplicated bytes error (maybe fixed) : 0
Inconsistency in error sectors : 0
Track 08
Filename : /Volumes/BARRACUDA/Musik/Yang Bang Ean - Aion/08 ??? - Magma & Beast (??? ??).flac
CRC32 hash (test run) : D9ED59C3
CRC32 hash : D9ED59C3
CRC32 hash (skip zero) : 89F4A086
AccurateRip signature : 618CE40F
->Track not present in AccurateRip database.
Statistics
Read error : 0
Skipped (treated as error) : 0
Edge jitter error (maybe fixed) : 0
Atom jitter error (maybe fixed) : 0
Drift error (maybe fixed) : 0
Dropped bytes error (maybe fixed) : 0
Duplicated bytes error (maybe fixed) : 0
Inconsistency in error sectors : 0
Track 09
Filename : /Volumes/BARRACUDA/Musik/Yang Bang Ean - Aion/09 ??? - Blue Forest (?? ??).flac
CRC32 hash (test run) : CCC3F118
CRC32 hash : CCC3F118
CRC32 hash (skip zero) : 52D05DEB
AccurateRip signature : A95E30FF
->Track not present in AccurateRip database.
Statistics
Read error : 0
Skipped (treated as error) : 0
Edge jitter error (maybe fixed) : 0
Atom jitter error (maybe fixed) : 0
Drift error (maybe fixed) : 0
Dropped bytes error (maybe fixed) : 0
Duplicated bytes error (maybe fixed) : 0
Inconsistency in error sectors : 0
Track 10
Filename : /Volumes/BARRACUDA/Musik/Yang Bang Ean - Aion/10 ??? - Forgotten Sorrow (??? ?? ??) [English Version].flac
CRC32 hash (test run) : 8945C8E5
CRC32 hash : 8945C8E5
CRC32 hash (skip zero) : EE66FF5A
AccurateRip signature : E4135EAA
->Track not present in AccurateRip database.
Statistics
Read error : 0
Skipped (treated as error) : 0
Edge jitter error (maybe fixed) : 0
Atom jitter error (maybe fixed) : 0
Drift error (maybe fixed) : 0
Dropped bytes error (maybe fixed) : 0
Duplicated bytes error (maybe fixed) : 0
Inconsistency in error sectors : 0
Track 11
Filename : /Volumes/BARRACUDA/Musik/Yang Bang Ean - Aion/11 ??? - Step To The Next World (????? ??).flac
CRC32 hash (test run) : 6FDE1D2E
CRC32 hash : 6FDE1D2E
CRC32 hash (skip zero) : 6C474763
AccurateRip signature : DE221E53
->Track not present in AccurateRip database.
Statistics
Read error : 0
Skipped (treated as error) : 0
Edge jitter error (maybe fixed) : 0
Atom jitter error (maybe fixed) : 0
Drift error (maybe fixed) : 0
Dropped bytes error (maybe fixed) : 0
Duplicated bytes error (maybe fixed) : 0
Inconsistency in error sectors : 0
Track 12
Filename : /Volumes/BARRACUDA/Musik/Yang Bang Ean - Aion/12 ??? - Darkness In Your Heart (??? ??).flac
CRC32 hash (test run) : 26C84B01
CRC32 hash : 26C84B01
CRC32 hash (skip zero) : 4FB229CE
AccurateRip signature : 8B67E3C8
->Track not present in AccurateRip database.
Statistics
Read error : 0
Skipped (treated as error) : 0
Edge jitter error (maybe fixed) : 0
Atom jitter error (maybe fixed) : 0
Drift error (maybe fixed) : 0
Dropped bytes error (maybe fixed) : 0
Duplicated bytes error (maybe fixed) : 0
Inconsistency in error sectors : 0
Track 13
Filename : /Volumes/BARRACUDA/Musik/Yang Bang Ean - Aion/13 ??? - Voices From The Ruins (??? ???).flac
CRC32 hash (test run) : 0ABDEE15
CRC32 hash : 0ABDEE15
CRC32 hash (skip zero) : 77C71945
AccurateRip signature : 04CDAE7F
->Track not present in AccurateRip database.
Statistics
Read error : 0
Skipped (treated as error) : 0
Edge jitter error (maybe fixed) : 0
Atom jitter error (maybe fixed) : 0
Drift error (maybe fixed) : 0
Dropped bytes error (maybe fixed) : 0
Duplicated bytes error (maybe fixed) : 0
Inconsistency in error sectors : 0
Track 14
Filename : /Volumes/BARRACUDA/Musik/Yang Bang Ean - Aion/14 ??? - Attack The Unsion (???? ??).flac
CRC32 hash (test run) : 1C398333
CRC32 hash : 1C398333
CRC32 hash (skip zero) : 144FB6A3
AccurateRip signature : 58370CA3
->Track not present in AccurateRip database.
Statistics
Read error : 0
Skipped (treated as error) : 0
Edge jitter error (maybe fixed) : 0
Atom jitter error (maybe fixed) : 0
Drift error (maybe fixed) : 0
Dropped bytes error (maybe fixed) : 0
Duplicated bytes error (maybe fixed) : 0
Inconsistency in error sectors : 0
Track 15
Filename : /Volumes/BARRACUDA/Musik/Yang Bang Ean - Aion/15 ??? - Arabesque (?????).flac
CRC32 hash (test run) : 4DF7B3AF
CRC32 hash : 4DF7B3AF
CRC32 hash (skip zero) : 0D428080
AccurateRip signature : 44E4976C
->Track not present in AccurateRip database.
Statistics
Read error : 0
Skipped (treated as error) : 0
Edge jitter error (maybe fixed) : 0
Atom jitter error (maybe fixed) : 0
Drift error (maybe fixed) : 0
Dropped bytes error (maybe fixed) : 0
Duplicated bytes error (maybe fixed) : 0
Inconsistency in error sectors : 0
Track 16
Filename : /Volumes/BARRACUDA/Musik/Yang Bang Ean - Aion/16 ??? - Dream Of The Shepherd (???? ?).flac
CRC32 hash (test run) : 4F3E87B8
CRC32 hash : 4F3E87B8
CRC32 hash (skip zero) : D85772A4
AccurateRip signature : DE426A35
->Track not present in AccurateRip database.
Statistics
Read error : 0
Skipped (treated as error) : 0
Edge jitter error (maybe fixed) : 0
Atom jitter error (maybe fixed) : 0
Drift error (maybe fixed) : 0
Dropped bytes error (maybe fixed) : 0
Duplicated bytes error (maybe fixed) : 0
Inconsistency in error sectors : 0
Track 17
Filename : /Volumes/BARRACUDA/Musik/Yang Bang Ean - Aion/17 ??? - Red Land (?? ??).flac
CRC32 hash (test run) : D18D7360
CRC32 hash : D18D7360
CRC32 hash (skip zero) : A6F8EA4B
AccurateRip signature : 0CA79A61
->Track not present in AccurateRip database.
Statistics
Read error : 0
Skipped (treated as error) : 0
Edge jitter error (maybe fixed) : 0
Atom jitter error (maybe fixed) : 0
Drift error (maybe fixed) : 0
Dropped bytes error (maybe fixed) : 0
Duplicated bytes error (maybe fixed) : 0
Inconsistency in error sectors : 0
Track 18
Filename : /Volumes/BARRACUDA/Musik/Yang Bang Ean - Aion/18 ??? - Dark's Innocence (??? ??).flac
CRC32 hash (test run) : 4E01D458
CRC32 hash : 4E01D458
CRC32 hash (skip zero) : A7E6F63D
AccurateRip signature : E58E2385
->Track not present in AccurateRip database.
Statistics
Read error : 0
Skipped (treated as error) : 0
Edge jitter error (maybe fixed) : 0
Atom jitter error (maybe fixed) : 0
Drift error (maybe fixed) : 0
Dropped bytes error (maybe fixed) : 0
Duplicated bytes error (maybe fixed) : 0
Inconsistency in error sectors : 0
Track 19
Filename : /Volumes/BARRACUDA/Musik/Yang Bang Ean - Aion/19 ??? - Raging Strings (??? ???).flac
CRC32 hash (test run) : 4EEC3DF7
CRC32 hash : 4EEC3DF7
CRC32 hash (skip zero) : F80A678F
AccurateRip signature : 60BDA81F
->Track not present in AccurateRip database.
Statistics
Read error : 0
Skipped (treated as error) : 0
Edge jitter error (maybe fixed) : 0
Atom jitter error (maybe fixed) : 0
Drift error (maybe fixed) : 0
Dropped bytes error (maybe fixed) : 0
Duplicated bytes error (maybe fixed) : 0
Inconsistency in error sectors : 0
Track 20
Filename : /Volumes/BARRACUDA/Musik/Yang Bang Ean - Aion/20 ??? - Flying Dragon (?? ??).flac
CRC32 hash (test run) : 7B52FB4D
CRC32 hash : 7B52FB4D
CRC32 hash (skip zero) : B11C870F
AccurateRip signature : 4BA53F19
->Track not present in AccurateRip database.
Statistics
Read error : 0
Skipped (treated as error) : 0
Edge jitter error (maybe fixed) : 0
Atom jitter error (maybe fixed) : 0
Drift error (maybe fixed) : 0
Dropped bytes error (maybe fixed) : 0
Duplicated bytes error (maybe fixed) : 0
Inconsistency in error sectors : 0
Track 21
Filename : /Volumes/BARRACUDA/Musik/Yang Bang Ean - Aion/21 ??? - Heaven's Gate (??? ??).flac
CRC32 hash (test run) : F0F68985
CRC32 hash : F0F68985
CRC32 hash (skip zero) : F8DBE0C2
AccurateRip signature : 49C5A71B
->Track not present in AccurateRip database.
Statistics
Read error : 0
Skipped (treated as error) : 0
Edge jitter error (maybe fixed) : 0
Atom jitter error (maybe fixed) : 0
Drift error (maybe fixed) : 0
Dropped bytes error (maybe fixed) : 0
Duplicated bytes error (maybe fixed) : 0
Inconsistency in error sectors : 0
Track 22
Filename : /Volumes/BARRACUDA/Musik/Yang Bang Ean - Aion/22 ??? - Forgotten Sorrow (??? ?? ??) [Korean Version].flac
CRC32 hash (test run) : 65CD7287
CRC32 hash : 65CD7287
CRC32 hash (skip zero) : 11F6B310
AccurateRip signature : 5614BFAA
->Track not present in AccurateRip database.
Statistics
Read error : 0
Skipped (treated as error) : 0
Edge jitter error (maybe fixed) : 0
Atom jitter error (maybe fixed) : 0
Drift error (maybe fixed) : 0
Dropped bytes error (maybe fixed) : 0
Duplicated bytes error (maybe fixed) : 0
Inconsistency in error sectors : 0
No errors occurred
End of status report
 
REM GENRE Score
REM DATE 2008
PERFORMER "Bang Ean Yang (Kunihiko Ryo)"
TITLE "Aion: The Tower of Eternity"
REM REPLAYGAIN_ALBUM_GAIN -5.17 dB
REM REPLAYGAIN_ALBUM_PEAK 0.998871
FILE "01. The Tower of Eternity.flac" WAVE
TRACK 01 AUDIO
TITLE "The Tower of Eternity"
PERFORMER "Bang Ean Yang (Kunihiko Ryo)"
REM REPLAYGAIN_TRACK_GAIN -5.27 dB
REM REPLAYGAIN_TRACK_PEAK 0.998871
INDEX 01 00:00:00
FILE "02. The Wings of Knight (Origa Version).flac" WAVE
TRACK 02 AUDIO
TITLE "The Wings of Knight (Origa Version)"
PERFORMER "Bang Ean Yang (Kunihiko Ryo)"
REM REPLAYGAIN_TRACK_GAIN -7.29 dB
REM REPLAYGAIN_TRACK_PEAK 0.998871
INDEX 01 00:00:00
FILE "03. A Fairy of the Peace.flac" WAVE
TRACK 03 AUDIO
TITLE "A Fairy of the Peace"
PERFORMER "Bang Ean Yang (Kunihiko Ryo)"
REM REPLAYGAIN_TRACK_GAIN -4.32 dB
REM REPLAYGAIN_TRACK_PEAK 0.998871
INDEX 01 00:00:00
FILE "04. Kingdom of Light.flac" WAVE
TRACK 04 AUDIO
TITLE "Kingdom of Light"
PERFORMER "Bang Ean Yang (Kunihiko Ryo)"
REM REPLAYGAIN_TRACK_GAIN -6.64 dB
REM REPLAYGAIN_TRACK_PEAK 0.998871
INDEX 01 00:00:00
FILE "05. Song of Moonlight.flac" WAVE
TRACK 05 AUDIO
TITLE "Song of Moonlight"
PERFORMER "Bang Ean Yang (Kunihiko Ryo)"
REM REPLAYGAIN_TRACK_GAIN -4.72 dB
REM REPLAYGAIN_TRACK_PEAK 0.998871
INDEX 01 00:00:00
FILE "06. Solid State Battle.flac" WAVE
TRACK 06 AUDIO
TITLE "Solid State Battle"
PERFORMER "Bang Ean Yang (Kunihiko Ryo)"
REM REPLAYGAIN_TRACK_GAIN -5.81 dB
REM REPLAYGAIN_TRACK_PEAK 0.998871
INDEX 01 00:00:00
FILE "07. Death Waltz.flac" WAVE
TRACK 07 AUDIO
TITLE "Death Waltz"
PERFORMER "Bang Ean Yang (Kunihiko Ryo)"
REM REPLAYGAIN_TRACK_GAIN -3.16 dB
REM REPLAYGAIN_TRACK_PEAK 0.967896
INDEX 01 00:00:00
FILE "08. Magma & Beast.flac" WAVE
TRACK 08 AUDIO
TITLE "Magma & Beast"
PERFORMER "Bang Ean Yang (Kunihiko Ryo)"
REM REPLAYGAIN_TRACK_GAIN -5.37 dB
REM REPLAYGAIN_TRACK_PEAK 0.998871
INDEX 01 00:00:00
FILE "09. Blue Forest.flac" WAVE
TRACK 09 AUDIO
TITLE "Blue Forest"
PERFORMER "Bang Ean Yang (Kunihiko Ryo)"
REM REPLAYGAIN_TRACK_GAIN -3.40 dB
REM REPLAYGAIN_TRACK_PEAK 0.998840
INDEX 01 00:00:00
FILE "10. Forgotten Sorrow (English Version).flac" WAVE
TRACK 10 AUDIO
TITLE "Forgotten Sorrow (English Version)"
PERFORMER "Bang Ean Yang (Kunihiko Ryo)"
REM REPLAYGAIN_TRACK_GAIN -4.85 dB
REM REPLAYGAIN_TRACK_PEAK 0.890228
INDEX 01 00:00:00
FILE "11. Step to the Next World.flac" WAVE
TRACK 11 AUDIO
TITLE "Step to the Next World"
PERFORMER "Bang Ean Yang (Kunihiko Ryo)"
REM REPLAYGAIN_TRACK_GAIN -4.43 dB
REM REPLAYGAIN_TRACK_PEAK 0.998871
INDEX 01 00:00:00
FILE "12. Darkness in Your Heart.flac" WAVE
TRACK 12 AUDIO
TITLE "Darkness in Your Heart"
PERFORMER "Bang Ean Yang (Kunihiko Ryo)"
REM REPLAYGAIN_TRACK_GAIN -5.66 dB
REM REPLAYGAIN_TRACK_PEAK 0.998199
INDEX 01 00:00:00
FILE "13. Voices from the Ruins.flac" WAVE
TRACK 13 AUDIO
TITLE "Voices from the Ruins"
PERFORMER "Bang Ean Yang (Kunihiko Ryo)"
REM REPLAYGAIN_TRACK_GAIN -3.48 dB
REM REPLAYGAIN_TRACK_PEAK 0.890228
INDEX 01 00:00:00
FILE "14. Attack the Unsion.flac" WAVE
TRACK 14 AUDIO
TITLE "Attack the Unsion"
PERFORMER "Bang Ean Yang (Kunihiko Ryo)"
REM REPLAYGAIN_TRACK_GAIN -6.94 dB
REM REPLAYGAIN_TRACK_PEAK 0.998871
INDEX 01 00:00:00
FILE "15. Arabesque.flac" WAVE
TRACK 15 AUDIO
TITLE "Arabesque"
PERFORMER "Bang Ean Yang (Kunihiko Ryo)"
REM REPLAYGAIN_TRACK_GAIN -5.54 dB
REM REPLAYGAIN_TRACK_PEAK 0.998718
INDEX 01 00:00:00
FILE "16. Dream of the Shepherd.flac" WAVE
TRACK 16 AUDIO
TITLE "Dream of the Shepherd"
PERFORMER "Bang Ean Yang (Kunihiko Ryo)"
REM REPLAYGAIN_TRACK_GAIN -3.28 dB
REM REPLAYGAIN_TRACK_PEAK 0.998840
INDEX 01 00:00:00
FILE "17. Red Land.flac" WAVE
TRACK 17 AUDIO
TITLE "Red Land"
PERFORMER "Bang Ean Yang (Kunihiko Ryo)"
REM REPLAYGAIN_TRACK_GAIN -4.52 dB
REM REPLAYGAIN_TRACK_PEAK 0.948700
INDEX 01 00:00:00
FILE "18. Dark's Innocence.flac" WAVE
TRACK 18 AUDIO
TITLE "Dark's Innocence"
PERFORMER "Bang Ean Yang (Kunihiko Ryo)"
REM REPLAYGAIN_TRACK_GAIN -2.42 dB
REM REPLAYGAIN_TRACK_PEAK 0.998840
INDEX 01 00:00:00
FILE "19. Raging Strings.flac" WAVE
TRACK 19 AUDIO
TITLE "Raging Strings"
PERFORMER "Bang Ean Yang (Kunihiko Ryo)"
REM REPLAYGAIN_TRACK_GAIN -4.58 dB
REM REPLAYGAIN_TRACK_PEAK 0.998871
INDEX 01 00:00:00
FILE "20. Flying Dragon.flac" WAVE
TRACK 20 AUDIO
TITLE "Flying Dragon"
PERFORMER "Bang Ean Yang (Kunihiko Ryo)"
REM REPLAYGAIN_TRACK_GAIN -4.97 dB
REM REPLAYGAIN_TRACK_PEAK 0.977020
INDEX 01 00:00:00
FILE "21. Heaven's Gate.flac" WAVE
TRACK 21 AUDIO
TITLE "Heaven's Gate"
PERFORMER "Bang Ean Yang (Kunihiko Ryo)"
REM REPLAYGAIN_TRACK_GAIN -6.39 dB
REM REPLAYGAIN_TRACK_PEAK 0.996063
INDEX 01 00:00:00
FILE "22. Forgotten Sorrow (Korean Version).flac" WAVE
TRACK 22 AUDIO
TITLE "Forgotten Sorrow (Korean Version)"
PERFORMER "Bang Ean Yang (Kunihiko Ryo)"
REM REPLAYGAIN_TRACK_GAIN -5.73 dB
REM REPLAYGAIN_TRACK_PEAK 0.998871
INDEX 01 00:00:00
info [Профиль]  [ЛС] 

Hobbit38

Пол: Пол:Муж

Стаж: 3 года 4 месяца

Сообщений: 111

Россия
Рейтинг

post 19-Май-2017 10:20 (спустя 12 часов) [-]0[+]

[Цитировать] 

del
info [Профиль]  [ЛС] 

Hobbit38

Пол: Пол:Муж

Стаж: 3 года 4 месяца

Сообщений: 111

Россия
Рейтинг

post 31-Май-2017 15:13 (спустя 12 дней) [-]0[+]

[Цитировать] 

Обновление:
  • Замена на TAK.
info [Профиль]  [ЛС] 

The Buzzhorn

Пол: Пол:Муж

Стаж: 6 лет 11 месяцев

Сообщений: 942

Германия
Рейтинг

post 31-Май-2017 18:23 (спустя 3 часа) [-]0[+]

[Цитировать] 

Hobbit38 писал(а):

Обновление:
  • Замена на TAK.
причина?
info [Профиль]  [ЛС] 

Hobbit38

Пол: Пол:Муж

Стаж: 3 года 4 месяца

Сообщений: 111

Россия
Рейтинг

post 31-Май-2017 18:42 (спустя 19 минут) [-]0[+]

[Цитировать] 

The Buzzhorn
Раздача меньше весит.

Обновление:
  • Убран лишний файл.
info [Профиль]  [ЛС] 

The Buzzhorn

Пол: Пол:Муж

Стаж: 6 лет 11 месяцев

Сообщений: 942

Германия
Рейтинг

post 01-Июн-2017 02:29 (спустя 7 часов) [-]0[+]

[Цитировать] 

Hobbit38 писал(а):

Обновление:
  • Убран лишний файл.
Нужно убирать при изначальном создании раздачи. Без весомой причины обновления раздачи она будет в последующих перезаливах закрыта.
info [Профиль]  [ЛС] 

Hobbit38

Пол: Пол:Муж

Стаж: 3 года 4 месяца

Сообщений: 111

Россия
Рейтинг

post 01-Июн-2017 16:48 (спустя 14 часов) [-]0[+]

[Цитировать] 

The Buzzhorn
Возвратил все назад.
info [Профиль]  [ЛС] 
Показать сообщения:    
Ответить на тему

Текущее время: 19-Сен 15:55

Часовой пояс: GMT + 4



Вы не можете начинать темы
Вы не можете отвечать на сообщения
Вы не можете редактировать свои сообщения
Вы не можете удалять свои сообщения
Вы не можете голосовать в опросах
Вы не можете прикреплять файлы к сообщениям
Вы не можете скачивать файлы