Ошибка

Богиня с косичками / Mitsuami no Kamisama / Pigtails [Movie] [1 из 1] [2015] [повседневность, драма] [DVDRip] [404p] [Любительский (JAP+SUB)]

Ответить на тему
 
Автор Сообщение

TotSamiySoer

Пол: Пол:Муж

Стаж: 2 года 7 месяцев

Сообщений: 296

Россия
Рейтинг

post 02-Май-2017 20:29 0[+]

[Цитировать] 

Богиня с косичками / Mitsuami no Kamisama / Pigtails

Год выпуска: 2015
Страна: Япония
Жанр: повседневность, драма
Тип: короткометражный фильм
Продолжительность: 1 эп. ~30 мин.
Студия: Production I.G
Режиссер: Итадзу Ёсими
Озвучание: двухголосое (муж./жен.): Soer, MezIdA [DeadLine Studio]
Субтитры: zafhos
Описание:
В мире, который, казалось, пережил землетрясение или ядерную катастрофу, живёт девочка. Её жизнь наполнена спокойствием: она стирает, учится, наблюдает за вещами, которые стали совсем как люди - живыми, рассказывающими свои маленькие, но такие проникновенные истории. И жизнь была бы счастливой, если бы не Стена, что отделяет людей и мир за ней. Зачем создали эту Стену? Что скрывается на той стороне? Мицуами не ищет ответов на эти вопросы, но они приходят к ней, и настаёт время сделать выбор...
Информация о видео:

Качество: DVDRip | Формат: .mkv
Видео: x264(8 bit.), 720x404, 1757 kbps , 23.976 fps
Звук (Rus(int)): AC3, 192 kbps, 48.0 KHz, 2.0 ch | [2VO]
Звук (Japanese): AAC, 152 kbps, 44.1 KHz, 2.0 ch | Original
Субтитры (Russian): ass, встроенные | только надписи (включены по умолчанию)
Субтитры (Russian): ass, встроенные | полный перевод
Хардсаб: отсутствует

General
Unique ID : 229419090370830705577885459137329702934 (0xAC988274E0EE27F6A43BD2BB0CAD2816)
Complete name : D:\[DLS] Mitsuami no Kamisama [Soer & MezIdA]\[DeadLine] Mitsuami no Kamisama [Soer & MezIdA] [DVDRip 404p].mkv
Format : Matroska
Format version : Version 4 / Version 2
File size : 424 MiB
Duration : 28mn 10s
Overall bit rate : 2 103 Kbps
Encoded date : UTC 2017-05-02 16:17:11
Writing application : mkvmerge v7.6.0 ('Garden of Dreams') 64bit built on Feb 8 2015 13:04:34
Writing library : libebml v1.3.1 + libmatroska v1.4.2 / Lavf54.63.104

Video
ID : 1
Format : AVC
Format/Info : Advanced Video Codec
Format profile : Main@L3
Format settings, CABAC : Yes
Format settings, ReFrames : 1 frame
Codec ID : V_MPEG4/ISO/AVC
Duration : 28mn 10s
Bit rate : 1 757 Kbps
Nominal bit rate : 1 845 Kbps
Width : 720 pixels
Height : 404 pixels
Display aspect ratio : 16:9
Frame rate mode : Constant
Frame rate : 29.970 (29970/1000) fps
Color space : YUV
Chroma subsampling : 4:2:0
Bit depth : 8 bits
Scan type : Progressive
Bits/(Pixel*Frame) : 0.202
Stream size : 354 MiB (84%)
Writing library : x264 core 129
Encoding settings : cabac=1 / ref=1 / deblock=1:0:0 / analyse=0x1:0x131 / me=dia / subme=2 / psy=1 / psy_rd=1.00:0.00 / mixed_ref=0 / me_range=16 / chroma_me=1 / trellis=0 / 8x8dct=0 / cqm=0 / deadzone=21,11 / fast_pskip=1 / chroma_qp_offset=0 / threads=8 / lookahead_threads=1 / sliced_threads=0 / nr=0 / decimate=1 / interlaced=0 / bluray_compat=0 / constrained_intra=0 / bframes=0 / weightp=2 / keyint=250 / keyint_min=25 / scenecut=40 / intra_refresh=0 / rc_lookahead=40 / rc=abr / mbtree=1 / bitrate=1845 / ratetol=1.0 / qcomp=0.60 / qpmin=10 / qpmax=51 / qpstep=4 / ip_ratio=1.41 / aq=1:1.00
Default : Yes
Forced : No

Audio #1
ID : 2
Format : AC-3
Format/Info : Audio Coding 3
Mode extension : CM (complete main)
Format settings, Endianness : Big
Codec ID : A_AC3
Duration : 28mn 10s
Bit rate mode : Constant
Bit rate : 192 Kbps
Channel(s) : 2 channels
Channel positions : Front: L R
Sampling rate : 48.0 KHz
Frame rate : 31.250 fps (1536 spf)
Compression mode : Lossy
Stream size : 38.7 MiB (9%)
Title : [Soer & MezIdA] [Deadline Studio]
Language : Russian
Default : Yes
Forced : Yes

Audio #2
ID : 3
Format : AAC
Format/Info : Advanced Audio Codec
Format profile : LC
Codec ID : A_AAC
Duration : 28mn 10s
Bit rate : 152 Kbps
Channel(s) : 2 channels
Channel positions : Front: L R
Sampling rate : 44.1 KHz
Frame rate : 43.066 fps (1024 spf)
Compression mode : Lossy
Stream size : 30.5 MiB (7%)
Title : Original
Language : Japanese
Default : No
Forced : No

Text #1
ID : 4
Format : ASS
Codec ID : S_TEXT/ASS
Codec ID/Info : Advanced Sub Station Alpha
Duration : 6s 910ms
Bit rate : 118 bps
Count of elements : 1
Compression mode : Lossless
Stream size : 102 Bytes (0%)
Title : Надписи
Language : Russian
Default : Yes
Forced : Yes

Text #2
ID : 5
Format : ASS
Codec ID : S_TEXT/ASS
Codec ID/Info : Advanced Sub Station Alpha
Duration : 23mn 37s
Bit rate : 70 bps
Count of elements : 149
Compression mode : Lossless
Stream size : 12.2 KiB (0%)
Title : Полные субтитры
Language : Russian
Default : No
Forced : No
info [Профиль]  [ЛС] 

TotSamiySoer

Пол: Пол:Муж

Стаж: 2 года 7 месяцев

Сообщений: 296

Россия
Рейтинг

post 02-Май-2017 20:30 (спустя 1 минута) [-]0[+]

[Цитировать] 

Добавлен: короткометражный фильм
info [Профиль]  [ЛС] 
Показать сообщения:    
Ответить на тему

Текущее время: 26-Июн 07:49

Часовой пояс: GMT + 4



Вы не можете начинать темы
Вы не можете отвечать на сообщения
Вы не можете редактировать свои сообщения
Вы не можете удалять свои сообщения
Вы не можете голосовать в опросах
Вы не можете прикреплять файлы к сообщениям
Вы не можете скачивать файлы