Ошибка

Цельнометаллическая оболочка / Full Metal Jacket (Стэнли Кубрик / Stanley Kubrick) [1987 г., драма, военный, DVDRip-AVC] [Full Screen] AVO

Ответить на тему
 
Автор Сообщение

apx1med

Пол: Пол:Муж

Стаж: 7 лет 3 месяца

Сообщений: 920

СССР
Рейтинг

post 30-Апр-2017 01:11 0[+]

[Цитировать] 

Цельнометаллическая оболочка / Full Metal Jacket
«Born to Kill»

Год выпуска: 1987
Страна: Великобритания , США
Жанр: драма, военный
Продолжительность: 01:56:31
Перевод: Авторский (одноголосый закадровый) [Дмитрий "Goblin" Пучков]
Субтитры: Нет
Режиссер: Стэнли Кубрик / Stanley Kubrick
В ролях: Мэттью Модайн (Pvt. J.T. «Joker» Davis), Адам Болдуин (Animal Mother), Винсент Д’Онофрио (Pvt. Leonard «Gomer Pyle» Lawrence), Р. Ли Эрми (Gny. Sgt. Hartman), Дориан Хэрвуд (Eightball), Кевин Мейджор Ховард (Rafterman), Арлисс Ховард (Pvt. Cowboy), Эд О’Росс (Lt. Touchdown), Джон Терри (Lt. Lockhart), Кирон Джеккинис (Crazy Earl)

Описание:
Американская база подготовки новобранцев корпуса морской пехоты. Жесточайшая, бесчеловечная система призвана превратить домашних мальчишек в натренированных хладнокровных убийц. Их готовят к войне во Вьетнаме, где им придется часто задавать себе вопрос «Разве война — это не ад?», а иначе просто невозможно убивать каждый день, не понимая, для чего это?
Качество: DVDRip-AVC [Full Screen]
Формат: MKV
Видео кодек: AVC
Аудио кодек: АС3
Видео: 720x480 (4:3) @ 720x540, 23.976 fps, AVC, ~1 600 Kbps, 0.193 bits/pixel
Аудио: 48 kHz, AC3 Dolby Digital, 2/0 (L,R) ch, ~192 kbps


Код:

Format : Matroska
Format version : Version 4 / Version 2
File size : 1.46 GiB
Duration : 1 h 56 min
Overall bit rate : 1 793 kb/s
Encoded date : UTC 2016-11-15 18:19:07
Writing application : mkvmerge v8.5.2 ('Crosses') 64bit
Writing library : libebml v1.3.3 + libmatroska v1.4.4
Video
ID : 1
Format : AVC
Format/Info : Advanced Video Codec
Format profile : High@L4.1
Format settings, CABAC : Yes
Format settings, ReFrames : 14 frames
Codec ID : V_MPEG4/ISO/AVC
Duration : 1 h 56 min
Bit rate : 1 600 kb/s
Width : 720 pixels
Height : 480 pixels
Display aspect ratio : 4:3
Frame rate mode : Constant
Frame rate : 23.976 (24000/1001) FPS
Color space : YUV
Chroma subsampling : 4:2:0
Bit depth : 8 bits
Scan type : Progressive
Bits/(Pixel*Frame) : 0.193
Stream size : 1.30 GiB (89%)
Title : Full Metal Jacket.1987
Writing library : x264 core 148 r2638 7599210
Encoding settings : cabac=1 / ref=14 / deblock=1:-2:-1 / analyse=0x3:0x113 / me=umh / subme=11 / psy=1 / psy_rd=1.00:0.10 / mixed_ref=1 / me_range=32 / chroma_me=1 / trellis=2 / 8x8dct=1 / cqm=0 / deadzone=21,11 / fast_pskip=0 / chroma_qp_offset=-3 / threads=6 / lookahead_threads=1 / sliced_threads=0 / nr=0 / decimate=1 / interlaced=0 / bluray_compat=0 / constrained_intra=0 / bframes=12 / b_pyramid=2 / b_adapt=2 / b_bias=0 / direct=3 / weightb=1 / open_gop=0 / weightp=2 / keyint=240 / keyint_min=23 / scenecut=40 / intra_refresh=0 / rc=2pass / mbtree=0 / bitrate=1600 / ratetol=1.0 / qcomp=0.60 / qpmin=0 / qpmax=69 / qpstep=4 / cplxblur=20.0 / qblur=0.5 / ip_ratio=1.40 / pb_ratio=1.30 / aq=1:1.00
Default : No
Forced : No
Audio
ID : 2
Format : AC-3
Format/Info : Audio Coding 3
Mode extension : CM (complete main)
Format settings, Endianness : Big
Codec ID : A_AC3
Duration : 1 h 56 min
Bit rate mode : Constant
Bit rate : 192 kb/s
Channel(s) : 2 channels
Channel positions : Front: L R
Sampling rate : 48.0 kHz
Frame rate : 31.250 FPS (1536 spf)
Compression mode : Lossy
Stream size : 160 MiB (11%)
Title : AVO (Дмитрий "Goblin" Пучков)
Language : Russian
Default : No
Forced : No
Раздаю с 01:00 до 07:00 по МСК!
info [Профиль]  [ЛС] 

Shakaaho

Пол: Пол:Муж

Стаж: 3 года

Сообщений: 1045

Россия
Рейтинг

post 30-Апр-2017 11:52 (спустя 10 часов) [-]1[+]

[Цитировать] 

хорошее кинцо.
info [Профиль]  [ЛС] 

AlexZoh

Пол: Пол:Муж

Стаж: 7 лет 9 месяцев

Сообщений: 753

Россия
Рейтинг

post 30-Апр-2017 12:13 (спустя 21 минута) [-]0[+]

[Цитировать] 

Обложка обманула, думал BD чтоль новый какой, а нет. Поставьте обычную чтоли.
Когда то смотрел, понравился фильм.
info [Профиль]  [ЛС] 

apx1med

Пол: Пол:Муж

Стаж: 7 лет 3 месяца

Сообщений: 920

СССР
Рейтинг

post 30-Апр-2017 12:16 (спустя 2 минуты) [-]-1[+]

[Цитировать] 

AlexZoh писал(а):

Обложка обманула, думал BD чтоль новый какой, а нет. Поставьте обычную чтоли.

apx1med писал(а):

Качество: DVDRip-AVC [Full Screen]
Лучше читайте описание - никогда не обманитесь и не будете обманутым.
info [Профиль]  [ЛС] 

AlexZoh

Пол: Пол:Муж

Стаж: 7 лет 9 месяцев

Сообщений: 753

Россия
Рейтинг

post 30-Апр-2017 12:33 (спустя 17 минут) [-]0[+]

[Цитировать] 

apx1med писал(а):

Лучше читайте описание - никогда не обманитесь и не будете обманутым.
Я знаю, просто на главной то картинка сначала виднется, ну да ладно kolob_111
info [Профиль]  [ЛС] 

Serj_06

Пол: Пол:Муж

Стаж: 4 года 3 месяца

Сообщений: 5

Россия
Рейтинг

post 30-Апр-2017 16:37 (спустя 4 часа) [-]0[+]

[Цитировать] 

AlexZoh писал(а):

apx1med писал(а):

Лучше читайте описание - никогда не обманитесь и не будете обманутым.
Я знаю, просто на главной то картинка сначала виднется, ну да ладно kolob_111
Ага, год выпуска и продолжительность перепутаны местами.)))
info [Профиль]  [ЛС] 

apx1med

Пол: Пол:Муж

Стаж: 7 лет 3 месяца

Сообщений: 920

СССР
Рейтинг

post 30-Апр-2017 18:19 (спустя 1 час 42 минуты) [-]0[+]

[Цитировать] 

Serj_06 писал(а):

AlexZoh писал(а):

apx1med писал(а):

Лучше читайте описание - никогда не обманитесь и не будете обманутым.
Я знаю, просто на главной то картинка сначала виднется, ну да ладно kolob_111
Ага, год выпуска и продолжительность перепутаны местами.)))
Спасибо, исправил. Пьяной ночью все делалось)
info [Профиль]  [ЛС] 

StValentine

Пол: Пол:Муж

Стаж: 2 месяца 23 дня

Сообщений: 12

Россия
Рейтинг

post 30-Апр-2017 23:14 (спустя 4 часа) [-]-5[+]

[Цитировать] 

Изначально Кубрик требовал никакого полного дублирования, только субтитры. Фильм очень люблю и с Кубриком согласен. Отсутствие субтитров и оригинальной дорожки, а тем более с "улучшателем" Пучковым...Не по сеньке шапка!
С уважением

_________________
...да, да, да всё именно так и было! Извините, я тут жду, когда Mass Effect Andromeda починют...
info [Профиль]  [ЛС] 

AlexZoh

Пол: Пол:Муж

Стаж: 7 лет 9 месяцев

Сообщений: 753

Россия
Рейтинг

post 01-Май-2017 11:38 (спустя 12 часов) [-]5[+]

[Цитировать] 

StValentine, во губу раскатал, ненавижу субтитры в фильмах, смотреть и слушать кино привык, а не читать, читаю книги, чего вполне хватает.
По сабжу, не понимаю народ, которые так фапают на оригинал с сабами и одноголоски с прошлого века. Русский язык богат и разнообразен, что американцы или ещё кто говорят одним словом – наши могут сказать тремя, а фразу и подавно с одним смыслом можно кучей способов подать зрителю и при этом не нарушить исходный смысл. А любителям дословного "правильного" перевод – го в гугл переводчик или тот же промт, для вас видать.
apx1med, а почемы вы только ночью раздаёте? Это у вас провайдер такое правило выдаёт?
info [Профиль]  [ЛС] 

apx1med

Пол: Пол:Муж

Стаж: 7 лет 3 месяца

Сообщений: 920

СССР
Рейтинг

post 01-Май-2017 19:58 (спустя 8 часов) [-]0[+]

[Цитировать] 

AlexZoh писал(а):

apx1med, а почемы вы только ночью раздаёте? Это у вас провайдер такое правило выдаёт?
Да, провайдер. В частном доме так себе выбор - либо домолинк через телефон ADSL со скоростью 256 Кбит/с (=32 Кб/с скачивание), либо usb-модем (в моем случае Мегафон) со скоростью 1-3 Мбит/с (в дневное время 30Гб на месяц, в ночное безлимит).
info [Профиль]  [ЛС] 

AlexZoh

Пол: Пол:Муж

Стаж: 7 лет 9 месяцев

Сообщений: 753

Россия
Рейтинг

post 01-Май-2017 23:22 (спустя 3 часа) [-]0[+]

[Цитировать] 

apx1med, спасибо за разъяснения, скрин этот видел, только не знал от куда он, а теперь стало ясно kolob_111
info [Профиль]  [ЛС] 
Показать сообщения:    
Ответить на тему

Текущее время: 27-Июн 02:21

Часовой пояс: GMT + 4



Вы не можете начинать темы
Вы не можете отвечать на сообщения
Вы не можете редактировать свои сообщения
Вы не можете удалять свои сообщения
Вы не можете голосовать в опросах
Вы не можете прикреплять файлы к сообщениям
Вы не можете скачивать файлы