Ошибка

Мой маленький пони: Дружба это магия / My Little Pony: Friendship Is Magic / (Джейсон Тиссен, Джеймс Вуттон ) / (Сезон 7, Серия 1-2 из 26) [2016 г., Комедия/Семейный/Фэнтези, WEB-DL 720p]

Ответить на тему
 
Автор Сообщение

Ritsu

Пол: Пол:Муж

Стаж: 5 лет 9 месяцев

Сообщений: 869

Австралия
Рейтинг

post 16-Апр-2017 20:11 2[+]

[Цитировать] 

Мой Маленький Пони: Дружба Это Магия
My Little Pony: Friendship Is Magic

Оригинальное название: My Little Pony: Friendship Is Magic
Год выпуска: 2017
Страна: США, Канада
Жанр: Комедия/Семейый/Фэнтези
Серия: Серия 1-2 из 26
Сезон: Седьмой из семи
Продолжительность: ~00:22:15
Перевод:
  • Субтитры
Субтитры :
  • Русские + английские

Режиссер:
  • Джейсон Тиссен / Jayson Thiessen, Джеймс Вуттон / James Wootton
Роли озвучивали:
  • Тара Стронг, Эшли Болл, Андреа Либман, Табита Сен-Джермейн и другие

Описание:
Главная героиня - единорог аликорн Твайлайт Спаркл, любимая ученица Принцессы Селестии, - всё время сидела за книгами и считала, что друзья не нужны. Принцесса Селестия даёт ей задание найти друзей и посылает Твайлайт вместе с её помощником, драконом по имени Спайк, в небольшой городок Понивилль. Там она встречает своих новых друзей: задиристую Рэйнбоу Дэш, модницу Рэрити, трудолюбивую Эпплджек, стеснительную Флаттершай и очень весёлую и непредсказуемую Пинки Пай. Вместе они решают все возникающие проблемы и идут к новым открытиям. Твайлайт и шестеро её друзей постоянно узнают что-то новое о дружбе. Правда теперь друзей стало семеро - к шестерым подругам присоединилась Старлайт Глиммер. (И да, Спайк не пони, его традиционно не считают...)


Рейтинг:

01 - Celestial Advice
02 - All Bottled Up

Качество: WEB-DL 720p
Формат: MKV
Данные видео: AVC, 1280x720, 23,976 fps, 4024 kbps
Данные аудио: AC-3, 48 kHz, 6 channels, 384 kbps
Общее 
Полное имя : My Little Pony - Friendship is Magic - S07 720p\MLP-FiM S07E01 Celestial Advice 720p.mkv
Формат : Matroska
Версия формата : Version 4 / Version 2
Размер файла : 697 Мбайт
Продолжительность : 22 м. 5 с.
Общий поток : 4410 Кбит/сек
Название фильма : S07E01 : Celestial Advice
Дата кодирования : UTC 2017-04-16 08:54:06
Программа кодирования : mkvmerge v9.7.1 ('Pandemonium') 64bit
Библиотека кодирования : libebml v1.3.4 + libmatroska v1.4.5
Видео
Идентификатор : 1
Формат : AVC
Формат/Информация : Advanced Video Codec
Профиль формата : High@L3.1
Параметр CABAC формата : Нет
Параметр ReFrames формата : 2 кадра
Идентификатор кодека : V_MPEG4/ISO/AVC
Продолжительность : 22 м. 4 с.
Битрейт : 4024 Кбит/сек
Ширина : 1280 пикселей
Высота : 720 пикселей
Соотношение сторон : 16:9
Режим частоты кадров : Постоянный
Частота кадров : 23,976 (24000/1001) кадра/сек
Цветовое пространство : YUV
Субдискретизация насыщенности : 4:2:0
Битовая глубина : 8 бит
Тип развёртки : Прогрессивная
Бит/(Пиксели*Кадры) : 0.182
Размер потока : 636 Мбайт (91%)
Заголовок : S07E01 : Celestial Advice
Язык : English
Default : Да
Forced : Нет
Цветовой диапазон : Limited
Основные цвета : BT.709
Характеристики трансфера : BT.709
Коэффициенты матрицы : BT.709
Аудио
Идентификатор : 2
Формат : AC-3
Формат/Информация : Audio Coding 3
Расширение режима : CM (complete main)
Параметр Endianness формата : Big
Идентификатор кодека : A_AC3
Продолжительность : 22 м. 5 с.
Вид битрейта : Постоянный
Битрейт : 384 Кбит/сек
Каналы : 6 каналов
Расположение каналов : Front: L C R, Side: L R, LFE
Частота : 48,0 КГц
Частота кадров : 31,250 кадров/сек (1536 spf)
Битовая глубина : 16 бит
Метод сжатия : С потерями
Размер потока : 60,7 Мбайт (9%)
Заголовок : [ENG] AC3 5.1
Язык : English
Default : Да
Forced : Нет
Субтитры 1: Русские от sunnysubs (Anon2Anon) - 1 серия
Субтитры 2: Английские от sunnysubs (Anon2Anon) - 1 серия
Субтитры 3: Русские от The Doctor Team - 1-2 серия

info [Профиль]  [ЛС] 

Ritsu

Пол: Пол:Муж

Стаж: 5 лет 9 месяцев

Сообщений: 869

Австралия
Рейтинг

post 16-Апр-2017 20:56 (спустя 45 минут) [-]3[+]

[Цитировать] 

Раздача ведётся путем добавления новых серий.


_________________
Флудите вместе с Рицу и будет вам счастье! ^__^

"...Зажжем рок в этой дыре!.."
info [Профиль]  [ЛС] 

GONEWO

Стаж: 7 лет

Сообщений: 1

Рейтинг

post 16-Апр-2017 23:20 (спустя 2 часа 24 минуты) [-]1[+]

[Цитировать] 

У А2А вторая серия уже появилась.
info [Профиль]  [ЛС] 

kils

Пол: Пол:Муж

Стаж: 4 года 5 месяцев

Сообщений: 83

Россия
Рейтинг

post 18-Апр-2017 11:19 (спустя 1 день 11 часов) [-]1[+]

[Цитировать] 

Кстати Гейбыч Ньюэл является поклонником сие творения))))) я сам в шоке был когда узнал об этом, любит смотреть это фэнтази он)))
info [Профиль]  [ЛС] 
Показать сообщения:    
Ответить на тему

Текущее время: 23-Апр 12:09

Часовой пояс: GMT + 4



Вы не можете начинать темы
Вы не можете отвечать на сообщения
Вы не можете редактировать свои сообщения
Вы не можете удалять свои сообщения
Вы не можете голосовать в опросах
Вы не можете прикреплять файлы к сообщениям
Вы не можете скачивать файлы