Ошибка

До окончания фрилича осталось:


Акашийские хроники худшего преподавателя магии / Roku de Nashi Majutsu Koushi to Akashic Records (TV) [1-7 из 12] [2017] [Приключения, школа, фентези] [HDTV720p] [Любительский]

Ответить на тему
 
Автор Сообщение

Chel90RUS

Пол: Пол:Муж

Стаж: 5 лет 10 месяцев

Сообщений: 469

Россия
Рейтинг

post 15-Апр-2017 22:48 0[+]

[Цитировать] 

pic="http://static2.anidub.com/tracker/poster/f0a9c33846.jpg"
Акашийские хроники худшего преподавателя магии
Akashic Records of Bastard Magic Instructor / Roku de Nashi Majutsu Koushi to Akashic Records / ロクでなし魔術講師と禁忌教典

Год выпуска: 2017
Жанр: Приключения, школа, фентези
Страна: Япония
Тип: HDTV
Продолжительность: 12 серий ~ 24 мин
Дата выпуска: c 04.04.2017
Режиссер: Кадзуто Минато
Автор оригинала / Сценарист: Хицудзи Таро
Озвучено: RiZZ_fisher, Trina_D, Esther
Перевод: Jeka
Тайминг и работа со звуком: Sakuragi_R
Студия: LIDENFILMS
Аудио: AAC 48000Hz stereo 192kbps [A: Russian [rus] (aac lc, 48000 Hz, stereo, 192 kb/s)]
Видео: MPEG4 Video (H264) 1280x720 23.976fps 1772kbps [V: h264 high L4.0, yuv420p, 1280x720, 1772 kb/s]
General
Complete name : \[AniDub]_Rokudenashi_Majutsu_Koushi_to_Akashic_Records_[01]_[720p_x264_Aac]_[MVO].mp4
Format : MPEG-4
Format profile : Base Media
Codec ID : isom (isom/avc1)
File size : 342 MiB
Duration : 24 min 19 s
Overall bit rate mode : Variable
Overall bit rate : 1 969 kb/s
Encoded date : UTC 2017-04-04 20:12:21
Tagged date : UTC 2017-04-04 20:12:21
Writing application : Yamb 2.1.0.0
Video
ID : 1
Format : AVC
Format/Info : Advanced Video Codec
Format profile : High@L4
Format settings, CABAC : Yes
Format settings, ReFrames : 6 frames
Codec ID : avc1
Codec ID/Info : Advanced Video Coding
Duration : 24 min 19 s
Bit rate : 1 776 kb/s
Maximum bit rate : 7 243 kb/s
Width : 1 280 pixels
Height : 720 pixels
Display aspect ratio : 16:9
Frame rate mode : Constant
Frame rate : 23.976 (24000/1001) FPS
Original frame rate : 23.976 (23976/1000) FPS
Color space : YUV
Chroma subsampling : 4:2:0
Bit depth : 8 bits
Scan type : Progressive
Bits/(Pixel*Frame) : 0.080
Stream size : 308 MiB (90%)
Writing library : x264 core 120 r2120 0c7dab9
Encoding settings : cabac=1 / ref=6 / deblock=1:1:1 / analyse=0x3:0x113 / me=umh / subme=8 / psy=1 / psy_rd=0.40:0.00 / mixed_ref=1 / me_range=16 / chroma_me=1 / trellis=1 / 8x8dct=1 / cqm=0 / deadzone=21,11 / fast_pskip=1 / chroma_qp_offset=-2 / threads=4 / sliced_threads=0 / nr=0 / decimate=1 / interlaced=0 / bluray_compat=0 / constrained_intra=0 / bframes=3 / b_pyramid=2 / b_adapt=2 / b_bias=0 / direct=3 / weightb=1 / open_gop=0 / weightp=2 / keyint=250 / keyint_min=23 / scenecut=40 / intra_refresh=0 / rc_lookahead=50 / rc=2pass / mbtree=1 / bitrate=1776 / ratetol=1.0 / qcomp=0.60 / qpmin=0 / qpmax=69 / qpstep=4 / cplxblur=20.0 / qblur=0.5 / vbv_maxrate=3552 / vbv_bufsize=8880 / nal_hrd=none / ip_ratio=1.40 / aq=1:0.60
Encoded date : UTC 2017-04-04 20:12:21
Tagged date : UTC 2017-04-04 20:12:25

Audio
ID : 2
Format : AAC
Format/Info : Advanced Audio Codec
Format profile : LC
Codec ID : 40
Duration : 24 min 19 s
Bit rate mode : Variable
Bit rate : 192 kb/s
Maximum bit rate : 196 kb/s
Channel(s) : 2 channels
Channel positions : Front: L R
Sampling rate : 48.0 kHz
Frame rate : 46.875 FPS (1024 spf)
Compression mode : Lossy
Stream size : 33.4 MiB (10%)
Language : Russian
Encoded date : UTC 2017-04-04 20:12:25
Tagged date : UTC 2017-04-04 20:12:25


Описание:Систи ходит в академию магии, чтобы довести свои навыки до совершенства, и надеется раскрыть тайну загадочного Небесного Замка. Пришедший на замену её любимому учителю парень по имени Глен оказался медленным, ленивым, абсолютно некомпетентным подобием преподавателя. Как вышло, что Глена выбрал лучший маг академии?!
Добавлена 7 серия 18/05/2017
info [Профиль]  [ЛС] 

Chel90RUS

Пол: Пол:Муж

Стаж: 5 лет 10 месяцев

Сообщений: 469

Россия
Рейтинг

post 22-Апр-2017 11:52 (спустя 6 дней) [-]-1[+]

[Цитировать] 

Добавлена 3 серия 22/04/2017

_________________
info [Профиль]  [ЛС] 

Chel90RUS

Пол: Пол:Муж

Стаж: 5 лет 10 месяцев

Сообщений: 469

Россия
Рейтинг

post 01-Май-2017 00:16 (спустя 8 дней) [-]-1[+]

[Цитировать] 

Добавлена 4 серия 30/04/2017

_________________
info [Профиль]  [ЛС] 

mvv55

Пол: Пол:Муж

Стаж: 6 лет 6 месяцев

Сообщений: 131

Украина
Рейтинг

post 01-Май-2017 12:33 (спустя 12 часов) [-]0[+]

[Цитировать] 

Честно говоря по просмотру 2 серий у меня сложилось мнение, что данное аниме бред какой то. Честно говорю думал, что Глен там супермаг и хоть как то должен себя проявить но на протяжении двух серий вообще нечего
info [Профиль]  [ЛС] 

Chel90RUS

Пол: Пол:Муж

Стаж: 5 лет 10 месяцев

Сообщений: 469

Россия
Рейтинг

post 05-Май-2017 23:18 (спустя 4 дня) [-]0[+]

[Цитировать] 

Добавлена 5 серия 05/05/2017

_________________
info [Профиль]  [ЛС] 

MoscowGolem

Стаж: 7 лет 8 месяцев

Сообщений: 30

СССР
Рейтинг

post 07-Май-2017 03:49 (спустя 1 день 4 часа) [-]0[+]

[Цитировать] 

mvv55 писал(а):

Честно говоря по просмотру 2 серий у меня сложилось мнение, что данное аниме бред какой то. Честно говорю думал, что Глен там супермаг и хоть как то должен себя проявить но на протяжении двух серий вообще нечего
сразу было ясно что это как bards tale в рпг) только в жанре " гаремчик с учителем" )

_________________
О тот, чья сущность темнее сумерек и багрянее рек крови, Во имя тебя, Погребённого в глубинах времён, Во славу твою, Я присягаю тьме. Пусть те безумцы, что противостоят нам, Будут уничтожены нашей с тобой единой силой!
info [Профиль]  [ЛС] 

Chel90RUS

Пол: Пол:Муж

Стаж: 5 лет 10 месяцев

Сообщений: 469

Россия
Рейтинг

post 15-Май-2017 11:17 (спустя 8 дней) [-]0[+]

[Цитировать] 

Добавлена 6 серия 15/05/2017

_________________
info [Профиль]  [ЛС] 

kirsan1212

Стаж: 3 года

Сообщений: 284

Рейтинг

post 15-Май-2017 20:54 (спустя 9 часов) [-]1[+]

[Цитировать] 

Мда, ну у них и форма...
info [Профиль]  [ЛС] 

Chel90RUS

Пол: Пол:Муж

Стаж: 5 лет 10 месяцев

Сообщений: 469

Россия
Рейтинг

post 18-Май-2017 23:43 (спустя 3 дня) [-]0[+]

[Цитировать] 

Добавлена 7 серия 18/05/2017

_________________
info [Профиль]  [ЛС] 
Показать сообщения:    
Ответить на тему

Текущее время: 25-Май 06:59

Часовой пояс: GMT + 4



Вы не можете начинать темы
Вы не можете отвечать на сообщения
Вы не можете редактировать свои сообщения
Вы не можете удалять свои сообщения
Вы не можете голосовать в опросах
Вы не можете прикреплять файлы к сообщениям
Вы не можете скачивать файлы