Ошибка

Книга магии для начинающих с нуля / Zero kara Hajimeru Mahou no Sho [TV] [1-9 из 12] [2017] [Приключения, Фэнтези, Экшен] [HDTVRip] [720p] [Субтитры (JAP)]

Ответить на тему
 
Автор Сообщение

anoningen

Стаж: 4 года 1 месяц

Сообщений: 465

Самоа
Рейтинг

post 12-Апр-2017 22:12 0[+]

[Цитировать] 

Книга магии для начинающих с нуля
Grimoire of Zero | Гримуар Зеро
ゼロから始める魔法の書

Год выпуска:
2017.
Тип: TV
Жанр: Приключения, Фэнтези, Экшен
Режиссер: Хиракава Тэцуо
Автор оригинала: Кобасири Какэру
Студия:
Продолжительность: >12 эп. по 25 мин
Русские субтитры: ASS, внешним файлом

Субтитры 1: [YakuSub Studio] (1-9)
Переводчик: Lulu
Редактор: Aero
Оформление: Helge

Субтитры 2: [AOS] (1-7)
Переводчик: IgDar
Редактор: Arjento

Описание: История расскажет о мире, где существуют ведьмы, способные призывать различных бесов и заручаться их помощью. Местная церковь же ведет безжалостную охоту на всех ведьм. И хотя среди последних есть те, кто мирно уживаются с людьми, щадить она никого не собирается. Еще, в этом мире есть зверолюди — дети, рожденные обычными людьми, но по непонятным причинам являющиеся смесью человека и зверя. На них тоже нередко ведется охота, так как головы зверолюдей очень высоко ценятся на рынке ведьм.
Однажды, один зверочеловек повстречал ведьму по имени Зеро. Колдунья использует новый тип магии, позволяющий обходиться без призыва бесов в наш мир. По словам Зеро, любой человек, у которого есть хоть немного таланта к магии, может освоить этот тип заклинаний. Однако единственная в мире книга, где описано, как обучиться подобным техникам, была украдена. И теперь Зеро предстоит вернуть ее. Она разыскивает своего давнего товарища, а повстречавшемуся ей зверочеловеку предлагает стать ее телохранителем в этом долгом путешествии. А взамен — обещает превратить его в полноценного человека.
Автор рипа: Leopard-Raws
Качество: HDTVRip
Формат видео: MPEG-4
Видео: AVC, 8 бит, 1280x720; 23.976 кадра/сек; 1930 Кбит/сек, (16:9)
Аудио: AAC, 48,0 КГц, переменный ~192 Кбит/сек, 2 канала
Общее
Полное имя : G:\Anime\Zero kara Hajimeru Mahou no Sho\[Leopard-Raws] Zero kara Hajimeru Mahou no Sho - 01 RAW (ATX 1280x720 x264 AAC).mp4
Формат : MPEG-4
Профиль формата : Base Media
Идентификатор кодека : isom (isom/avc1/iso6)
Размер файла : 365 Мбайт
Продолжительность : 24 м. 0 с.
Режим общего битрейта : Переменный
Общий поток : 2126 Кбит/сек
Дата кодирования : UTC 2017-04-11 04:41:33
Дата пометки : UTC 2017-04-11 04:41:33

Видео
Идентификатор : 1
Формат : AVC
Формат/Информация : Advanced Video Codec
Профиль формата : High@L4.1
Параметр CABAC формата : Да
Параметр ReFrames формата : 4 кадра
Идентификатор кодека : avc1
Идентификатор кодека/Информация : Advanced Video Coding
Продолжительность : 24 м. 0 с.
Битрейт : 1930 Кбит/сек
Максимальный битрейт : 9278 Кбит/сек
Ширина : 1280 пикселей
Высота : 720 пикселей
Соотношение сторон : 16:9
Режим частоты кадров : Постоянный
Частота кадров : 23,976 (24000/1001) кадра/сек
Цветовое пространство : YUV
Субдискретизация насыщенности : 4:2:0
Битовая глубина : 8 бит
Тип развёртки : Прогрессивная
Бит/(Пиксели*Кадры) : 0.087
Размер потока : 331 Мбайт (91%)
Заголовок : 264:fps=23.976@GPAC0.5.2-DEV-rev376-g5eeb74d-master
Библиотека кодирования : x264 core 129 r2245+729M 1a52e03
Настройки программы : cabac=1 / ref=4 / deblock=1:1:-1 / analyse=0x3:0x113 / me=umh / subme=9 / psy=1 / fade_compensate=0.00 / psy_rd=1.00:0.00 / mixed_ref=1 / me_range=24 / chroma_me=1 / trellis=2 / 8x8dct=1 / cqm=0 / deadzone=21,11 / fast_pskip=1 / chroma_qp_offset=-2 / threads=8 / lookahead_threads=1 / sliced_threads=0 / nr=0 / decimate=1 / interlaced=0 / bluray_compat=0 / constrained_intra=0 / fgo=0 / bframes=9 / b_pyramid=2 / b_adapt=2 / b_bias=0 / direct=1 / weightb=1 / open_gop=0 / weightp=2 / keyint=240 / keyint_min=24 / scenecut=40 / intra_refresh=0 / rc=crf / mbtree=0 / crf=18.5 / qcomp=0.72 / qpmin=0 / qpmax=69 / qpstep=4 / ip_ratio=1.40 / pb_ratio=1.30 / aq=1:0.85
Дата кодирования : UTC 2017-04-11 04:41:33
Дата пометки : UTC 2017-04-11 04:41:36
Цветовой диапазон : Limited
Основные цвета : BT.709
Характеристики трансфера : BT.709
Коэффициенты матрицы : BT.709

Аудио
Идентификатор : 2
Формат : AAC
Формат/Информация : Advanced Audio Codec
Профиль формата : LC
Идентификатор кодека : 40
Продолжительность : 24 м. 0 с.
Вид битрейта : Переменный
Битрейт : 192 Кбит/сек
Максимальный битрейт : 226 Кбит/сек
Каналы : 2 канала
Расположение каналов : Front: L R
Частота : 48,0 КГц
Частота кадров : 46,875 кадров/сек (1024 spf)
Метод сжатия : С потерями
Размер потока : 33,0 Мбайт (9%)
Язык : Japanese
Дата кодирования : UTC 2017-04-10 19:34:30
Дата пометки : UTC 2017-04-11 04:41:36
info [Профиль]  [ЛС] 

anoningen

Стаж: 4 года 1 месяц

Сообщений: 465

Самоа
Рейтинг

post 24-Апр-2017 23:03 (спустя 12 дней) [-]1[+]

[Цитировать] 

Добавил 2 серию.
info [Профиль]  [ЛС] 

anoningen

Стаж: 4 года 1 месяц

Сообщений: 465

Самоа
Рейтинг

post 27-Апр-2017 21:52 (спустя 2 дня 22 часа) [-]0[+]

[Цитировать] 

Добавил 3 серию.
info [Профиль]  [ЛС] 

anoningen

Стаж: 4 года 1 месяц

Сообщений: 465

Самоа
Рейтинг

post 09-Май-2017 20:13 (спустя 11 дней) [-]0[+]

[Цитировать] 

Добавил 4 серию.
info [Профиль]  [ЛС] 

ffs2001

Стаж: 5 лет 8 месяцев

Сообщений: 50

Рейтинг

post 10-Май-2017 14:46 (спустя 18 часов) [-]0[+]

[Цитировать] 

Очередная Шана?
info [Профиль]  [ЛС] 

anoningen

Стаж: 4 года 1 месяц

Сообщений: 465

Самоа
Рейтинг

post 10-Май-2017 22:21 (спустя 7 часов) [-]0[+]

[Цитировать] 

Добавил 5 серию.


добавлено спустя 3 минуты 21 секунда:

ffs2001
Нет, не похоже.
info [Профиль]  [ЛС] 

anoningen

Стаж: 4 года 1 месяц

Сообщений: 465

Самоа
Рейтинг

post 24-Май-2017 00:10 (спустя 13 дней) [-]0[+]

[Цитировать] 

Добавил 6 серию.
info [Профиль]  [ЛС] 

anoningen

Стаж: 4 года 1 месяц

Сообщений: 465

Самоа
Рейтинг

post 29-Май-2017 01:31 (спустя 5 дней) [-]0[+]

[Цитировать] 

Добавил 7 серию.
info [Профиль]  [ЛС] 

anoningen

Стаж: 4 года 1 месяц

Сообщений: 465

Самоа
Рейтинг

post 18-Июн-2017 01:03 (спустя 19 дней) [-]0[+]

[Цитировать] 

Добавил 8 и 9 серии.
info [Профиль]  [ЛС] 
Показать сообщения:    
Ответить на тему

Текущее время: 26-Июн 07:49

Часовой пояс: GMT + 4



Вы не можете начинать темы
Вы не можете отвечать на сообщения
Вы не можете редактировать свои сообщения
Вы не можете удалять свои сообщения
Вы не можете голосовать в опросах
Вы не можете прикреплять файлы к сообщениям
Вы не можете скачивать файлы