Ошибка

До окончания фрилича осталось:


Хаос;Дитя / Chaos;Child (TV) [0-12 из 12] [2017] [Детектив, мистика, ужасы, школа] [HDTV720p] [Любительский]

Ответить на тему
 
Автор Сообщение

Chel90RUS

Пол: Пол:Муж

Стаж: 5 лет 10 месяцев

Сообщений: 469

Россия
Рейтинг

post 10-Апр-2017 19:44 0[+]

[Цитировать] 

pic="http://static2.anidub.com/tracker/poster/8ccd2b6671.jpg"
Хаос;Дитя
Chaos;Child

Год выпуска: 2017
Жанр: Детектив, мистика, ужасы, школа
Страна: Япония
Тип: HDTV
Продолжительность: 12 серий ~ 24 мин
Дата выпуска: c 11.01.2017 по 29.03.2017
Режиссер: Дзимбо Масато
Автор оригинала / Сценарист: Сикура Тиёмару
Озвучено: JAM, Nika Lenina, Trina_D
Перевод: Jeka
Тайминг и работа со звуком: Sheeze
Студия: Silver Link.
Аудио: AAC 48000Hz stereo 165kbps [A: aac lc, 48000 Hz, stereo, 165 kb/s]
Видео: MPEG4 Video (H264) 1280x720 23.976fps 1773kbps [V: I (h264 high L4.0, yuv420p, 1280x720, 1773 kb/s)]
General
Complete name : \[AniDub]_Chaos;Child_[01]_[720p_x264_Aac]_[MVO].mp4
Format : MPEG-4
Format profile : Base Media
Codec ID : isom (isom)
File size : 658 MiB
Duration : 47 min 20 s
Overall bit rate mode : Variable
Overall bit rate : 1 943 kb/s
Encoded date : UTC 2017-04-01 22:11:24
Tagged date : UTC 2017-04-01 22:11:24
Writing application : Yamb 2.1.0.0
Video
ID : 1
Format : AVC
Format/Info : Advanced Video Codec
Format profile : High@L4
Format settings, CABAC : Yes
Format settings, ReFrames : 6 frames
Codec ID : avc1
Codec ID/Info : Advanced Video Coding
Duration : 47 min 20 s
Bit rate : 1 776 kb/s
Maximum bit rate : 10.4 Mb/s
Width : 1 280 pixels
Height : 720 pixels
Display aspect ratio : 16:9
Frame rate mode : Constant
Frame rate : 23.976 (23976/1000) FPS
Color space : YUV
Chroma subsampling : 4:2:0
Bit depth : 8 bits
Scan type : Progressive
Bits/(Pixel*Frame) : 0.080
Stream size : 601 MiB (91%)
Title : I
Writing library : x264 core 120 r2120 0c7dab9
Encoding settings : cabac=1 / ref=6 / deblock=1:1:1 / analyse=0x3:0x113 / me=umh / subme=8 / psy=1 / psy_rd=0.40:0.00 / mixed_ref=1 / me_range=16 / chroma_me=1 / trellis=1 / 8x8dct=1 / cqm=0 / deadzone=21,11 / fast_pskip=1 / chroma_qp_offset=-2 / threads=4 / sliced_threads=0 / nr=0 / decimate=1 / interlaced=0 / bluray_compat=0 / constrained_intra=0 / bframes=3 / b_pyramid=2 / b_adapt=2 / b_bias=0 / direct=3 / weightb=1 / open_gop=0 / weightp=2 / keyint=250 / keyint_min=23 / scenecut=40 / intra_refresh=0 / rc_lookahead=50 / rc=2pass / mbtree=1 / bitrate=1776 / ratetol=1.0 / qcomp=0.60 / qpmin=0 / qpmax=69 / qpstep=4 / cplxblur=20.0 / qblur=0.5 / vbv_maxrate=3552 / vbv_bufsize=8880 / nal_hrd=none / ip_ratio=1.40 / aq=1:0.60
Encoded date : UTC 2017-01-13 21:02:38
Tagged date : UTC 2017-04-01 22:12:46

Audio
ID : 2
Format : AAC
Format/Info : Advanced Audio Codec
Format profile : LC
Codec ID : 40
Duration : 47 min 20 s
Duration_FirstFrame : 64 ms
Bit rate mode : Variable
Bit rate : 165 kb/s
Maximum bit rate : 239 kb/s
Channel(s) : 2 channels
Channel positions : Front: L R
Sampling rate : 48.0 kHz
Frame rate : 46.875 FPS (1024 spf)
Compression mode : Lossy
Stream size : 56.0 MiB (9%)
Encoded date : UTC 2017-04-01 22:12:45
Tagged date : UTC 2017-04-01 22:12:46


Описание:Прошло шесть лет с момента ужасающих событий "Нового поколения" - Серии загадочных убийств в Шибуе.
И вот, спустя время, люди как по графику в то же самое время начинают умирать вновь.
П.С. Нужно ли смотреть Chaos;Head чтобы понять, что происходит тут? Можно, но не обязательно.
info [Профиль]  [ЛС] 
Показать сообщения:    
Ответить на тему

Текущее время: 25-Май 07:00

Часовой пояс: GMT + 4



Вы не можете начинать темы
Вы не можете отвечать на сообщения
Вы не можете редактировать свои сообщения
Вы не можете удалять свои сообщения
Вы не можете голосовать в опросах
Вы не можете прикреплять файлы к сообщениям
Вы не можете скачивать файлы