Ошибка

Механическая планета / Clockwork Planet [TV] [1-7 из 12] [2017] [Приключения, Фэнтези, Фантастика] [HDTVRip] [720p] [Субтитры (JAP)]

Ответить на тему
 
Автор Сообщение

anoningen

Стаж: 4 года

Сообщений: 443

Самоа
Рейтинг

post 09-Апр-2017 12:35 3[+]

[Цитировать] 

Механическая планета
クロックワーク・プラネット

Год выпуска:
2017.
Тип: TV
Жанр: Приключения, Фэнтези, Фантастика
Режиссер: Нагасава Цуёси
Автор оригинала: Камия Ю
Студия:
Продолжительность: >12 эп. по 25 мин
Русские субтитры: ASS, внешним файлом

Субтитры 1: [YakuSub Studio] (1-4)
Переводчик: Lulu
Редактор: Aero
Оформление: Helge

Субтитры 2: [GMC] (1-7)
Переводчик: Elven_tankman
Редактор: Shifroval

Описание: Около тысячи лет тому назад Земля была разрушена. Однако, некий выдающийся человек, известный как Y, смог восстановить планету. Он переделал ее в огромный механизм, состоящий из великого множества шестеренок, за что последний и получил свое название — «механическая планета». На поверхности этих шестерен строились различные города. Но с того момента, как Землю перестроили, все технологии, которые вырабатывали электромагнетизм, поставили под запрет, из-за того, что они мешали нормальной работе шестерней.
Наото Миура — обычный школьник, увлекающийся механизмами. Однажды, на его дом падает древний андроид по имени Рюзу, разработанный тем самым гениальным человеком Y. Наото удается отремонтировать Рюзу и вновь запустить ее, после чего она признает в нем своего нового хозяина. Позже выясняется, что Наото может определять малейшие неисправности в механизмах, полагаясь лишь на свой слух, и делает он это во много раз лучше профессионалов. Чем же закончится эта механическая история?
Автор рипа: Leopard-Raws
Качество: HDTVRip
Формат видео: MPEG-4
Видео: AVC, 8 бит, 1280x720; 23.976 кадра/сек; 3582 Кбит/сек, (16:9)
Аудио: AAC, 48,0 КГц, переменный 192~230 Кбит/сек, 2 канала
Общее
Полное имя : G:\Anime\Clockwork Planet\[Leopard-Raws] Clockwork Planet - 01 RAW (TBS 1280x720 x264 AAC).mp4
Формат : MPEG-4
Профиль формата : Base Media
Идентификатор кодека : isom (isom/avc1/iso6)
Размер файла : 662 Мбайт
Продолжительность : 24 м. 30 с.
Режим общего битрейта : Переменный
Общий поток : 3777 Кбит/сек
Дата кодирования : UTC 2017-04-07 04:39:35
Дата пометки : UTC 2017-04-07 04:39:35

Видео
Идентификатор : 1
Формат : AVC
Формат/Информация : Advanced Video Codec
Профиль формата : High@L4.1
Параметр CABAC формата : Да
Параметр ReFrames формата : 4 кадра
Идентификатор кодека : avc1
Идентификатор кодека/Информация : Advanced Video Coding
Продолжительность : 24 м. 29 с.
Битрейт : 3582 Кбит/сек
Максимальный битрейт : 22,6 Мбит/сек
Ширина : 1280 пикселей
Высота : 720 пикселей
Соотношение сторон : 16:9
Режим частоты кадров : Постоянный
Частота кадров : 23,976 (24000/1001) кадра/сек
Цветовое пространство : YUV
Субдискретизация насыщенности : 4:2:0
Битовая глубина : 8 бит
Тип развёртки : Прогрессивная
Бит/(Пиксели*Кадры) : 0.162
Размер потока : 628 Мбайт (95%)
Заголовок : 264:fps=23.976@GPAC0.5.2-DEV-rev376-g5eeb74d-master
Библиотека кодирования : x264 core 129 r2245+729M 1a52e03
Настройки программы : cabac=1 / ref=4 / deblock=1:1:-1 / analyse=0x3:0x113 / me=umh / subme=9 / psy=1 / fade_compensate=0.00 / psy_rd=1.00:0.00 / mixed_ref=1 / me_range=24 / chroma_me=1 / trellis=2 / 8x8dct=1 / cqm=0 / deadzone=21,11 / fast_pskip=1 / chroma_qp_offset=-2 / threads=8 / lookahead_threads=1 / sliced_threads=0 / nr=0 / decimate=1 / interlaced=0 / bluray_compat=0 / constrained_intra=0 / fgo=0 / bframes=9 / b_pyramid=2 / b_adapt=2 / b_bias=0 / direct=1 / weightb=1 / open_gop=0 / weightp=2 / keyint=240 / keyint_min=24 / scenecut=40 / intra_refresh=0 / rc=crf / mbtree=0 / crf=17.5 / qcomp=0.72 / qpmin=0 / qpmax=69 / qpstep=4 / ip_ratio=1.40 / pb_ratio=1.30 / aq=1:0.85
Дата кодирования : UTC 2017-04-07 04:39:35
Дата пометки : UTC 2017-04-07 04:39:42
Цветовой диапазон : Limited
Основные цвета : BT.709
Характеристики трансфера : BT.709
Коэффициенты матрицы : BT.709

Аудио
Идентификатор : 2
Формат : AAC
Формат/Информация : Advanced Audio Codec
Профиль формата : LC
Идентификатор кодека : 40
Продолжительность : 24 м. 30 с.
Вид битрейта : Переменный
Битрейт : 192 Кбит/сек
Максимальный битрейт : 230 Кбит/сек
Каналы : 2 канала
Расположение каналов : Front: L R
Частота : 48,0 КГц
Частота кадров : 46,875 кадров/сек (1024 spf)
Метод сжатия : С потерями
Размер потока : 33,6 Мбайт (5%)
Язык : Japanese
Дата кодирования : UTC 2017-04-06 17:54:44
Дата пометки : UTC 2017-04-07 04:39:42
info [Профиль]  [ЛС] 

Greyf24

Стаж: 2 года 6 месяцев

Сообщений: 484

Предупреждений: 2

Зимбабве
Рейтинг

post 10-Апр-2017 23:08 (спустя 1 день 10 часов) [-]0[+]

[Цитировать] 

Предпоследний скрин стоило бы назвать "Жестокий жизненный урок через 5... 4... 3... "
info [Профиль]  [ЛС] 

anoningen

Стаж: 4 года

Сообщений: 443

Самоа
Рейтинг

post 16-Апр-2017 15:12 (спустя 5 дней) [-]0[+]

[Цитировать] 

Добавил 2 серию.
info [Профиль]  [ЛС] 

anoningen

Стаж: 4 года

Сообщений: 443

Самоа
Рейтинг

post 24-Апр-2017 00:34 (спустя 7 дней) [-]0[+]

[Цитировать] 

Добавил 3 серию.
info [Профиль]  [ЛС] 

leSang

Пол: Пол:Муж

Стаж: 8 лет 1 месяц

Сообщений: 1203

Япония
Рейтинг

post 24-Апр-2017 13:39 (спустя 13 часов) [-]0[+]

[Цитировать] 

какой красивый кавер

_________________
info [Профиль]  [ЛС] 

mailwl

Пол: Пол:Муж

Стаж: 7 лет 7 месяцев

Сообщений: 420

Россия
Рейтинг

post 24-Апр-2017 16:27 (спустя 2 часа 48 минут) [-]0[+]

[Цитировать] 

Сид, вернись, я всё прощу
info [Профиль]  [ЛС] 

anoningen

Стаж: 4 года

Сообщений: 443

Самоа
Рейтинг

post 04-Май-2017 00:26 (спустя 9 дней) [-]0[+]

[Цитировать] 

Добавил 4 серию.
info [Профиль]  [ЛС] 

Yetiorel

Пол: Пол:Муж

Стаж: 7 лет 1 месяц

Сообщений: 68

Россия
Рейтинг

post 05-Май-2017 01:08 (спустя 1 день) [-]0[+]

[Цитировать] 

4 серии как законченная история. Огонь анимеха.
info [Профиль]  [ЛС] 

anoningen

Стаж: 4 года

Сообщений: 443

Самоа
Рейтинг

post 13-Май-2017 20:25 (спустя 8 дней) [-]0[+]

[Цитировать] 

Добавил 5 серию.
info [Профиль]  [ЛС] 

stserg

Пол: Пол:Муж

Стаж: 8 лет 2 месяца

Сообщений: 35

Россия
Рейтинг

post 13-Май-2017 22:14 (спустя 1 час 49 минут) [-]0[+]

[Цитировать] 

Судя по описанию Церковь Разбитого Бога пришла к власти

_________________
Linux its like a vigvam - no windows, no gates and apache inside.
info [Профиль]  [ЛС] 

anoningen

Стаж: 4 года

Сообщений: 443

Самоа
Рейтинг

post 21-Май-2017 01:56 (спустя 7 дней) [-]0[+]

[Цитировать] 

Добавил 6 серию.
info [Профиль]  [ЛС] 

anoningen

Стаж: 4 года

Сообщений: 443

Самоа
Рейтинг

post 24-Май-2017 00:16 (спустя 2 дня 22 часа) [-]0[+]

[Цитировать] 

Добавил 7 серию.
info [Профиль]  [ЛС] 
Показать сообщения:    
Ответить на тему

Текущее время: 29-Май 13:37

Часовой пояс: GMT + 4



Вы не можете начинать темы
Вы не можете отвечать на сообщения
Вы не можете редактировать свои сообщения
Вы не можете удалять свои сообщения
Вы не можете голосовать в опросах
Вы не можете прикреплять файлы к сообщениям
Вы не можете скачивать файлы