Ошибка

До окончания фрилича осталось:


Сага о Маленькой Девочке: Таня - Воплощение Зла / Youjo Senki (TV) [1-12 из 12] [2017] [Приключения, фантастика, война] [HDTV720p] [Профессиональная (Многоголосая)]

Ответить на тему
 
Автор Сообщение

Chel90RUS

Пол: Пол:Муж

Стаж: 6 лет 5 месяцев

Сообщений: 502

Россия
Рейтинг

post 06-Апр-2017 16:40 2[+]

[Цитировать] 

pic="http://static2.anidub.com/tracker/poster/7c52385d65.jpg"
Сага о Маленькой Девочке: Таня - Воплощение Зла
Saga of Tanya the Evil / Youjo Senki / 幼女戦記

Год выпуска: 2017
Жанр: Приключения, фантастика, война
Страна: Япония
Тип: HDTV
Продолжительность: 12 серий ~ 24 мин
Дата выпуска: c 06.01.2017 по 31.03.2017
Режиссер: Уэмура Ютака
Автор оригинала / Сценарист: Карло Дзэн
Озвучено: Студийная Банда AD
Перевод: FooBoo
Тайминг и работа со звуком: BalFor
Студия: NUT
Аудио: AAC 48000Hz stereo 183kbps [A: ?????????? ????? Apple [rus] (aac lc, 48000 Hz, stereo, 183 kb/s)]
Видео: MPEG4 Video (H264) 1280x720 23.976fps 2045kbps [V: 264 (h264 high L4.1, yuv420p, 1280x720, 2045 kb/s)]

General
Complete name : \[AniDub]_Youjo Senki_[01]_[720p]_[ADStudio].mp4
Format : MPEG-4
Format profile : Base Media
Codec ID : isom (isom)
File size : 384 MiB
Duration : 24 min 5 s
Overall bit rate mode : Variable
Overall bit rate : 2 225 kb/s
Encoded date : UTC 2017-01-16 20:47:52
Tagged date : UTC 2017-01-16 20:47:52
Writing application : Yamb 2.1.0.0

Video
ID : 1
Format : AVC
Format/Info : Advanced Video Codec
Format profile : High@L4.1
Format settings, CABAC : Yes
Format settings, ReFrames : 4 frames
Codec ID : avc1
Codec ID/Info : Advanced Video Coding
Duration : 24 min 0 s
Bit rate : 2 046 kb/s
Maximum bit rate : 12.9 Mb/s
Width : 1 280 pixels
Height : 720 pixels
Display aspect ratio : 16:9
Frame rate mode : Constant
Frame rate : 23.976 (24000/1001) FPS
Color space : YUV
Chroma subsampling : 4:2:0
Bit depth : 8 bits
Scan type : Progressive
Bits/(Pixel*Frame) : 0.093
Stream size : 351 MiB (92%)
Title : 264
Writing library : x264 core 129 r2245+729M 1a52e03
Encoding settings : cabac=1 / ref=4 / deblock=1:1:-1 / analyse=0x3:0x113 / me=umh / subme=9 / psy=1 / fade_compensate=0.00 / psy_rd=1.00:0.00 / mixed_ref=1 / me_range=24 / chroma_me=1 / trellis=2 / 8x8dct=1 / cqm=0 / deadzone=21,11 / fast_pskip=1 / chroma_qp_offset=-2 / threads=8 / lookahead_threads=1 / sliced_threads=0 / nr=0 / decimate=1 / interlaced=0 / bluray_compat=0 / constrained_intra=0 / fgo=0 / bframes=9 / b_pyramid=2 / b_adapt=2 / b_bias=0 / direct=1 / weightb=1 / open_gop=0 / weightp=2 / keyint=240 / keyint_min=24 / scenecut=40 / intra_refresh=0 / rc=crf / mbtree=0 / crf=18.5 / qcomp=0.72 / qpmin=0 / qpmax=69 / qpstep=4 / ip_ratio=1.40 / pb_ratio=1.30 / aq=1:0.85
Encoded date : UTC 2017-01-07 07:09:23
Tagged date : UTC 2017-01-16 20:48:12
Color range : Limited
Color primaries : BT.709
Transfer characteristics : BT.709
Matrix coefficients : BT.709

Audio
ID : 2
Format : AAC
Format/Info : Advanced Audio Codec
Format profile : LC
Codec ID : 40
Duration : 24 min 5 s
Bit rate mode : Variable
Bit rate : 184 kb/s
Maximum bit rate : 276 kb/s
Channel(s) : 2 channels
Channel positions : Front: L R
Sampling rate : 48.0 kHz
Frame rate : 46.875 FPS (1024 spf)
Compression mode : Lossy
Stream size : 31.7 MiB (8%)
Title : ?????????? ????? Apple
Language : Russian
Encoded date : UTC 2017-01-16 20:48:11
Tagged date : UTC 2017-01-16 20:48:12
Описание:Маленькая девочка, со светлыми волосами, голубыми глазами и белоснежной кожей, летает над полем боя и безжалостно уничтожает своих противников. Её имя - Таня Дегуршаф. Таня была одним из топ-менеджеров одной корпорации в Японии, но, по воле разгневанного бога, переродилась как маленькая девочка. Таня ставит эффективность и карьерный рост превыше всего, и в будущем она станет сильнейшим магом Имперской Армии.
info [Профиль]  [ЛС] 

Flin23

Пол: Пол:Муж

Стаж: 3 года 7 месяцев

Сообщений: 20

Рейтинг

post 08-Апр-2017 21:13 (спустя 2 дня 4 часа) [-]0[+]

[Цитировать] 

3 клише в первом же предложении. Аниме это модно и оригинально(нет)
info [Профиль]  [ЛС] 

Tirniel

Пол: Пол:Муж

Стаж: 3 года 7 месяцев

Сообщений: 36

Рейтинг

post 09-Апр-2017 03:04 (спустя 5 часов) [-]0[+]

[Цитировать] 

Flin23 писал(а):

3 клише в первом же предложении.
Уже много лет как перестал читать описания, т.к. крайне редко они походят на полноценную аннотация;
обычно проще посмотреть 1-2 серии и сделать вывод надо ли оно смотреть или нет.
К слову, конкретно это аниме на общем фоне выше среднего (как минимум в сезоне) по мне, для некоторых может показаться даже чуть ли не шедевром;
кто-то указывал, что аниме жестокое, кто-то - что тёмное, а по мне - просто хорошая комедия по большей части (к слову, есть на каждую серию мини эпизоды-бонусы - Youjo Shenki называются).
Но 1-й сезон оборвали на самом интересном месте, имхо тем, кто не смотрел, стоит начать просмотр после выхода 2-го сезона.
info [Профиль]  [ЛС] 
Показать сообщения:    
Ответить на тему

Текущее время: 17-Дек 10:19

Часовой пояс: GMT + 4



Вы не можете начинать темы
Вы не можете отвечать на сообщения
Вы не можете редактировать свои сообщения
Вы не можете удалять свои сообщения
Вы не можете голосовать в опросах
Вы не можете прикреплять файлы к сообщениям
Вы не можете скачивать файлы