Ошибка

До окончания фрилича осталось:


Фука / Fuuka (TV) [1-12 из 12] [2017] [Романтика, музыкальный, драма, комедия, школа, этти] [HDTV720p] [Любительский (Многоголосый)]

Ответить на тему
 
Автор Сообщение

Chel90RUS

Пол: Пол:Муж

Стаж: 5 лет 10 месяцев

Сообщений: 469

Россия
Рейтинг

post 06-Апр-2017 15:09 0[+]

[Цитировать] 

pic="http://static2.anidub.com/tracker/poster/b11595a40a.jpg"
Фука
Fuuka / 風夏

Год выпуска: 2017
Жанр: Романтика, музыкальный, драма, комедия, школа, этти
Страна: Япония
Тип: HDTV
Продолжительность: 12 серий ~ 24 мин
Дата выпуска: c 06.01.2017 по 24.03.2017
Режиссер: Кусакава Кэйдзо
Автор оригинала / Сценарист: Сэо Кодзи
Озвучено: Ancord, Jade, Nika Lenina
Перевод: Jeka
Тайминг и работа со звуком: Fraksinus
Студия: Diomedea
Аудио: AAC 48000Hz stereo 192kbps [A: English [eng] (aac lc, 48000 Hz, stereo, 192 kb/s)]
Видео: MPEG4 Video (H264) 1280x720 23.976fps 1644kbps [V: Alias Data Handler [eng] (h264 main L3.2, yuv420p, 1280x720, 1644 kb/s)]

General
Complete name : \[AniDub]_Fuuka_[01]_[720p_x264_Aac]_[MVO].mp4
Format : MPEG-4
Format profile : Base Media
Codec ID : isom (isom)
File size : 335 MiB
Duration : 25 min 27 s
Overall bit rate mode : Variable
Overall bit rate : 1 841 kb/s
Encoded date : UTC 2017-01-08 17:37:21
Tagged date : UTC 2017-01-08 17:37:21
Writing application : Yamb 2.1.0.0
Video
ID : 1
Format : AVC
Format/Info : Advanced Video Codec
Format profile : Main@L3.2
Format settings, CABAC : Yes
Format settings, ReFrames : 3 frames
Codec ID : avc1
Codec ID/Info : Advanced Video Coding
Duration : 25 min 27 s
Bit rate mode : Variable
Bit rate : 1 645 kb/s
Maximum bit rate : 9 850 kb/s
Width : 1 280 pixels
Height : 720 pixels
Display aspect ratio : 16:9
Frame rate mode : Variable
Frame rate : 23.976 (24000/1001) FPS
Minimum frame rate : 23.976 FPS
Maximum frame rate : 23.988 FPS
Standard : NTSC
Color space : YUV
Chroma subsampling : 4:2:0
Bit depth : 8 bits
Scan type : Progressive
Bits/(Pixel*Frame) : 0.074
Stream size : 300 MiB (89%)
Language : English
Encoded date : UTC 2017-01-07 20:26:12
Tagged date : UTC 2017-01-08 17:37:44
Color range : Limited

Audio
ID : 2
Format : AAC
Format/Info : Advanced Audio Codec
Format profile : LC
Codec ID : 40
Duration : 25 min 27 s
Bit rate mode : Variable
Bit rate : 192 kb/s
Maximum bit rate : 196 kb/s
Channel(s) : 2 channels
Channel positions : Front: L R
Sampling rate : 48.0 kHz
Frame rate : 46.875 FPS (1024 spf)
Compression mode : Lossy
Stream size : 35.0 MiB (10%)
Language : English
Encoded date : UTC 2017-01-08 17:37:43
Tagged date : UTC 2017-01-08 17:37:44
Описание:История рассказывает об Ю Харуне, только поступившем в новую школу. Он застенчив и постоянно сидит в смартфоне, то и дело проверяя записи в Твиттере. Как-то увлекшись, он сталкивается с девчонкой Фукой Акицуки, открытой и очаровательной, и при этом не имеющей данного средства связи. Между ними завязываются, начавшиеся довольно сумбурно, отношения. А тут ещё в Твиттере к Юу присоединяется его подруга детства Коюки Хинаси, ставшая популярной певицей. Вскоре они все встречаются на концерте Коюки, что становится отправной точкой создания любовного треугольника.
info [Профиль]  [ЛС] 
Показать сообщения:    
Ответить на тему

Текущее время: 25-Май 06:56

Часовой пояс: GMT + 4



Вы не можете начинать темы
Вы не можете отвечать на сообщения
Вы не можете редактировать свои сообщения
Вы не можете удалять свои сообщения
Вы не можете голосовать в опросах
Вы не можете прикреплять файлы к сообщениям
Вы не можете скачивать файлы