Ошибка
Загрузка...

Месть Масамунэ-куна / Masamune-kun no Revenge (TV) [1-12 из 12] [2017] [Комедия, романтика] [HDTV720p] [Любительский (Многоголосый)]

Ответить на тему
 
Автор Сообщение

Chel90RUS

Пол: Пол:Муж

Стаж: 6 лет 3 месяца

Сообщений: 498

Россия
Рейтинг

post 06-Апр-2017 14:50 0[+]

[Цитировать] 

pic="http://static2.anidub.com/tracker/poster/f6d1edd2e5.jpg"
Месть Масамунэ-куна
Masamune-kun's Revenge / Masamune-kun no Revenge / 政宗くんのリベンジ

Год выпуска: 2017
Жанр: Комедия, романтика
Страна: Япония
Тип: HDTV
Продолжительность: 12 серий ~ 24 мин
Дата выпуска: c 05.01.2017 по 23.03.2017
Режиссер: Минато Мирай
Автор оригинала / Сценарист: Такэока Хадзуки
Озвучено: Trina_D, Nika Lenina, JAM
Перевод: New Meta
Тайминг и работа со звуком: Sakuragi_R
Студия: Silver Link.
Аудио: AAC 48000Hz stereo 192kbps [A: Russian [rus] (aac lc, 48000 Hz, stereo, 192 kb/s)]
Видео: MPEG4 Video (H264) 1280x720 23.976fps 1773kbps [V: Ì (h264 high L4.0, yuv420p, 1280x720, 1773 kb/s)]

General
Complete name : \[AniDub]_Masamune-kun_no_Revenge_[01]_[720p_x264]_[MVO].mp4
Format : MPEG-4
Format profile : Base Media
Codec ID : isom (isom/avc1)
File size : 333 MiB
Duration : 23 min 40 s
Overall bit rate mode : Variable
Overall bit rate : 1 970 kb/s
Encoded date : UTC 2017-01-08 14:15:06
Tagged date : UTC 2017-01-08 14:15:06

Video
ID : 1
Format : AVC
Format/Info : Advanced Video Codec
Format profile : High@L4
Format settings, CABAC : Yes
Format settings, ReFrames : 6 frames
Codec ID : avc1
Codec ID/Info : Advanced Video Coding
Duration : 23 min 40 s
Bit rate : 1 776 kb/s
Maximum bit rate : 9 541 kb/s
Width : 1 280 pixels
Height : 720 pixels
Display aspect ratio : 16:9
Frame rate mode : Constant
Frame rate : 23.976 (23976/1000) FPS
Color space : YUV
Chroma subsampling : 4:2:0
Bit depth : 8 bits
Scan type : Progressive
Bits/(Pixel*Frame) : 0.080
Stream size : 300 MiB (90%)
Title : Ì
Writing library : x264 core 120 r2120 0c7dab9
Encoding settings : cabac=1 / ref=6 / deblock=1:1:1 / analyse=0x3:0x113 / me=umh / subme=8 / psy=1 / psy_rd=0.40:0.00 / mixed_ref=1 / me_range=16 / chroma_me=1 / trellis=1 / 8x8dct=1 / cqm=0 / deadzone=21,11 / fast_pskip=1 / chroma_qp_offset=-2 / threads=4 / sliced_threads=0 / nr=0 / decimate=1 / interlaced=0 / bluray_compat=0 / constrained_intra=0 / bframes=3 / b_pyramid=2 / b_adapt=2 / b_bias=0 / direct=3 / weightb=1 / open_gop=0 / weightp=2 / keyint=250 / keyint_min=23 / scenecut=40 / intra_refresh=0 / rc_lookahead=50 / rc=2pass / mbtree=1 / bitrate=1776 / ratetol=1.0 / qcomp=0.60 / qpmin=0 / qpmax=69 / qpstep=4 / cplxblur=20.0 / qblur=0.5 / vbv_maxrate=3552 / vbv_bufsize=8880 / nal_hrd=none / ip_ratio=1.40 / aq=1:0.60
Encoded date : UTC 2017-01-08 14:15:06
Tagged date : UTC 2017-01-08 14:15:20

Audio
ID : 2
Format : AAC
Format/Info : Advanced Audio Codec
Format profile : LC
Codec ID : 40
Duration : 23 min 40 s
Bit rate mode : Variable
Bit rate : 192 kb/s
Maximum bit rate : 196 kb/s
Channel(s) : 2 channels
Channel positions : Front: L R
Sampling rate : 48.0 kHz
Frame rate : 46.875 FPS (1024 spf)
Compression mode : Lossy
Stream size : 32.5 MiB (10%)
Language : Russian
Encoded date : UTC 2017-01-08 14:15:19
Tagged date : UTC 2017-01-08 14:15:20
Описание:Макабэ Масамуне в детстве (4-5 лет) был няш мяш пухлячком, за что его чмырили его одногодки.
Но в итоге его от них защитила одна добрая и гордая девочка.
Хотя спустя время из-за его веса и она отвернулась от него, сказав, что больше не хочет видеть у себя перед глазами "свинку".
После всех этих унижений Макабэ решает изменить свою жизнь. Тренироваться, следить за собой, диета, упражнения, пробежки и.т.д.
В итоге к старшей школе он становится идеальным красавчиком. Но именно там он встречает ее...
info [Профиль]  [ЛС] 
Показать сообщения:    
Ответить на тему

Текущее время: 24-Окт 00:54

Часовой пояс: GMT + 4



Вы не можете начинать темы
Вы не можете отвечать на сообщения
Вы не можете редактировать свои сообщения
Вы не можете удалять свои сообщения
Вы не можете голосовать в опросах
Вы не можете прикреплять файлы к сообщениям
Вы не можете скачивать файлы