Ошибка
Загрузка...

Гинтама / Gintama. (TV-5) [1-12 из 12] [2017] [Приключения, комедия] [HDTV720p] (Любительский)

Ответить на тему
 
Автор Сообщение

Chel90RUS

Пол: Пол:Муж

Стаж: 6 лет 1 месяц

Сообщений: 492

Россия
Рейтинг

post 06-Апр-2017 14:31 0[+]

[Цитировать] 

pic="http://static2.anidub.com/tracker/poster/e50d218e17.jpg"
Гинтама ТВ-5
Gintama. / Gintama (2017) / 銀魂

Год выпуска: 2017
Жанр: Приключения, комедия
Страна: Япония
Тип: HDTV
Продолжительность: 12 серий ~ 24 мин
Дата выпуска: c 09.01.2017 по 27.03.2017
Режиссер: Мияваки Тидзуру
Автор оригинала / Сценарист: Сорати Хидэаки
Озвучено: JAM
Перевод: Miss Sherlockian
Тайминг и работа со звуком: Sheeze, Fraksinus, Добрые люди
Студия: Bandai Namco Pictures
Аудио: AAC 48000Hz stereo 192kbps [A: English [eng] (aac lc, 48000 Hz, stereo, 192 kb/s)]
Видео: MPEG4 Video (H264) 1280x720 23.976fps 2206kbps [V: Mainconcept Video Media Handler [eng] (h264 main L4.1, yuv420p, 1280x720, 2206 kb/s)]

General
Complete name : \[AniDUB]_Gintama_TV5_[01]_[720p_x264_Aac]_[JAM].mp4
Format : MPEG-4
Format profile : Base Media
Codec ID : isom (isom)
File size : 418 MiB
Duration : 24 min 20 s
Overall bit rate mode : Variable
Overall bit rate : 2 402 kb/s
Encoded date : UTC 2017-01-09 16:44:46
Tagged date : UTC 2017-01-09 16:44:46

Video
ID : 1
Format : AVC
Format/Info : Advanced Video Codec
Format profile : Main@L4.1
Format settings, CABAC : Yes
Format settings, ReFrames : 3 frames
Codec ID : avc1
Codec ID/Info : Advanced Video Coding
Duration : 24 min 20 s
Bit rate : 2 206 kb/s
Maximum bit rate : 7 854 kb/s
Width : 1 280 pixels
Height : 720 pixels
Display aspect ratio : 16:9
Frame rate mode : Constant
Frame rate : 23.976 (24000/1001) FPS
Standard : NTSC
Color space : YUV
Chroma subsampling : 4:2:0
Bit depth : 8 bits
Scan type : Progressive
Bits/(Pixel*Frame) : 0.100
Stream size : 384 MiB (92%)
Language : English
Encoded date : UTC 2017-01-10 10:51:32
Tagged date : UTC 2017-01-09 16:45:03
Color range : Limited
Color primaries : BT.709
Transfer characteristics : BT.709
Matrix coefficients : BT.709

Audio
ID : 2
Format : AAC
Format/Info : Advanced Audio Codec
Format profile : LC
Codec ID : 40
Duration : 24 min 20 s
Bit rate mode : Variable
Bit rate : 192 kb/s
Maximum bit rate : 201 kb/s
Channel(s) : 2 channels
Channel positions : Front: L R
Sampling rate : 48.0 kHz
Frame rate : 46.875 FPS (1024 spf)
Compression mode : Lossy
Stream size : 33.5 MiB (8%)
Language : English
Encoded date : UTC 2017-01-09 16:45:03
Tagged date : UTC 2017-01-09 16:45:03
Описание: Продолжение старой доброй чернухи.
info [Профиль]  [ЛС] 
Показать сообщения:    
Ответить на тему

Текущее время: 24-Авг 01:33

Часовой пояс: GMT + 4



Вы не можете начинать темы
Вы не можете отвечать на сообщения
Вы не можете редактировать свои сообщения
Вы не можете удалять свои сообщения
Вы не можете голосовать в опросах
Вы не можете прикреплять файлы к сообщениям
Вы не можете скачивать файлы