Ошибка

Моана / Moana (Рон Клементс, Дон Холл, Джон Маскер) [2016, мультфильм, мюзикл, фэнтези, комедия, приключения, семейный, BDRip 1080p] Dub + Eng + Sub rus, eng от R.G.TNClub

Ответить на тему
 
Автор Сообщение

L

Пол: Пол:Муж

Стаж: 7 лет 2 месяца

Сообщений: 11764

Украина
Рейтинг

post 20-Фев-2017 00:46 7[+]

[Цитировать] 

Моана / Moana
«The ocean is calling»

Страна: США
Жанр: мультфильм, мюзикл, фэнтези, комедия, приключения, семейный
Год выпуска: 2016
Продолжительность: 01:47:13
Перевод: Профессиональный (дублированный) [Лицензия iTunes]
Субтитры: русские, английские
Оригинальная дорожка: английский
Главы: есть

Режиссер: Рон Клементс, Дон Холл, Джон Маскер
В ролях: Аулии Кравалхо, Дуэйн Джонсон, Рэйчел Хаус, Темуэра Моррисон, Джемейн Клемент, Николь Шерзингер, Алан Тьюдик, Оскар Кайтли, Трой Поламалу, Пуанани Кравальо
Описание: Бесстрашная Моана, дочь вождя маленького племени на острове в Тихом океане, больше всего на свете мечтает о приключениях и решает отправиться в опасное морское путешествие. Вместе с некогда могущественным полубогом Мауи им предстоит пересечь океан, сразиться со страшными чудовищами и разрушить древнее заклятие.

Качество видео: BDRip 1080p
Рип от L!
Формат видео: MKV

Видео: MPEG-4 AVC Video ~10.8Mbps 1920 x 804 / 23,976 fps / 2.40:1 / High Profile 4.1
Аудио:
  • Russian: 48 kHz, AC3 Dolby Digital, 3/2 (L,C,R,l,r) + LFE ch, ~384 kbps
  • English: 48 kHz, DTS, 3/2 (L,C,R,l,r) + LFE ch, ~1509.00 kbps avg
Формат субтитров: softsub (SRT)

Раздача от &

Код:

Уникальный идентификатор                 : 252822191319398328627898438257221964350 (0xBE33C86B4452AA62A118D1551342123E)
Полное имя                               : E:\ELRippo\Moana.2016.BluRay.1080p.x264 -TNClub.mkv
Формат                                   : Matroska
Версия формата                           : Version 4 / Version 2
Размер файла                             : 9,51 Гбайт
Продолжительность                        : 1 ч. 47 м.
Общий поток                              : 12,6 Мбит/сек
Название фильма                          : Moana.2016.BluRay.1080p.x264 -L@TNClub
Дата кодирования                         : UTC 2017-02-21 04:41:42
Программа кодирования                    : mkvmerge v8.2.0 ('World of Adventure') 64bit
Библиотека кодирования                   : libebml v1.3.1 + libmatroska v1.4.2
Обложка                                  : Yes
Attachments                              : coverrer.png

Видео
Идентификатор                            : 1
Формат                                   : AVC
Формат/Информация                        : Advanced Video Codec
Профиль формата                          : High@L4.1
Параметр CABAC формата                   : Да
Параметр ReFrames формата                : 5 кадров
Идентификатор кодека                     : V_MPEG4/ISO/AVC
Продолжительность                        : 1 ч. 47 м.
Битрейт                                  : 10,8 Мбит/сек
Ширина                                   : 1920 пикселей
Высота                                   : 804 пикселя
Соотношение сторон                       : 2,40:1
Режим частоты кадров                     : Постоянный
Частота кадров                           : 23,976 (24000/1001) кадра/сек
Цветовое пространство                    : YUV
Субдискретизация насыщенности            : 4:2:0
Битовая глубина                          : 8 бит
Тип развёртки                            : Прогрессивная
Бит/(Пиксели*Кадры)                      : 0.292
Размер потока                            : 8,09 Гбайт (85%)
Заголовок                                : Moana.2016.BluRay.1080p.x264 -L@TNClub
Библиотека кодирования                   : x264 core 148 r2638 7599210
Настройки программы                      : cabac=1 / ref=5 / deblock=1:-2:-1 / analyse=0x3:0x133 / me=umh / subme=11 / psy=1 / psy_rd=1.10:0.05 / mixed_ref=1 / me_range=48 / chroma_me=1 / trellis=2 / 8x8dct=1 / cqm=0 / deadzone=21,11 / fast_pskip=0 / chroma_qp_offset=-3 / threads=6 / lookahead_threads=1 / sliced_threads=0 / nr=0 / decimate=1 / interlaced=0 / bluray_compat=0 / constrained_intra=0 / bframes=8 / b_pyramid=2 / b_adapt=2 / b_bias=0 / direct=3 / weightb=1 / open_gop=0 / weightp=2 / keyint=230 / keyint_min=23 / scenecut=40 / intra_refresh=0 / rc_lookahead=60 / rc=crf / mbtree=0 / crf=16.8 / qcomp=0.60 / qpmin=0 / qpmax=69 / qpstep=4 / vbv_maxrate=62500 / vbv_bufsize=78125 / crf_max=0.0 / nal_hrd=none / filler=0 / ip_ratio=1.40 / pb_ratio=1.30 / aq=1:0.90
Язык                                     : English
Default                                  : Да
Forced                                   : Нет

Аудио #1
Идентификатор                            : 2
Формат                                   : AC-3
Формат/Информация                        : Audio Coding 3
Расширение режима                        : CM (complete main)
Параметр Endianness формата              : Big
Идентификатор кодека                     : A_AC3
Продолжительность                        : 1 ч. 47 м.
Вид битрейта                             : Постоянный
Битрейт                                  : 384 Кбит/сек
Каналы                                   : 6 каналов
Расположение каналов                     : Front: L C R, Side: L R, LFE
Частота                                  : 48,0 КГц
Частота кадров                           : 31,250 кадров/сек (1536 spf)
Битовая глубина                          : 16 бит
Метод сжатия                             : С потерями
Размер потока                            : 296 Мбайт (3%)
Заголовок                                : DD5.1@384kbps
Язык                                     : Russian
Default                                  : Да
Forced                                   : Нет

Аудио #2
Идентификатор                            : 3
Формат                                   : DTS
Формат/Информация                        : Digital Theater Systems
Режим                                    : 16
Параметр Endianness формата              : Big
Идентификатор кодека                     : A_DTS
Продолжительность                        : 1 ч. 47 м.
Вид битрейта                             : Постоянный
Битрейт                                  : 1509 Кбит/сек
Каналы                                   : 6 каналов
Расположение каналов                     : Front: L C R, Side: L R, LFE
Частота                                  : 48,0 КГц
Частота кадров                           : 93,750 кадра/сек (512 spf)
Битовая глубина                          : 24 бит
Метод сжатия                             : С потерями
Размер потока                            : 1,13 Гбайт (12%)
Заголовок                                : DTS5.1@1509kbps
Язык                                     : English
Default                                  : Нет
Forced                                   : Нет

Текст #1
Идентификатор                            : 4
Формат                                   : UTF-8
Идентификатор кодека                     : S_TEXT/UTF8
Идентификатор кодека/Информация          : UTF-8 Plain Text
Продолжительность                        : 1 ч. 45 м.
Битрейт                                  : 70 бит/сек
Count of elements                        : 1236
Размер потока                            : 54,3 Кбайт (0%)
Язык                                     : Russian
Default                                  : Нет
Forced                                   : Нет

Текст #2
Идентификатор                            : 5
Формат                                   : UTF-8
Идентификатор кодека                     : S_TEXT/UTF8
Идентификатор кодека/Информация          : UTF-8 Plain Text
Продолжительность                        : 1 ч. 45 м.
Битрейт                                  : 44 бит/сек
Count of elements                        : 1246
Размер потока                            : 34,7 Кбайт (0%)
Язык                                     : English
Default                                  : Нет
Forced                                   : Нет

Текст #3
Идентификатор                            : 6
Формат                                   : UTF-8
Идентификатор кодека                     : S_TEXT/UTF8
Идентификатор кодека/Информация          : UTF-8 Plain Text
Продолжительность                        : 1 ч. 45 м.
Битрейт                                  : 47 бит/сек
Count of elements                        : 1346
Размер потока                            : 36,6 Кбайт (0%)
Заголовок                                : SDH
Язык                                     : English
Default                                  : Нет
Forced                                   : Нет

Меню
00:00:00.000                             : en:00:00:00.000
00:07:15.685                             : en:00:07:15.685
00:11:59.802                             : en:00:11:59.802
00:16:13.764                             : en:00:16:13.764
00:21:29.578                             : en:00:21:29.578
00:28:02.806                             : en:00:28:02.806
00:32:11.346                             : en:00:32:11.346
00:35:16.280                             : en:00:35:16.280
00:41:36.869                             : en:00:41:36.869
00:45:04.867                             : en:00:45:04.867
00:49:10.322                             : en:00:49:10.322
00:53:21.030                             : en:00:53:21.030
00:57:33.324                             : en:00:57:33.324
01:05:45.023                             : en:01:05:45.023
01:10:46.074                             : en:01:10:46.074
01:12:52.117                             : en:01:12:52.117
01:15:41.953                             : en:01:15:41.953
01:23:17.074                             : en:01:23:17.074
01:29:50.926                             : en:01:29:50.926
01:36:13.725                             : en:01:36:13.725


Код:

---[Information] [21.02.2017 2:20:32] x264 [info]: frame I:1409  Avg QP:15.05  size:266033
---[Information] [21.02.2017 2:20:32] x264 [info]: frame P:39977 Avg QP:16.40  size: 99742
---[Information] [21.02.2017 2:20:32] x264 [info]: frame B:112847 Avg QP:18.87  size: 38319
---[Information] [21.02.2017 2:20:32] x264 [info]: consecutive B-frames:  3.4%  3.1% 20.9% 28.1% 17.1% 24.6%  1.5%  0.4%  0.9%

---[Information] [21.02.2017 2:20:32] encoded 154233 frames, 3.53 fps, 10802.65 kb/s
Пожалуйста, оставайтесь на раздаче как можно дольше!
Релиз специально для Tapochek.net
Все раздачи R.G.TNClub


info [Профиль]  [ЛС] 

judikator

Пол: Пол:Муж

Стаж: 4 года 8 месяцев

Сообщений: 113

Рейтинг

post 21-Фев-2017 11:11 (спустя 1 день 10 часов) [-]-7[+]

[Цитировать] 

а укр дубляжа нету?
info [Профиль]  [ЛС] 

kril

Пол: Пол:Муж

Стаж: 2 года 4 месяца

Сообщений: 15

Украина
Рейтинг

post 21-Фев-2017 12:10 (спустя 58 минут) [-]0[+]

[Цитировать] 

а можно в 720
info [Профиль]  [ЛС] 

london_kurgan

Пол: Пол:Муж

Стаж: 7 лет 8 месяцев

Сообщений: 99

США
Рейтинг

post 21-Фев-2017 12:23 (спустя 13 минут) [-]-4[+]

[Цитировать] 

judikator писал(а):

а укр дубляжа нету?
Интересно для чего? для изучения иностранного языка
info [Профиль]  [ЛС] 

L

Пол: Пол:Муж

Стаж: 7 лет 2 месяца

Сообщений: 11764

Украина
Рейтинг

post 21-Фев-2017 15:37 (спустя 3 часа) [-]0[+]

[Цитировать] 

judikator писал(а):

Moana
Если бы был - я бы прилепил.
london_kurgan
Для изучения иностранного языка можно использовать и словарь Ожегова, смотря с какой стороны посмотреть.
info [Профиль]  [ЛС] 

tederey

Пол: Пол:Муж

Стаж: 7 лет 8 месяцев

Сообщений: 18

Россия
Рейтинг

post 21-Фев-2017 23:56 (спустя 8 часов) [-]0[+]

[Цитировать] 

 !  L:
info [Профиль]  [ЛС] 

AL13NTX

Пол: Пол:Муж

Стаж: 7 лет 3 месяца

Сообщений: 110

Россия
Рейтинг

post 22-Фев-2017 21:05 (спустя 21 час) [-]-10[+]

[Цитировать] 

Мульты всё унылее и пошлей... Хотел глянуть какой сейчас прогресс по графону, но и там ничего особенного.

_________________
info [Профиль]  [ЛС] 

FENIXюша

Стаж: 8 лет 2 месяца

Сообщений: 47

Россия
Рейтинг

post 22-Фев-2017 23:15 (спустя 2 часа 10 минут) [-]1[+]

[Цитировать] 

шедевр
info [Профиль]  [ЛС] 

DracoSS

Пол: Пол:Муж

Стаж: 5 лет 8 месяцев

Сообщений: 135

Россия
Рейтинг

post 23-Фев-2017 05:08 (спустя 5 часов) [-]0[+]

[Цитировать] 

Петух отжигает на всем протяжении мультика)))
info [Профиль]  [ЛС] 

Roxio

Стаж: 7 лет 8 месяцев

Сообщений: 5

Рейтинг

post 23-Фев-2017 09:14 (спустя 4 часа) [-]5[+]

[Цитировать] 

Отличное качество, спасибо! Долго ждал блюрей с оригинальной дорожкой
info [Профиль]  [ЛС] 

deSAD

Пол: Пол:Муж

Стаж: 7 лет 8 месяцев

Сообщений: 111

Россия
Рейтинг

post 05-Апр-2017 16:23 (спустя 1 месяц 10 дней) [-]1[+]

[Цитировать] 

Классный мульт, красивый, песни улёт, смотрел дома в 3Д вертикальная пара на Самсунге лучше чем горизонтальная, глубина 3Д хорошая.

_________________
info [Профиль]  [ЛС] 

post 26-Апр-2017 01:42 (спустя 20 дней) [-]0[+]

Топик был перенесен из форума Зарубежное кино от R.G. TNСlub в форум Мультфильмы от R.G. TNСlub

BZzz
 
Показать сообщения:    
Ответить на тему

Текущее время: 27-Июн 02:19

Часовой пояс: GMT + 4



Вы не можете начинать темы
Вы не можете отвечать на сообщения
Вы не можете редактировать свои сообщения
Вы не можете удалять свои сообщения
Вы не можете голосовать в опросах
Вы не можете прикреплять файлы к сообщениям
Вы не можете скачивать файлы