Ошибка

Югио! Cупер объединение! Связь, соединившая время / Yu-Gi-Oh! Chou Yuugou! Toki wo Koeta Kizuna [Movie] [2010] [приключение, фантастика] [BDRip] [720p] [Любительский (JAP+SUB)]

Ответить на тему
 
Автор Сообщение

TotSamiySoer

Пол: Пол:Муж

Стаж: 2 года 4 месяца

Сообщений: 248

Россия
Рейтинг

post 04-Фев-2017 19:13 0[+]

[Цитировать] 

Югио! Cупер объединение! Связь, соединившая время / Yu-Gi-Oh! Chou Yuugou! Toki wo Koeta Kizuna

Год выпуска: 2010
Страна: Япония
Жанр: приключение, фантастика
Тип: Фильм
Продолжительность: ~49 мин
Студия: Studio Gallop
Режиссер: Кеничи Такешита
Озвучание: Многоголосое (4 муж./ 3 жен.) от Constantine & Mustadio & Nravel & Soer & MezIdA & Nari & Shira [DeadLine Studio] & Anifilm & Unravel
Субтитры: -2R- & Синхито
Описание:
Обеспокоенный ужасным будущем, Парадокс хочет изменить его. Для этого он перемещается во времени и хочет совершить диверсию, думая что только так изменит история к лучшему. Юги, Джудай и Юсей с этим не согласны и вызывают его на дуэль.
Информация о видео:

Качество: BDRip | Формат: .mkv | Рип: Shiniori-Raws
Видео: AVC(8 bit), 1280х720, 23.976 fps, 2768 kbps
Звук (Rus(int)): AAC, 192 kbps, 48.0 KHz, 2.0 ch | [MVO]
Звук (Japanese): AAC, 168 kbps, 48.0 KHz, 2.0 ch| Original
Субтитры (Russian): ass, встроенные | полный перевод
Хардсаб: отсутствует

General
Unique ID : 243989776948106261876638037958975982200 (0xB78EB8C4ED632104B65BB975374A8A78)
Complete name : A:\Аниме\[DeadLine] Yu-Gi-Oh! Chou Yuugou! Toki wo Koeta Kizuna [MVO] [720p BDRip].mkv
Format : Matroska
Format version : Version 4 / Version 2
File size : 1.09 GiB
Duration : 49 min 43 s
Overall bit rate : 3 132 kb/s
Encoded date : UTC 2017-02-03 20:25:52
Writing application : mkvmerge v9.3.1 ('Mask Machine') 64bit
Writing library : libebml v1.3.4 + libmatroska v1.4.5

Video
ID : 1
Format : AVC
Format/Info : Advanced Video Codec
Format profile : High@L5
Format settings, CABAC : Yes
Format settings, ReFrames : 16 frames
Codec ID : V_MPEG4/ISO/AVC
Duration : 49 min 42 s
Bit rate : 2 768 kb/s
Width : 1 280 pixels
Height : 720 pixels
Display aspect ratio : 16:9
Frame rate mode : Constant
Frame rate : 23.976 (24000/1001) FPS
Color space : YUV
Chroma subsampling : 4:2:0
Bit depth : 8 bits
Scan type : Progressive
Bits/(Pixel*Frame) : 0.125
Stream size : 984 MiB (88%)
Title : Original
Writing library : x264 core 104 r1698+4 db1e2d4
Encoding settings : cabac=1 / ref=16 / deblock=1:1:1 / analyse=0x3:0x113 / me=umh / subme=9 / psy=1 / fade_compensate=0.00 / psy_rd=0.40:0.00 / mixed_ref=1 / me_range=32 / chroma_me=1 / trellis=1 / 8x8dct=1 / cqm=0 / deadzone=21,11 / fast_pskip=0 / chroma_qp_offset=-2 / threads=6 / sliced_threads=0 / nr=0 / decimate=1 / interlaced=0 / constrained_intra=0 / fgo=0 / bframes=5 / b_pyramid=2 / b_adapt=1 / b_bias=0 / direct=3 / weightb=1 / open_gop=1 / weightp=2 / keyint=240 / keyint_min=24 / scenecut=40 / intra_refresh=0 / rc_lookahead=60 / rc=crf / mbtree=1 / crf=17.0 / qcomp=0.60 / qpmin=10 / qpmax=51 / qpstep=4 / ip_ratio=1.40 / aq=1:0.60
Language : Japanese
Default : No
Forced : No

Audio #1
ID : 2
Format : AAC
Format/Info : Advanced Audio Codec
Format profile : LC
Codec ID : A_AAC
Duration : 49 min 43 s
Bit rate : 192 kb/s
Channel(s) : 2 channels
Channel positions : Front: L R
Sampling rate : 48.0 kHz
Frame rate : 46.875 FPS (1024 spf)
Compression mode : Lossy
Stream size : 69.5 MiB (6%)
Title : MVO | DeadLine Studio
Language : Russian
Default : Yes
Forced : Yes

Audio #2
ID : 3
Format : AAC
Format/Info : Advanced Audio Codec
Format profile : LC
Codec ID : A_AAC
Duration : 49 min 42 s
Bit rate : 166 kb/s
Channel(s) : 2 channels
Channel positions : Front: L R
Sampling rate : 48.0 kHz
Frame rate : 46.875 FPS (1024 spf)
Compression mode : Lossy
Stream size : 59.1 MiB (5%)
Title : Original
Language : Japanese
Default : No
Forced : No

Text
ID : 4
Format : ASS
Codec ID : S_TEXT/ASS
Codec ID/Info : Advanced Sub Station Alpha
Duration : 48 min 49 s
Bit rate : 170 b/s
Count of elements : 688
Compression mode : Lossless
Stream size : 61.0 KiB (0%)
Title : Субтитры
Language : Russian
Default : No
Forced : No
info [Профиль]  [ЛС] 

TotSamiySoer

Пол: Пол:Муж

Стаж: 2 года 4 месяца

Сообщений: 248

Россия
Рейтинг

post 04-Фев-2017 19:14 (спустя 45 секунд) [-]0[+]

[Цитировать] 

Добавлен: фильм
info [Профиль]  [ЛС] 

Shadic

Пол: Пол:Муж

Стаж: 7 лет 1 месяц

Сообщений: 72

Россия
Рейтинг

post 04-Фев-2017 19:30 (спустя 16 минут) [-]0[+]

[Цитировать] 

Еще нового фильма The Dark.. нет?
info [Профиль]  [ЛС] 
Показать сообщения:    
Ответить на тему

Текущее время: 26-Мар 03:42

Часовой пояс: GMT + 4



Вы не можете начинать темы
Вы не можете отвечать на сообщения
Вы не можете редактировать свои сообщения
Вы не можете удалять свои сообщения
Вы не можете голосовать в опросах
Вы не можете прикреплять файлы к сообщениям
Вы не можете скачивать файлы