Ошибка

Вопль / The Wailing (На Хон-джин) [2016, триллер, драма, BDRip]

Ответить на тему
 
Автор Сообщение

topsex

Пол: Пол:Муж

Стаж: 6 лет 10 месяцев

Сообщений: 452

СССР
Рейтинг

post 03-Фев-2017 22:59 1[+]

[Цитировать] 

Вопль / The Wailing

pic="http://i78.fastpic.ru/big/2016/1012/11/7a08bd43eb1e0a8d3ee9b7829cf7a111.jpg"


Год выпуска: 2016
Страна: Южная Корея
Жанр: триллер, драма
Продолжительность: 02:36:08
Перевод: Любительский (двухголосый закадровый) DeadSno, den904
Субтитры: Нет

Режиссер:
  • На Хон-джин
В ролях:
  • Квак То-вон, Хван Джон-мин, Дзюн Кунимура, Чхон У-хи, Ким Хван-хи, Чан Со-ён, Чо Хан-чхоль, Чхве Гви-хва, Ли Чхан-хун, Ю Сун-ун


Описание: В отдаленной лесной деревне Коксон происходят ужасные вещи — люди вдруг покрываются язвами, странно себя ведут и даже нападают на своих родных. Уже произошло несколько убийств. Полиция в растерянности. Судя по слухам, виноваты то ли какие-то ядовитые грибы, то ли приезжий японец. Местный полицейский Чон-гу смотрит на происходящее довольно отстранённо, но ровно до тех пор, пока этот кошмар не касается его дочери.



Качество: BDRip
Формат: AVI
Видео: 720x304 (2.37:1), 24.000 fps, XviD build 73 ~1540 kbps avg, 0.29 bit/pixel
Аудио: 48 kHz, AC3 Dolby Digital, 3/2 (L,C,R,l,r) + LFE ch, ~448 kbps
Формат : AVI
Формат/Информация : Audio Video Interleave
Профиль формата : OpenDML
Размер файла : 2,18 Гбайт
Продолжительность : 2 ч. 36 м.
Общий поток : 1995 Кбит/сек
Программа кодирования : VirtualDubMod 1.5.10.3 | www.virtualdub-fr.org || (build 2550/release)
Библиотека кодирования : VirtualDubMod build 2550/release

Видео
Идентификатор : 0
Формат : MPEG-4 Visual
Профиль формата : Advanced Simple@L5
Параметр BVOP формата : 1
Параметр QPel формата : Нет
Параметр GMC формата : Без точки перехода
Параметр матрицы формата : Выборочная
Идентификатор кодека : XVID
Идентификатор кодека/Подсказка : XviD
Продолжительность : 2 ч. 36 м.
Битрейт : 1535 Кбит/сек
Ширина : 720 пикселей
Высота : 304 пикселя
Соотношение сторон : 2,35:1
Частота кадров : 24,000 кадра/сек
Цветовое пространство : YUV
Субдискретизация насыщенности : 4:2:0
Битовая глубина : 8 бит
Тип развёртки : Прогрессивная
Метод сжатия : С потерями
Бит/(Пиксели*Кадры) : 0.292
Размер потока : 1,67 Гбайт (77%)
Библиотека кодирования : XviD 73

Аудио
Идентификатор : 1
Формат : AC-3
Формат/Информация : Audio Coding 3
Расширение режима : CM (complete main)
Параметр Endianness формата : Big
Идентификатор кодека : 2000
Продолжительность : 2 ч. 36 м.
Вид битрейта : Постоянный
Битрейт : 448 Кбит/сек
Каналы : 6 каналов
Расположение каналов : Front: L C R, Side: L R, LFE
Частота : 48,0 КГц
Частота кадров : 31,250 кадров/сек (1536 spf)
Метод сжатия : С потерями
Размер потока : 500 Мбайт (22%)
Выравнивание : Разделение по промежуткам
Продолжительность промежутка : 42 мс. (1,00 видеокадр)
Время предзагрузки промежутка : 500 мс.
info [Профиль]  [ЛС] 

post 03-Фев-2017 23:24 (спустя 25 минут) [-]0[+]

Топик был перенесен из форума Анонсы в форум Азиатское кино | Rips

BZzz
 

UberDog

Стаж: 4 года 3 месяца

Сообщений: 9

Россия
Рейтинг

post 04-Фев-2017 09:57 (спустя 10 часов) [-]2[+]

[Цитировать] 

Отличный фильм, но разгоняется медленно, к этому надо быть готовым. Крайне атмосферный.
info [Профиль]  [ЛС] 

reverz

Пол: Пол:Муж

Стаж: 5 лет 5 месяцев

Сообщений: 356

СССР
Рейтинг

post 04-Фев-2017 12:33 (спустя 2 часа 36 минут) [-]0[+]

[Цитировать] 

UberDog Да, тем кто не привык к медлительности азиатского кино лучше подождать версию от Ридли Скотта.
info [Профиль]  [ЛС] 

JSMadcap

Пол: Пол:Муж

Стаж: 7 лет 9 месяцев

Сообщений: 232

Рейтинг

post 04-Фев-2017 16:38 (спустя 4 часа) [-]0[+]

[Цитировать] 

"Жёлтое море" и "Преследователь" - рекомендуется к просмотру!

_________________
Евгений
info [Профиль]  [ЛС] 

Poocha

Пол: Пол:Муж

Стаж: 3 года 11 месяцев

Сообщений: 1

Россия
Рейтинг

post 04-Фев-2017 17:45 (спустя 1 час 7 минут) [-]1[+]

[Цитировать] 

Как фанат Корейского кино - классный фильм. Но и для обычных любителей триллеров рекомендую. Если нравится похожее кино, то советую: "Воспоминания об убийстве", "Я видел дьявола", "Я - убийца".
info [Профиль]  [ЛС] 

NoThankS

Пол: Пол:Муж

Стаж: 7 лет 5 месяцев

Сообщений: 29

Россия
Рейтинг

post 04-Фев-2017 19:23 (спустя 1 час 37 минут) [-]-4[+]

[Цитировать] 

Крайне абсурдное кино, не смотреть тем кто не желает тратить свое время на ерунду и бессмыслицу. Такой рейтинг могла накрутить, наверное, только существенная ачсть азиатского населения.
info [Профиль]  [ЛС] 

medvlad

Пол: Пол:Муж

Стаж: 7 лет 5 месяцев

Сообщений: 4

Россия
Рейтинг

post 04-Фев-2017 19:42 (спустя 18 минут) [-]0[+]

[Цитировать] 

Отличный фильм, смысл очень даже есть, но чтобы его понять правильно придется еще и разьяснение посмотреть Улыбаюсь https://www.youtube.com/watch?v=lxjp2YIk798&app=desktop На русском не нашел(
info [Профиль]  [ЛС] 

JSMadcap

Пол: Пол:Муж

Стаж: 7 лет 9 месяцев

Сообщений: 232

Рейтинг

post 05-Фев-2017 06:02 (спустя 10 часов) [-]0[+]

[Цитировать] 

Poocha писал(а):

"Я - убийца".
Сенкью, глянем

_________________
Евгений
info [Профиль]  [ЛС] 

UberDog

Стаж: 4 года 3 месяца

Сообщений: 9

Россия
Рейтинг

post 07-Фев-2017 07:35 (спустя 2 дня 1 час) [-]0[+]

[Цитировать] 

Poocha писал(а):

Как фанат Корейского кино - классный фильм. Но и для обычных любителей триллеров рекомендую. Если нравится похожее кино, то советую: "Воспоминания об убийстве", "Я видел дьявола", "Я - убийца".
Фильмы отличные, но к Воплю отношения никакого не имеют х)
info [Профиль]  [ЛС] 

Lens

Стаж: 7 лет 10 месяцев

Сообщений: 1

Рейтинг

post 09-Фев-2017 08:34 (спустя 2 дня) [-]0[+]

[Цитировать] 

Смотрится хорошо, с интересом, но в конце смысл как-то ускользнул от меня.
info [Профиль]  [ЛС] 
Показать сообщения:    
Ответить на тему

Текущее время: 28-Фев 16:27

Часовой пояс: GMT + 4



Вы не можете начинать темы
Вы не можете отвечать на сообщения
Вы не можете редактировать свои сообщения
Вы не можете удалять свои сообщения
Вы не можете голосовать в опросах
Вы не можете прикреплять файлы к сообщениям
Вы не можете скачивать файлы