Ошибка

До окончания фрилича осталось:


Бременские разбойники (Алексей Лукьянчиков) [2016 г., мультфильм, комедия, приключения, музыка, WEB-DL 1080p]

Ответить на тему
 
Автор Сообщение

Kapolone

Пол: Пол:Муж

Стаж: 4 года 9 месяцев

Сообщений: 397

Канада
Рейтинг

post 09-Янв-2017 09:20 0[+]

[Цитировать] 

Бременские разбойники

Год выпуска: 2016
Страна: Россия, Украина
Жанр: мультфильм, комедия, приключения, музыка
Продолжительность: 01:12:46
Перевод: Не требуется
Язык субтитров: нет

Режиссер:
  • Алексей Лукьянчиков


В ролях:
  • Дина Гарипова, Наталья Подольская, Максим Матвеев, Александр Иванов, Владимир Кошевой, Андрей Тартаков, Дмитрий Филимонов, Юлия Яблонская, Игорь Тарадайкин, Анастасия Садовская


Описание: Среди высохших рек и выжженных лесов раскинулось Королевство, где не поют птицы, не доются коровы, а люди живут в постоянном страхе и нищете. А все потому, что 18 лет назад в результате дворцового переворота к власти пришли хитрые и жадные Министры. Неповиновение новым законам жестоко карается, и никто не осмеливается перечить Королевской охране. Никто, кроме благородного разбойника Трубин Гуда, который грабит Министров и раздаёт награбленное бедным. А помогают ему в этом его верные друзья: кот Зигмунд, пес Баскервиль, петух Петруччо и ослица Гретхен. В то время как жители Королевства слагают о нём легенды, а Министры готовы отдать за его голову любую награду, сам Трубин Гуд мечтает лишь о том, чтобы вернуть Королевство к прежнему процветанию.


Качество: WEB-DL 1080p
Формат: MKV
Видео кодек: MPEG-4 AVC
Аудио кодек: AC3
Видео: 4 965 kb/s, 1 920x1080
Аудио: AC3, 384 kb/s (6 ch)

Код:

General
Unique ID                                : 205717475744235269733847491882365204595 (0x9AC3BEA22A8324A78DF43A4D78DBB873)
Complete name                            : Bremenskie.RaZBoyniKi.2O16.O.WEB-DL.1O8Op.mkv
Format                                   : Matroska
Format version                           : Version 2
File size                                : 2.77 GiB
Duration                                 : 1h 12mn
Overall bit rate                         : 5 458 Kbps
Encoded date                             : UTC 2017-01-08 22:29:10
Writing application                      : mkvmerge v8.3.0 ('Over the Horizon') 64bit
Writing library                          : libebml v1.3.1 + libmatroska v1.4.2
DURATION                                 : 01:12:46.304000000
NUMBER_OF_FRAMES                         : 136447
NUMBER_OF_BYTES                          : 209582592
_STATISTICS_WRITING_APP                  : mkvmerge v8.3.0 ('Over the Horizon') 64bit
_STATISTICS_WRITING_DATE_UTC             : 2017-01-08 22:29:10
_STATISTICS_TAGS                         : BPS DURATION NUMBER_OF_FRAMES NUMBER_OF_BYTES

Video
ID                                       : 1
Format                                   : AVC
Format/Info                              : Advanced Video Codec
Format profile                           : High@L4.0
Format settings, CABAC                   : Yes
Format settings, ReFrames                : 4 frames
Codec ID                                 : V_MPEG4/ISO/AVC
Duration                                 : 1h 12mn
Bit rate                                 : 4 965 Kbps
Width                                    : 1 920 pixels
Height                                   : 1 080 pixels
Display aspect ratio                     : 16:9
Frame rate mode                          : Constant
Frame rate                               : 25.000 fps
Color space                              : YUV
Chroma subsampling                       : 4:2:0
Bit depth                                : 8 bits
Scan type                                : Progressive
Bits/(Pixel*Frame)                       : 0.096
Stream size                              : 2.52 GiB (91%)
Language                                 : English
Default                                  : Yes
Forced                                   : No
Color primaries                          : BT.709
Transfer characteristics                 : BT.709
Matrix coefficients                      : BT.709

Audio
ID                                       : 2
Format                                   : AC-3
Format/Info                              : Audio Coding 3
Mode extension                           : CM (complete main)
Format settings, Endianness              : Big
Codec ID                                 : A_AC3
Duration                                 : 1h 12mn
Bit rate mode                            : Constant
Bit rate                                 : 384 Kbps
Channel(s)                               : 6 channels
Channel positions                        : Front: L C R, Side: L R, LFE
Sampling rate                            : 48.0 KHz
Bit depth                                : 16 bits
Compression mode                         : Lossy
Stream size                              : 200 MiB (7%)
Language                                 : Russian
Default                                  : Yes
Forced                                   : No

Menu
00:00:00.000                             : en:Глава 1
00:06:56.800                             : en:Глава 2
00:14:10.160                             : en:Глава 3
00:20:30.200                             : en:Глава 4
00:27:14.720                             : en:Глава 5
00:34:39.160                             : en:Глава 6
00:40:54.000                             : en:Глава 7
00:47:28.720                             : en:Глава 8
00:54:09.840                             : en:Глава 9
01:00:27.720                             : en:Глава 10
01:07:20.480                             : en:Глава 11
info [Профиль]  [ЛС] 

Nikohorse

Стаж: 4 года 3 месяца

Сообщений: 170

Мексика
Рейтинг

post 09-Янв-2017 15:17 (спустя 5 часов) [-]1[+]

[Цитировать] 

Ремейк шедевра суть ересь.

_________________
info [Профиль]  [ЛС] 

soundman_333

Стаж: 4 года 6 месяцев

Сообщений: 77

Предупреждений: 2

Украина
Рейтинг

post 10-Янв-2017 01:41 (спустя 10 часов) [-]0[+]

[Цитировать] 

Россия-Украина... Интересно... скачаю надо взглянуть ))
info [Профиль]  [ЛС] 

NiceGuyEddy

Стаж: 7 лет 8 месяцев

Сообщений: 173

Россия
Рейтинг

post 10-Янв-2017 19:50 (спустя 18 часов) [-]5[+]

[Цитировать] 

Если у кого не отображается и лень переходить на КП
info [Профиль]  [ЛС] 

post 22-Июн-2017 08:48 (спустя 5 месяцев 11 дней) [-]0[+]

Топик был перенесен из форума Новинки 2016-2017 (Web-DL, DVD, HD DVD, Blu-ray, HD Rips) в форум Мультфильмы (HD Video)

L
 
Показать сообщения:    
Ответить на тему

Текущее время: 20-Ноя 03:57

Часовой пояс: GMT + 4



Вы не можете начинать темы
Вы не можете отвечать на сообщения
Вы не можете редактировать свои сообщения
Вы не можете удалять свои сообщения
Вы не можете голосовать в опросах
Вы не можете прикреплять файлы к сообщениям
Вы не можете скачивать файлы