Ошибка

Вспомнить всё / Total Recall (Лен Уайзман / Len Wiseman) [2012, США, Канада, фантастика, боевик, триллер, WEB-DL 2160p] [Theatrical Cut] Dub (Blu-ray CEE) + Dub (Ukr, Blu-ray CEE) + Original Eng + Sub Rus, Eng

Ответить на тему
 
Автор Сообщение

L

Пол: Пол:Муж

Стаж: 6 лет 11 месяцев

Сообщений: 11366

Украина
Рейтинг

post 02-Янв-2017 10:11 2[+]

[Цитировать] 

Вспомнить всё / Total Recall

Страна: США, Канада
Студия: Total Recall, Original Film, Rekall Productions
Жанр: Фантастика, боевик, триллер, приключения, экранизация
Год выпуска: 2012
Продолжительность: 01:39:59

Перевод: Профессиональный (дублированный) Blu-ray CEE
Cубтитры: русские, украинские (форсированные), английские
Оригинальная аудиодорожка: английский

Режиссер: Лен Уайзман

В ролях: Колин Фаррелл, Кейт Бекинсейл, Джессика Бил, Брайан Крэнстон, Джон Чо, Билл Найи, Букем Вудбайн, Уилл Юн Ли, Милтон Барнс, Джеймс Макгоун, Майкл Терриоль, Натали Лисинска, Стивен МакДональд, Мишель Морган, Дилан Смит, Эндрю Муди, Кейтлин Вонг, Стив Байерс, Дэнни Во, Джеффри Паунсетт

Описание: Экранизация рассказа Филипа К. Дика «В глубине памяти». В конце 21-го века после глобальной химической войны почти вся планета превратилась в безжизненную, смертоносную пустыню. Пригодными для жизни остались только две территории - Объединённая Британская Федерация (ОБФ) и Колония (Австралия). Каждое утро, увозя рабочих на завод Федерации, из Колонии отправлялся "Скат" ("The Fall") - транспорт, покрывающий весь путь за 17 минут. А вечером "Скат" привозил их обратно. Правительство ОБФ давно заглядывалось на соседский лакомый клочок самого ценного ресурса после войны - пригодную для жизни землю Колонии, но Сопротивление Колонии умело защитить свою территорию. И тогда секретные федеральные службы разработали чудовищный план. Организовав серию терактов и обвинив в них Сопротивление, власти начали усиленное производство роботов-солдатов. Даг Куэйд, как и многие его земляки-колонисты, работает на заводе, производящем этих роботов. Его жизнь сложилась почти благополучно, но один и тот же сон, который снится почти постоянно, отравляет ему жизнь. И однажды, пытаясь разобраться в происходящем, он решается обратиться в фирму, которая обещает имплантировать своим клиентам любые воспоминания - "Вспомнить всё"...

Дополнительное описание:


Сэмпл: https://yadi.sk/i/_psXRbkqkbpgr

Сравнение с Blu-ray: http://screenshotcomparison.com/comparison/151047/

Исходник: ULTRAHDCLUB

Тип релиза: WEB-DL 2160p
Контейнер: MKV

Видео: 3840x1606 (2.40:1), 23,976 fps, 24.9 Mbps, 0.168 bits/(pixel*frame)
Аудио: 48 kHz, AC3 Dolby Digital, 3/2 (L,C,R,l,r) + LFE ch, ~640.00 kbps avg | DUB, Blu-ray CEE
Аудио 2: 48 kHz, AC3 Dolby Digital, 3/2 (L,C,R,l,r) + LFE ch, ~640.00 kbps avg | DUB, Blu-ray CEE (украинский)
Аудио 3: 48 kHz, AC3 Dolby Digital, 3/2 (L,C,R,l,r) + LFE ch, ~640.00 kbps avg | Английский
Формат субтитров: softsub (SRT)
General
Unique ID : 188053524567859459631231426838599582886 (0x8D79CA99EDFDD3A8915064A19D9444A6)
Complete name : G://Вспомнить всё (2012, WEB-DL 2160).mkv
Format : Matroska
Format version : Version 4 / Version 2
File size : 22.8 GiB
Duration : 1h 58mn
Overall bit rate : 27.5 Mbps
Movie name : Total Recall (2012) - Release for ULTRAHDCLUB
Encoded date : UTC 2015-11-20 14:00:47
Writing application : mkvmerge v8.2.0 ('World of Adventure') 32bit
Writing library : libebml v1.3.1 + libmatroska v1.4.2
DURATION : 01:58:16.096000000
NUMBER_OF_FRAMES : 221753
NUMBER_OF_BYTES : 567687680
_STATISTICS_WRITING_APP : mkvmerge v8.2.0 ('World of Adventure') 32bit
_STATISTICS_WRITING_DATE_UT : 2015-11-20 14:00:47
_STATISTICS_TAGS : BPS DURATION NUMBER_OF_FRAMES NUMBER_OF_BYTES

Video
ID : 1
Format : AVC
Format/Info : Advanced Video Codec
Format profile : High@L5.1
Format settings, CABAC : Yes
Format settings, ReFrames : 5 frames
Codec ID : V_MPEG4/ISO/AVC
Duration : 1h 58mn
Bit rate : 24.9 Mbps
Width : 3 840 pixels
Height : 1 606 pixels
Display aspect ratio : 2.40:1
Frame rate mode : Constant
Frame rate : 23.976 fps
Color space : YUV
Chroma subsampling : 4:2:0
Bit depth : 8 bits
Scan type : Progressive
Bits/(Pixel*Frame) : 0.168
Stream size : 20.6 GiB (90%)
Title : Total Recall (2012) - Release for ULTRAHDCLUB
Writing library : x264 core 146 r2538 121396c
Encoding settings : cabac=1 / ref=5 / deblock=1:-2:-2 / analyse=0x3:0x133 / me=umh / subme=10 / psy=1 / psy_rd=1.00:0.15 / mixed_ref=1 / me_range=48 / chroma_me=1 / trellis=2 / 8x8dct=1 / cqm=0 / deadzone=21,11 / fast_pskip=1 / chroma_qp_offset=-3 / threads=12 / lookahead_threads=2 / sliced_threads=0 / nr=0 / decimate=0 / interlaced=0 / bluray_compat=0 / constrained_intra=0 / bframes=8 / b_pyramid=2 / b_adapt=2 / b_bias=0 / direct=3 / weightb=1 / open_gop=0 / weightp=2 / keyint=240 / keyint_min=23 / scenecut=40 / intra_refresh=0 / rc_lookahead=60 / rc=crf / mbtree=1 / crf=18.0 / qcomp=0.70 / qpmin=0 / qpmax=69 / qpstep=4 / vbv_maxrate=300000 / vbv_bufsize=300000 / crf_max=0.0 / nal_hrd=none / filler=0 / ip_ratio=1.30 / aq=1:0.90
Default : Yes
Forced : No

Audio #1
ID : 2
Format : AC-3
Format/Info : Audio Coding 3
Mode extension : CM (complete main)
Format settings, Endianness : Big
Codec ID : A_AC3
Duration : 1h 58mn
Bit rate mode : Constant
Bit rate : 640 Kbps
Channel(s) : 6 channels
Channel positions : Front: L C R, Side: L R, LFE
Sampling rate : 48.0 KHz
Compression mode : Lossy
Delay relative to video : 16ms
Stream size : 542 MiB (2%)
Title : AC3 5.1 @ 640 kbps - DUB, Blu-ray CEE
Language : Russian
Default : Yes
Forced : No

Audio #2
ID : 3
Format : AC-3
Format/Info : Audio Coding 3
Mode extension : CM (complete main)
Format settings, Endianness : Big
Codec ID : A_AC3
Duration : 1h 58mn
Bit rate mode : Constant
Bit rate : 640 Kbps
Channel(s) : 6 channels
Channel positions : Front: L C R, Side: L R, LFE
Sampling rate : 48.0 KHz
Compression mode : Lossy
Delay relative to video : 16ms
Stream size : 542 MiB (2%)
Title : AC3 5.1 @ 640 kbps - DUB, Blu-ray CEE
Language : Ukrainian
Default : No
Forced : No

Audio #3
ID : 4
Format : AC-3
Format/Info : Audio Coding 3
Mode extension : CM (complete main)
Format settings, Endianness : Big
Codec ID : A_AC3
Duration : 1h 58mn
Bit rate mode : Constant
Bit rate : 640 Kbps
Channel(s) : 6 channels
Channel positions : Front: L C R, Side: L R, LFE
Sampling rate : 48.0 KHz
Compression mode : Lossy
Stream size : 542 MiB (2%)
Title : AC3 5.1 @ 640 kbps - Blu-ray CEE
Language : English
Default : No
Forced : No

Audio #4
ID : 5
Format : AC-3
Format/Info : Audio Coding 3
Format profile : Dolby Digital
Mode extension : CM (complete main)
Format settings, Endianness : Big
Codec ID : A_AC3
Duration : 1h 58mn
Bit rate mode : Constant
Bit rate : 192 Kbps
Channel(s) : 2 channels
Channel positions : Front: L R
Sampling rate : 48.0 KHz
Compression mode : Lossy
Delay relative to video : 16ms
Stream size : 163 MiB (1%)
Title : AC3 2.0 @ 192 kbps - Commentary
Language : English
Default : No
Forced : No

Text #1
ID : 6
Format : UTF-8
Codec ID : S_TEXT/UTF8
Codec ID/Info : UTF-8 Plain Text
Title : Full
Language : Russian
Default : No
Forced : No

Text #2
ID : 7
Format : UTF-8
Codec ID : S_TEXT/UTF8
Codec ID/Info : UTF-8 Plain Text
Title : Forced
Language : Ukrainian
Default : No
Forced : No

Text #3
ID : 8
Format : UTF-8
Codec ID : S_TEXT/UTF8
Codec ID/Info : UTF-8 Plain Text
Title : Full
Language : English
Default : No
Forced : No

Text #4
ID : 9
Format : UTF-8
Codec ID : S_TEXT/UTF8
Codec ID/Info : UTF-8 Plain Text
Title : Commentary
Language : Russian
Default : No
Forced : No

Menu
00:00:00.000 : en:1
00:08:04.984 : en:2
00:15:19.710 : en:3
00:20:29.186 : en:4
00:27:35.278 : en:5
00:36:09.667 : en:6
00:41:46.670 : en:7
00:45:08.914 : en:8
00:53:36.087 : en:9
00:59:45.957 : en:10
01:07:13.571 : en:11
01:13:11.929 : en:12
01:18:58.775 : en:13
01:27:17.940 : en:14
01:32:33.964 : en:15
01:40:05.249 : en:16
01:58:17.910 : en:17
info [Профиль]  [ЛС] 

ruby666

Пол: Пол:Муж

Стаж: 2 года 4 месяца

Сообщений: 91

Украина
Рейтинг

post 02-Янв-2017 14:36 (спустя 4 часа) [-]3[+]

[Цитировать] 

единственное, что в фильме лучше чем в оригинале - это женские персонажи, точнее актрисы.
upd. Sylvester это чисто вкусовщина Улыбаюсь Omega448, старый вспомнить всё был фильмов категории В не понимаю о какой актёрской игре может идти речь, насчёт актрис - просто дело вкуса Улыбаюсь
info [Профиль]  [ЛС] 

Sylvester

Пол: Пол:Муж

Стаж: 4 года 1 месяц

Сообщений: 48

Россия
Рейтинг

post 02-Янв-2017 16:18 (спустя 1 час 41 минута) [-]2[+]

[Цитировать] 

ruby666 это спорно.
info [Профиль]  [ЛС] 

Omega448

Пол: Пол:Муж

Стаж: 6 лет 6 месяцев

Сообщений: 134

Россия
Рейтинг

post 02-Янв-2017 17:07 (спустя 48 минут) [-]5[+]

[Цитировать] 

В старом красивей девчонки были + игра актрис была на высшем уровне, а в новом фильме не проникаешься игрой актёров, как пустышки...
info [Профиль]  [ЛС] 

rambaramba

Пол: Пол:Муж

Стаж: 2 года 2 месяца

Сообщений: 474

Предупреждений: 1

Антарктида
Рейтинг

post 02-Янв-2017 19:38 (спустя 2 часа 31 минута) [-]1[+]

[Цитировать] 

Omega448
Было меньше компьютерной графики и больше декораций которые хоть немного, но создавали атмосферу фильма для актеров. А сейчас какая может быть игра на стремном зеленом фоне? И да, девушки мне больше запомнились из вообще всех старых фильмов 90-ых годов.

_________________
Уважаемый админ, прошу добавь мне 99 предупреждений. Хочу быть самым опасным и жить на грани банана.
info [Профиль]  [ЛС] 
Показать сообщения:    
Ответить на тему

Текущее время: 28-Мар 02:25

Часовой пояс: GMT + 4



Вы не можете начинать темы
Вы не можете отвечать на сообщения
Вы не можете редактировать свои сообщения
Вы не можете удалять свои сообщения
Вы не можете голосовать в опросах
Вы не можете прикреплять файлы к сообщениям
Вы не можете скачивать файлы